<?xml version="1.0" standalone="no"?>
<!DOCTYPE svg PUBLIC "-//W3C//DTD SVG 1.1//EN" "http://www.w3.org/Graphics/SVG/1.1/DTD/svg11.dtd" >
<svg>
<metadata>
Created by FontForge 20090914 at Tue Jul 22 16:43:30 2014
 By www-data
(c) Copyright 1999-2000 Bitstream/Galapagos Design Group. All rights reserved.
</metadata>
<defs>
<font id="Futura-Light" horiz-adv-x="1270" >
  <font-face 
    font-family="Futura Lt"
    font-weight="400"
    font-stretch="normal"
    units-per-em="2048"
    panose-1="2 11 4 2 2 2 4 2 3 3"
    ascent="1556"
    descent="-492"
    x-height="946"
    cap-height="1544"
    bbox="-387 -553.002 2425 2128"
    underline-thickness="86"
    underline-position="-223"
    unicode-range="U+0020-U+FB02"
  />
<missing-glyph horiz-adv-x="1229" 
d="M102 -362v1806h1024v-1806h-1024zM217 -248h795v1577h-795v-1577z" />
    <glyph glyph-name=".notdef" horiz-adv-x="1229" 
d="M102 -362v1806h1024v-1806h-1024zM217 -248h795v1577h-795v-1577z" />
    <glyph glyph-name="space" unicode=" " horiz-adv-x="635" 
 />
    <glyph glyph-name="exclam" unicode="!" horiz-adv-x="655" 
d="M416 68c0 -24.667 -8.5 -45.5 -25.5 -62.5s-37.833 -25.5 -62.5 -25.5s-45.5 8.5 -62.5 25.5s-25.5 37.833 -25.5 62.5c0 24 8.5 44.667 25.5 62s37.833 26 62.5 26s45.5 -8.66699 62.5 -26s25.5 -38 25.5 -62zM377 344h-98v1200h98v-1200z" />
    <glyph glyph-name="quotedbl" unicode="&#x22;" horiz-adv-x="569" 
d="M195 975h-93v569h93v-569zM467 975h-92v569h92v-569z" />
    <glyph glyph-name="numbersign" unicode="#" 
d="M872 950h-333l-123 -362h329zM1245 1004l-18 -54h-279l-129 -362h311l-18 -53h-309l-187 -535h-75l190 535h-334l-190 -535h-72l184 535h-294l18 53h295l127 362h-328l17 54h329l187 540h71l-182 -540h332l186 540h72l-182 -540h278z" />
    <glyph glyph-name="dollar" unicode="$" 
d="M924 414c0 76 -22.5 142.833 -67.5 200.5s-114.833 109.5 -209.5 155.5v-678c84.667 4 152 35.333 202 94s75 134.667 75 228zM573 909v543c-71.333 -4 -130.333 -30.333 -177 -79s-70 -105.667 -70 -171c0 -60 19.5 -113.167 58.5 -159.5s101.833 -90.833 188.5 -133.5z
M1022 418c0 -119.333 -34.499 -217.836 -103.499 -295.503s-159.5 -118.5 -271.5 -122.5v-215h-74v215c-90 2.66699 -169.5 27.834 -238.5 75.501s-125.833 116.834 -170.5 207.501l90 47c26 -68.667 68 -124.667 126 -168s122.333 -66.666 193 -69.999v713
c-124 60.667 -212.667 121.167 -266 181.5s-80 130.833 -80 211.5c0 92 33.167 171.667 99.5 239s148.5 103 246.5 107v146h74v-145c62.667 -2.66699 118 -17.167 166 -43.5s89.667 -65.5 125 -117.5l-78 -59c-24.667 37.333 -55.334 67 -92.001 89s-77 34.667 -121 38v-578
c136 -64.667 232.5 -131.667 289.5 -201s85.5 -154.333 85.5 -255z" />
    <glyph glyph-name="percent" unicode="%" horiz-adv-x="1360" 
d="M1192 301c0 66.667 -22 123.667 -66 171s-97 71 -159 71c-62.667 0 -116 -23.667 -160 -71s-66 -104.333 -66 -171s22 -123.667 66 -171s97.333 -71 160 -71c62 0 115 23.667 159 71s66 104.333 66 171zM618 1243c0 66.667 -21.833 123.667 -65.5 171
s-96.834 71 -159.501 71c-62 0 -115 -23.667 -159 -71s-66 -104.333 -66 -171s22 -123.667 66 -171s97 -71 159 -71c62.667 0 115.834 23.667 159.501 71s65.5 104.333 65.5 171zM1278 301c0 -88.667 -30.333 -164.334 -91 -227.001s-134 -94 -220 -94
s-159.5 31.333 -220.5 94s-91.5 138.334 -91.5 227.001c0 89.333 30.5 165.333 91.5 228s134.5 94 220.5 94s159.333 -31.333 220 -94s91 -138.667 91 -228zM1161 1544l-874 -1544h-88l874 1544h88zM705 1243c0 -88.667 -30.5 -164.334 -91.5 -227.001
s-134.5 -94 -220.5 -94s-159.333 31.333 -220 94s-91 138.334 -91 227.001c0 89.333 30.333 165.333 91 228s134 94 220 94s159.5 -31.333 220.5 -94s91.5 -138.667 91.5 -228z" />
    <glyph glyph-name="ampersand" unicode="&#x26;" horiz-adv-x="1315" 
d="M926 299l-418 528.001c-139.333 -92 -233.833 -167.333 -283.5 -226s-74.5 -131.334 -74.5 -218.001c0 -93.333 32.5 -169.5 97.5 -228.5s147.833 -88.5 248.5 -88.5c72 0 144 19.5 216 58.5s143.333 97.167 214 174.5zM772 1276c0 60 -19.5 108.833 -58.5 146.5
s-89.833 56.5 -152.5 56.5c-65.333 0 -117.166 -18.167 -155.499 -54.5s-57.5 -84.5 -57.5 -144.5c0 -34.667 9.33301 -72 28 -112s47.667 -85.333 87 -136l72 -90c87.333 60 148.666 114.167 183.999 162.5s53 105.5 53 171.5zM1282 0.000976562l-119.002 -0.00292969
l-182 229c-77.333 -83.333 -156.833 -145.666 -238.5 -186.999s-166.167 -62 -253.5 -62c-129.333 0 -234.666 39 -315.999 117s-122 178 -122 300c0 86.667 31 167.834 93 243.501s166.333 159.167 313 250.5l-82 104c-44 57.333 -74.833 108.333 -92.5 153
s-26.5 90 -26.5 136c0 83.333 27.333 151 82 203s129 78 223 78c88.667 0 161.334 -27.333 218.001 -82s85 -123.667 85 -207c0 -75.333 -21.333 -143.833 -64 -205.5s-114 -125.5 -214 -191.5l401 -508c32.667 40.667 64.167 84.334 94.5 131.001s59.5 95.667 87.5 147
l74 -43c-34 -62 -67.5 -118.333 -100.5 -169s-65.833 -96 -98.5 -136z" />
    <glyph glyph-name="quotesingle" unicode="'" horiz-adv-x="455" 
d="M274 975h-94v569h94v-569z" />
    <glyph glyph-name="parenleft" unicode="(" horiz-adv-x="492" 
d="M440 -422l-75 -38.9941c-88 149.333 -153.833 308.666 -197.5 477.999s-65.5 350.666 -65.5 543.999s21.833 374.666 65.5 543.999s109.5 328.666 197.5 477.999l75 -39c-82.667 -143.333 -144.167 -295.833 -184.5 -457.5s-60.5 -336.834 -60.5 -525.501
c0 -189.333 20 -364.333 60 -525s101.667 -313.334 185 -458.001z" />
    <glyph glyph-name="parenright" unicode=")" horiz-adv-x="492" 
d="M389 561c0 -193.333 -21.667 -374.672 -65 -544.005s-109 -328.666 -197 -477.999l-76 39c83.333 144.667 145.166 297.334 185.499 458.001s60.5 335.667 60.5 525c0 188.667 -20.167 363.834 -60.5 525.501s-102.166 314.167 -185.499 457.5l76 39
c88 -149.333 153.667 -308.666 197 -477.999s65 -350.666 65 -543.999z" />
    <glyph glyph-name="asterisk" unicode="*" horiz-adv-x="1268" 
d="M985 1004l-45 -72l-274 176l10 -326h-84l10 326l-274 -176l-45 72l286 159l-286 160l45 72l274 -176l-10 325h84l-10 -325l274 176l45 -72l-287 -160z" />
    <glyph glyph-name="plus" unicode="+" 
d="M1167 510h-487v-510h-90v510h-488v86h488v510h90v-510h487v-86z" />
    <glyph glyph-name="comma" unicode="," horiz-adv-x="635" 
d="M424 154l-285 -523l-57 27l219 553z" />
    <glyph glyph-name="hyphen" unicode="-" horiz-adv-x="389" 
d="M389 512h-389v92h389v-92z" />
    <glyph glyph-name="period" unicode="." horiz-adv-x="635" 
d="M406 68c0 -24.667 -8.66699 -45.5 -26 -62.5s-38.333 -25.5 -63 -25.5c-24 0 -44.667 8.5 -62 25.5s-26 37.833 -26 62.5c0 24 8.66699 44.667 26 62s38 26 62 26c24.667 0 45.667 -8.66699 63 -26s26 -38 26 -62z" />
    <glyph glyph-name="slash" unicode="/" horiz-adv-x="1311" 
d="M1229 1657l-1157 -1964l-72 53l1157 1964z" />
    <glyph glyph-name="zero" unicode="0" 
d="M1069 774c0 218 -39 389.001 -117 513.001s-185 186 -321 186c-129.333 0 -233.333 -64.167 -312 -192.5s-118 -298.5 -118 -510.5c0 -210 39.5 -378.833 118.5 -506.5s184.167 -191.5 315.5 -191.5c136 0 242.333 61.667 319 185s115 295.666 115 516.999zM1167 772.001
c0 -244 -48.667 -437 -146 -579s-227.333 -213 -390 -213c-156.667 0 -284 72 -382 216s-147 336 -147 576c0 242 48.667 434.667 146 578s226.333 215 387 215s289.5 -71.5 386.5 -214.5s145.5 -335.833 145.5 -578.5z" />
    <glyph glyph-name="one" unicode="1" 
d="M696 0h-98v1452h-295l49 92h344v-1544z" />
    <glyph glyph-name="two" unicode="2" 
d="M1085 1128c0 -89.333 -21.833 -175.832 -65.5 -259.499s-147.167 -213.5 -310.5 -389.5l-361 -387h731v-92h-944l529 565c118.667 127.333 202.167 232.166 250.5 314.499s72.5 164.5 72.5 246.5c0 102.667 -34.167 186.167 -102.5 250.5s-159.833 96.5 -274.5 96.5
c-108.667 0 -197 -34.833 -265 -104.5s-102.667 -160.5 -104 -272.5h-97c0.666992 142 44 255.667 130 341s200.667 128 344 128c141.333 0 254.5 -40.5 339.5 -121.5s127.5 -186.167 127.5 -315.5z" />
    <glyph glyph-name="three" unicode="3" 
d="M1075 432c0 -138.667 -40.502 -248.665 -121.502 -329.998s-192.833 -122 -335.5 -122c-140.667 0 -250.834 33.667 -330.501 101s-122.834 164 -129.501 290h98c10 -94 46.667 -167.333 110 -220s147.333 -79 252 -79c117.333 0 206.5 31 267.5 93s91.5 151 91.5 267
c0 110.667 -35.333 194 -106 250s-176 84 -316 84v92c136.667 0 235.334 25 296.001 75s91 129.333 91 238c0 89.333 -27.833 162 -83.5 218s-130.167 84 -223.5 84c-88.667 0 -160.167 -20.5 -214.5 -61.5s-88.166 -99.833 -101.499 -176.5h-98
c16.667 104 61.167 185 133.5 243s165.833 87 280.5 87c126.667 0 225.834 -35.167 297.501 -105.5s107.5 -164.833 107.5 -283.5c0 -92 -23.667 -171.667 -71 -239s-111 -109.333 -191 -126c88.667 -12.667 160.334 -53.834 215.001 -123.501s82 -154.834 82 -255.501z" />
    <glyph glyph-name="four" unicode="4" 
d="M807 467v840l-625 -840h625zM1167 373h-262v-373h-98v373h-797l895 1208v-1114h262v-94z" />
    <glyph glyph-name="five" unicode="5" 
d="M1085 500c0 -154 -49.668 -279.166 -149.001 -375.499s-227 -144.5 -383 -144.5c-104 0 -193.833 22.333 -269.5 67s-139.5 113 -191.5 205l82 55c48 -82 102.5 -141.667 163.5 -179s134.833 -56 221.5 -56c124.667 0 227.167 39.667 307.5 119s120.5 182.333 120.5 309
c0 125.333 -39 228.666 -117 309.999s-179 122 -303 122c-75.333 0 -141.666 -9.16699 -198.999 -27.5s-108.333 -46.833 -153 -85.5l191 725h600v-92h-529l-129 -469c27.333 14 59.333 24.333 96 31s77.667 10 123 10c154.667 0 279.667 -48.667 375 -146
s143 -223.333 143 -378z" />
    <glyph glyph-name="six" unicode="6" 
d="M1065 502c0 118.667 -42 220 -126 304s-185.333 126 -304 126s-220 -42 -304 -126s-126 -185.333 -126 -304s42 -220 126 -304s185.333 -126 304 -126s220 42 304 126s126 185.333 126 304zM1163 502c0 -144.667 -51.666 -267.833 -154.999 -369.5
s-227.666 -152.5 -372.999 -152.5s-269.833 50.833 -373.5 152.5s-155.5 224.834 -155.5 369.501c0 76 19.167 153.167 57.5 231.5s113.5 194.166 225.5 347.499l354 484l78 -62l-399 -536c24 16 56.667 29.5 98 40.5s79.666 16.5 114.999 16.5
c145.333 0 269.666 -51 372.999 -153s155 -225 155 -369z" />
    <glyph glyph-name="seven" unicode="7" 
d="M1208 1544l-936 -1564l-82 55l852 1417h-913v92h1079z" />
    <glyph glyph-name="eight" unicode="8" 
d="M991 416c0 94 -34.833 174.5 -104.5 241.5s-153.5 100.5 -251.5 100.5s-181.833 -33.5 -251.5 -100.5s-104.5 -147.5 -104.5 -241.5c0 -94.667 34.833 -175.667 104.5 -243s153.5 -101 251.5 -101s181.833 33.667 251.5 101s104.5 148.333 104.5 243zM946 1161
c0 87.333 -30.167 161.166 -90.5 221.499s-133.833 90.5 -220.5 90.5s-160.167 -30.167 -220.5 -90.5s-90.5 -134.166 -90.5 -221.499s30.167 -161 90.5 -221s133.833 -90 220.5 -90s160.167 30 220.5 90s90.5 133.667 90.5 221zM1090 416
c0 -120 -44.666 -222.667 -133.999 -308s-196.333 -128 -321 -128s-231.667 42.667 -321 128s-134 188 -134 308c0 86.667 25.167 165.167 75.5 235.5s117.5 122.166 201.5 155.499c-71.333 32 -127.833 79.667 -169.5 143s-62.5 133.666 -62.5 210.999
c0 111.333 40.167 206.5 120.5 285.5s176.833 118.5 289.5 118.5s209 -39.5 289 -118.5s120 -174.167 120 -285.5c0 -77.333 -20.833 -147.666 -62.5 -210.999s-97.834 -111 -168.501 -143c84 -33.333 151.167 -85.166 201.5 -155.499s75.5 -148.833 75.5 -235.5z" />
    <glyph glyph-name="nine" unicode="9" 
d="M1065 1042c0 119.333 -42 221 -126 305s-185.333 126 -304 126s-220 -42 -304 -126s-126 -185.667 -126 -305c0 -118.667 42 -220 126 -304s185.333 -126 304 -126s220 42 304 126s126 185.333 126 304zM1163 1042c0 -76 -19 -153.168 -57 -231.501
s-113 -194.166 -225 -347.499l-355 -483l-77 61l399 537c-24 -16.667 -56.667 -30.5 -98 -41.5s-79.666 -16.5 -114.999 -16.5c-145.333 0 -269.833 51 -373.5 153s-155.5 225 -155.5 369c0 144.667 51.833 268 155.5 370s228.167 153 373.5 153s269.666 -51 372.999 -153
s155 -225.333 155 -370z" />
    <glyph glyph-name="colon" unicode=":" horiz-adv-x="635" 
d="M406 68c0 -24.667 -8.66699 -45.5 -26 -62.5s-38.333 -25.5 -63 -25.5c-24 0 -44.667 8.5 -62 25.5s-26 37.833 -26 62.5c0 24 8.66699 44.667 26 62s38 26 62 26c24.667 0 45.667 -8.66699 63 -26s26 -38 26 -62zM406 879c0 -24.667 -8.66699 -45.5 -26 -62.5
s-38.333 -25.5 -63 -25.5c-24 0 -44.667 8.5 -62 25.5s-26 37.833 -26 62.5c0 24 8.66699 44.667 26 62s38 26 62 26c24.667 0 45.667 -8.66699 63 -26s26 -38 26 -62z" />
    <glyph glyph-name="semicolon" unicode=";" horiz-adv-x="635" 
d="M424 154l-285 -523l-57 27l219 553zM406 879c0 -24.667 -8.66699 -45.5 -26 -62.5s-38.333 -25.5 -63 -25.5c-24 0 -44.667 8.5 -62 25.5s-26 37.833 -26 62.5c0 24 8.66699 44.667 26 62s38 26 62 26c24.667 0 45.667 -8.66699 63 -26s26 -38 26 -62z" />
    <glyph glyph-name="less" unicode="&#x3c;" 
d="M1147 29l-1024 493v66l1024 493v-94l-905 -432l905 -432v-94z" />
    <glyph glyph-name="equal" unicode="=" 
d="M1147 326h-1024v86h1024v-86zM1147 698h-1024v86h1024v-86z" />
    <glyph glyph-name="greater" unicode="&#x3e;" 
d="M1147 522l-1024 -493v94l905 432l-905 432v94l1024 -493v-66z" />
    <glyph glyph-name="question" unicode="?" horiz-adv-x="1006" 
d="M575 68c0 -24.667 -8.5 -45.5 -25.5 -62.5s-37.833 -25.5 -62.5 -25.5c-24 0 -44.667 8.5 -62 25.5s-26 37.833 -26 62.5c0 24 8.66699 44.667 26 62s38 26 62 26c24.667 0 45.5 -8.66699 62.5 -26s25.5 -38 25.5 -62zM864 1235
c0 -87.333 -24.8301 -161.829 -74.4971 -223.496s-132.5 -121.834 -248.5 -180.501c-94 -46.667 -157.5 -87.5 -190.5 -122.5s-49.5 -83.5 -49.5 -145.5c0 -52 18.167 -94 54.5 -126s85.166 -48 146.499 -48c65.333 0 115.833 17 151.5 51s53.5 82 53.5 144h98
c0 -90 -27 -160.333 -81 -211s-128 -76 -222 -76c-92 0 -164.833 24.5 -218.5 73.5s-80.5 113.833 -80.5 194.5c0 74.667 22.667 138.667 68 192s120.333 104.666 225 153.999c97.333 47.333 166.666 95 207.999 143s62 105.667 62 173
c0 73.333 -23.5 132.666 -70.5 177.999s-109.5 68 -187.5 68c-85.333 0 -150.833 -25 -196.5 -75s-69.834 -122 -72.501 -216h-98c0 122.667 32.167 217.167 96.5 283.5s156.5 99.5 276.5 99.5c106.667 0 191.667 -29.833 255 -89.5s95 -139.834 95 -240.501z" />
    <glyph glyph-name="at" unicode="@" horiz-adv-x="1638" 
d="M1040 920c-11.333 61.333 -32.501 108.001 -63.501 140.001s-71.167 48 -120.5 48c-81.333 0 -149.166 -40.333 -203.499 -121s-81.5 -182.334 -81.5 -305.001c0 -69.333 14.667 -122.166 44 -158.499s72 -54.5 128 -54.5c61.333 0 115.833 24.667 163.5 74
s80.167 114.666 97.5 195.999zM1556 926.001c0 -168 -38 -299.831 -114 -395.498s-181.333 -143.5 -316 -143.5c-47.333 0 -84 12.667 -110 38s-39 61 -39 107c-24.667 -44.667 -58.834 -80 -102.501 -106s-89.5 -39 -137.5 -39c-83.333 0 -147.166 25.667 -191.499 77
s-66.5 125.333 -66.5 222c0 139.333 36.833 258.166 110.5 356.499s161.834 147.5 264.501 147.5c49.333 0 92.5 -13.167 129.5 -39.5s62.833 -61.833 77.5 -106.5l45 107h76l-111 -510c-4 -19.333 -7 -37.5 -9 -54.5s-3 -31.5 -3 -43.5c0 -26 6.66699 -44.833 20 -56.5
s35.333 -17.5 66 -17.5c98.667 0 176.5 39.833 233.5 119.5s85.5 188.5 85.5 326.5c0 166 -55.833 301.5 -167.5 406.5s-255.167 157.5 -430.5 157.5c-208.667 0 -376.167 -69.167 -502.5 -207.5s-189.5 -323.166 -189.5 -554.499
c0 -198.667 59.167 -356.834 177.5 -474.501s276.833 -176.5 475.5 -176.5c92.667 0 180.834 13.667 264.501 41s159.5 67.333 227.5 120l49 -65c-70 -60 -150.667 -105.333 -242 -136s-190.333 -46 -297 -46c-216.667 0 -395.334 67.333 -536.001 202s-211 313 -211 535
c0 251.333 72.667 455.5 218 612.5s334 235.5 566 235.5c201.333 0 366.666 -59.333 495.999 -178s194 -272.334 194 -461.001z" />
    <glyph glyph-name="A" unicode="A" horiz-adv-x="1313" 
d="M942 629l-285 721l-284 -721h569zM1296 0h-104l-213 537h-643l-213 -537h-105l639 1581z" />
    <glyph glyph-name="B" unicode="B" horiz-adv-x="1157" 
d="M954 414c0 112 -40 197.333 -120 256s-197 88 -351 88h-200v-666h237c155.333 0 266.5 26 333.5 78s100.5 133.333 100.5 244zM877 1143c0 109.333 -30.332 188.167 -90.999 236.5s-160.334 72.5 -299.001 72.5h-204v-602h163c150 0 259.333 23.333 328 70
s103 121 103 223zM1053 424.001c0 -144 -43.3311 -250.667 -129.998 -320s-220.334 -104 -401.001 -104h-338v1544h316c158 0 276.667 -32.5 356 -97.5s119 -162.833 119 -293.5c0 -97.333 -23.5 -173.5 -70.5 -228.5s-120.5 -94.833 -220.5 -119.5
c117.333 -16.667 208.166 -58.667 272.499 -126s96.5 -152.333 96.5 -255z" />
    <glyph glyph-name="C" unicode="C" horiz-adv-x="1513" 
d="M1391 117c-70 -43.333 -147.669 -76.999 -233.002 -100.999s-168.333 -36 -249 -36c-233.333 0 -424.666 73.833 -573.999 221.5s-224 338.5 -224 572.5c0 228.667 75.667 417.667 227 567s341.666 224 570.999 224c94 0 180.833 -12.667 260.5 -38
s153.5 -63.333 221.5 -114v-113c-75.333 59.333 -150.666 103 -225.999 131s-155.666 42 -240.999 42c-210 0 -381.667 -65 -515 -195s-200 -298 -200 -504s65.5 -374.5 196.5 -505.5s296.833 -196.5 497.5 -196.5c86 0 170.667 13.667 254 41s161.333 66.666 234 117.999
v-114z" />
    <glyph glyph-name="D" unicode="D" horiz-adv-x="1335" 
d="M1145 772c0 223.333 -65 392.5 -195 507.5s-321.667 172.5 -575 172.5h-103v-1360h74c284 0 488.167 54.333 612.5 163s186.5 281 186.5 517zM1243 770c0 -259.333 -72.166 -452.5 -216.499 -579.5s-365.833 -190.5 -664.5 -190.5h-188v1544h217
c277.333 0 488.666 -67 633.999 -201s218 -325 218 -573z" />
    <glyph glyph-name="E" unicode="E" horiz-adv-x="1038" 
d="M901 0h-727v1544h727v-92h-629v-543h629v-92h-629v-725h629v-92z" />
    <glyph glyph-name="F" unicode="F" horiz-adv-x="909" 
d="M815 817h-543v-817h-98v1544h641v-92h-543v-543h543v-92z" />
    <glyph glyph-name="G" unicode="G" horiz-adv-x="1688" 
d="M1602 756c0 -244 -65.502 -434.332 -196.502 -570.999s-312.833 -205 -545.5 -205c-230 0 -416.5 73.167 -559.5 219.5s-214.5 337.166 -214.5 572.499c0 231.333 71.333 421.333 214 570s325.334 223 548.001 223c147.333 0 270.5 -24.167 369.5 -72.5
s188.833 -128.166 269.5 -239.499l-74 -65c-66 95.333 -145.167 166.666 -237.5 213.999s-198.166 71 -317.499 71c-199.333 0 -361.5 -66.5 -486.5 -199.5s-187.5 -304.833 -187.5 -515.5c0 -196.667 64 -360.167 192 -490.5s288.667 -195.5 482 -195.5
c186.667 0 340.167 56 460.5 168s180.5 253.333 180.5 424h-549v92h652z" />
    <glyph glyph-name="H" unicode="H" horiz-adv-x="1466" 
d="M1292 0h-98v811h-922v-811h-98v1544h98v-641h922v641h98v-1544z" />
    <glyph glyph-name="I" unicode="I" horiz-adv-x="430" 
d="M264 0h-98v1544h98v-1544z" />
    <glyph glyph-name="J" unicode="J" horiz-adv-x="446" 
d="M283 49c0 -127.333 -22.165 -222 -66.498 -284s-111.833 -93 -202.5 -93c-58 0 -109.333 13.5 -154 40.5s-80.667 66.167 -108 117.5l80 55c19.333 -38.667 44.666 -68.5 75.999 -89.5s66.666 -31.5 105.999 -31.5c68 0 113.333 23.333 136 70s34 128 34 244v1466h99
v-1495z" />
    <glyph glyph-name="K" unicode="K" horiz-adv-x="1165" 
d="M1178 0h-142l-764 795v-795h-98v1544h98v-733l744 733h127l-754 -737z" />
    <glyph glyph-name="L" unicode="L" horiz-adv-x="670" 
d="M649 0h-475v1544h98v-1452h377v-92z" />
    <glyph glyph-name="M" unicode="M" horiz-adv-x="1837" 
d="M1739 0h-105l-149 1233l-565 -1270l-568 1270l-149 -1233h-105l205 1581l617 -1399l614 1401z" />
    <glyph glyph-name="N" unicode="N" horiz-adv-x="1726" 
d="M1542 -37l-1259 1364v-1327h-99v1581l1260 -1362v1325h98v-1581z" />
    <glyph glyph-name="O" unicode="O" horiz-adv-x="1749" 
d="M1573 772c0 196.667 -67.8311 362.667 -203.498 498s-301.5 203 -497.5 203c-194.667 0 -359.334 -67.667 -494.001 -203s-202 -301.333 -202 -498s67.167 -362.5 201.5 -497.5s299.166 -202.5 494.499 -202.5c196 0 361.833 67.667 497.5 203s203.5 301 203.5 497z
M1671 772c0 -220.667 -77.667 -407.834 -233 -561.501s-344 -230.5 -566 -230.5c-220 0 -407.333 76.833 -562 230.5s-232 340.834 -232 561.501c0 225.333 76 413.833 228 565.5s340.667 227.5 566 227.5c226 0 415.667 -75.833 569 -227.5s230 -340.167 230 -565.5z" />
    <glyph glyph-name="P" unicode="P" horiz-adv-x="967" 
d="M786 1133c0 110.667 -33.667 191.499 -101 242.499s-178.333 76.5 -333 76.5h-80v-631h80c156.667 0 268.167 24.333 334.5 73s99.5 128.334 99.5 239.001zM885 1133c0 -138 -43.167 -239.833 -129.5 -305.5s-220.833 -98.5 -403.5 -98.5h-80v-729h-98v1544h178
c186 0 321.333 -33.5 406 -100.5s127 -170.5 127 -310.5z" />
    <glyph glyph-name="Q" unicode="Q" horiz-adv-x="1749" 
d="M1573 772c0 196.667 -67.8311 362.667 -203.498 498s-301.5 203 -497.5 203c-194.667 0 -359.334 -67.667 -494.001 -203s-202 -301.333 -202 -498s67.167 -362.5 201.5 -497.5s299.166 -202.5 494.499 -202.5c76.667 0 150.667 11.667 222 35s137.333 57.333 198 102
l-346 405h117l297 -348c68 66.667 120.5 143.5 157.5 230.5s55.5 178.833 55.5 275.5zM1671 772c0 -110.667 -21.667 -216.001 -65 -316.001s-105 -187 -185 -261l242 -283h-117l-192 225c-68 -51.333 -143.167 -90.333 -225.5 -117s-167.833 -40 -256.5 -40
c-220 0 -407.333 76.833 -562 230.5s-232 340.834 -232 561.501c0 225.333 76 413.833 228 565.5s340.667 227.5 566 227.5c226 0 415.667 -75.833 569 -227.5s230 -340.167 230 -565.5z" />
    <glyph glyph-name="R" unicode="R" horiz-adv-x="999" 
d="M795 1141c0 104 -32.833 181.833 -98.5 233.5s-164.834 77.5 -297.501 77.5h-127v-598h127c136.667 0 236.834 23 300.501 69s95.5 118.667 95.5 218zM969 0h-122.999l-539 762h-35v-762h-98v1544h227c159.333 0 281.166 -35.333 365.499 -106s126.5 -171 126.5 -301
c0 -118 -41.167 -210 -123.5 -276s-198.833 -99 -349.5 -99z" />
    <glyph glyph-name="S" unicode="S" horiz-adv-x="1114" 
d="M975 412c0 -131.333 -42.335 -236.163 -127.002 -314.496s-196.667 -117.5 -336 -117.5c-97.333 0 -182.333 24.5 -255 73.5s-125.667 117.833 -159 206.5l84 43c26.667 -72.667 69.834 -129.334 129.501 -170.001s129.167 -61 208.5 -61
c110.667 0 197.834 30.167 261.501 90.5s95.5 143.5 95.5 249.5c0 79.333 -25.667 148 -77 206s-135.666 114.667 -252.999 170c-146 68 -246.667 131.667 -302 191s-83 138.666 -83 237.999c0 103.333 35.833 187.166 107.5 251.499s165.5 96.5 281.5 96.5
c70.667 0 132.667 -14.167 186 -42.5s97.666 -70.833 132.999 -127.5l-77 -56c-26.667 43.333 -61.667 76.5 -105 99.5s-92.333 34.5 -147 34.5c-87.333 0 -156 -23 -206 -69s-75 -109.333 -75 -190c0 -64 16.333 -116.833 49 -158.5s90.667 -84.834 174 -129.501
c22 -12 55.333 -29 100 -51c261.333 -128.667 392 -283 392 -463z" />
    <glyph glyph-name="T" unicode="T" horiz-adv-x="922" 
d="M881 1452h-371v-1452h-98v1452h-371v92h840v-92z" />
    <glyph glyph-name="U" unicode="U" horiz-adv-x="1352" 
d="M1188 573c0 -210.667 -40.332 -362.167 -120.999 -454.5s-211 -138.5 -391 -138.5c-180.667 0 -311.167 46.167 -391.5 138.5s-120.5 243.833 -120.5 454.5v971h98v-997c0 -166.667 33 -287.5 99 -362.5s171 -112.5 315 -112.5c143.333 0 248.166 37.5 314.499 112.5
s99.5 195.833 99.5 362.5v997h98v-971z" />
    <glyph glyph-name="V" unicode="V" horiz-adv-x="1137" 
d="M1147 1544l-580 -1581l-577 1581h108l469 -1313l471 1313h109z" />
    <glyph glyph-name="W" unicode="W" horiz-adv-x="2263" 
d="M2214 1544l-590 -1581l-494 1340l-491 -1340l-590 1581h109l481 -1313l491 1350l494 -1350l481 1313h109z" />
    <glyph glyph-name="X" unicode="X" horiz-adv-x="1012" 
d="M967 0h-107l-358 715l-348 -715h-107l402 821l-363 723h107l317 -631l317 631h107l-371 -737z" />
    <glyph glyph-name="Y" unicode="Y" horiz-adv-x="1145" 
d="M1124 1544l-497 -823v-721h-99v721l-508 823h107l451 -735l440 735h106z" />
    <glyph glyph-name="Z" unicode="Z" horiz-adv-x="1163" 
d="M1102 1544l-889 -1452h829v-92h-1001l893 1452h-795v92h963z" />
    <glyph glyph-name="bracketleft" unicode="[" horiz-adv-x="614" 
d="M528 -424h-301v1968h301v-86h-209v-1796h209v-86z" />
    <glyph glyph-name="backslash" unicode="\" horiz-adv-x="1311" 
d="M1311 -254l-72 -53l-1157 1964l72 53z" />
    <glyph glyph-name="bracketright" unicode="]" horiz-adv-x="614" 
d="M387 -424h-301v86h209v1796h-209v86h301v-1968z" />
    <glyph glyph-name="asciicircum" unicode="^" 
d="M1049 866h-86l-328 586l-328 -586h-86l363 678h102z" />
    <glyph glyph-name="underscore" unicode="_" horiz-adv-x="1024" 
d="M1024 -313h-1024v88h1024v-88z" />
    <glyph glyph-name="grave" unicode="`" horiz-adv-x="641" 
d="M420 1087l-53 -40l-236 309l66 49z" />
    <glyph glyph-name="a" unicode="a" horiz-adv-x="1147" 
d="M901 475c0 124.667 -33.167 223.5 -99.5 296.5s-154.5 109.5 -264.5 109.5c-104.667 0 -189.667 -38.167 -255 -114.5s-98 -176.833 -98 -301.5c0 -122 33.167 -219 99.5 -291s154.833 -108 265.5 -108c107.333 0 192.833 37 256.5 111s95.5 173.333 95.5 298zM993 0
l-92.001 -0.000976562v180c-42.667 -68.667 -93.5 -119.167 -152.5 -151.5s-129.5 -48.5 -211.5 -48.5c-132 0 -239.167 44.333 -321.5 133s-123.5 205.334 -123.5 350.001c0 150 40.833 271.5 122.5 364.5s186.834 139.5 315.501 139.5c93.333 0 168.5 -15.5 225.5 -46.5
s105.5 -82.5 145.5 -154.5v180h92v-946z" />
    <glyph glyph-name="b" unicode="b" horiz-adv-x="1147" 
d="M963 465c0 124.667 -32.667 225.166 -98 301.499s-150.333 114.5 -255 114.5c-113.333 0 -202.333 -36 -267 -108s-97 -171.333 -97 -298c0 -124.667 32.5 -224 97.5 -298s151.167 -111 258.5 -111c110 0 197.667 35.833 263 107.5s98 168.834 98 291.501zM1055 462.999
c0 -144.667 -41.1689 -261.333 -123.502 -350s-189.5 -133 -321.5 -133c-82 0 -152.5 16.167 -211.5 48.5s-109.833 82.833 -152.5 151.5v-180h-92v1690h92v-924c36.667 66 86.334 116 149.001 150s136.334 51 221.001 51c129.333 0 234.833 -46.5 316.5 -139.5
s122.5 -214.5 122.5 -364.5z" />
    <glyph glyph-name="c" unicode="c" horiz-adv-x="977" 
d="M895 49c-45.333 -23.333 -94.6689 -40.665 -148.002 -51.998s-110.666 -17 -171.999 -17c-141.333 0 -257.166 45.5 -347.499 136.5s-135.5 207.833 -135.5 350.5c0 148.667 47.167 269.167 141.5 361.5s217.166 138.5 368.499 138.5c50.667 0 98.667 -5.83301 144 -17.5
s89.666 -29.167 132.999 -52.5v-94c-43.333 25.333 -88.5 44.666 -135.5 57.999s-94.833 20 -143.5 20c-128 0 -229.333 -37.833 -304 -113.5s-112 -178.5 -112 -308.5c0 -114.667 38.833 -208.834 116.5 -282.501s177.5 -110.5 299.5 -110.5
c56.667 0 109.334 6.5 158.001 19.5s94.334 32.833 137.001 59.5v-96z" />
    <glyph glyph-name="d" unicode="d" horiz-adv-x="1147" 
d="M901 475c0 124.667 -33.167 223.5 -99.5 296.5s-154.5 109.5 -264.5 109.5c-104.667 0 -189.667 -38.167 -255 -114.5s-98 -176.833 -98 -301.5c0 -122 33.167 -219 99.5 -291s154.833 -108 265.5 -108c107.333 0 192.833 37 256.5 111s95.5 173.333 95.5 298zM993 0
l-92.001 -0.00195312v180c-42.667 -68.667 -93.5 -119.167 -152.5 -151.5s-129.5 -48.5 -211.5 -48.5c-132 0 -239.167 44.333 -321.5 133s-123.5 205.334 -123.5 350.001c0 150 40.833 271.5 122.5 364.5s186.834 139.5 315.501 139.5c98.667 0 175.167 -15.667 229.5 -47
s101.5 -82.666 141.5 -153.999v924h92v-1690z" />
    <glyph glyph-name="e" unicode="e" horiz-adv-x="1044" 
d="M864 566c-6 94 -40.168 170 -102.501 228s-142.166 87 -239.499 87c-90.667 0 -168.167 -29.167 -232.5 -87.5s-100.833 -134.5 -109.5 -228.5zM962.999 479h-789.001c2 -132.667 33.333 -234.667 94 -306s145.334 -107 254.001 -107c77.333 0 143.666 17 198.999 51
s101 85.667 137 155l80 -41c-46.667 -86 -103.667 -149.333 -171 -190s-149 -61 -245 -61c-137.333 0 -245 44.667 -323 134s-117 211 -117 365c0 142.667 41.667 259.667 125 351s188.333 137 315 137c132.667 0 239.334 -41.667 320.001 -125s121 -195.333 121 -336v-27z
" />
    <glyph glyph-name="f" unicode="f" horiz-adv-x="492" 
d="M491 1600c-16.667 8 -31.499 14 -44.499 18s-25.167 6 -36.5 6c-56.667 0 -95.5 -19.167 -116.5 -57.5s-31.5 -114.166 -31.5 -227.499v-393h199v-86h-199v-860h-92v860h-139v86h139v387c0 134.667 17.667 231.167 53 289.5s94.666 87.5 177.999 87.5
c17.333 0 32.833 -1.33301 46.5 -4s28.5 -7.33398 44.5 -14.001z" />
    <glyph glyph-name="g" unicode="g" horiz-adv-x="1161" 
d="M901 475c0 124.667 -33.167 223.5 -99.5 296.5s-154.5 109.5 -264.5 109.5c-104.667 0 -189.667 -38.167 -255 -114.5s-98 -176.833 -98 -301.5c0 -122 33.167 -219 99.5 -291s154.833 -108 265.5 -108c107.333 0 192.833 37 256.5 111s95.5 173.333 95.5 298zM993 -49
c0 -174.667 -35.6689 -302.334 -107.002 -383.001s-183.666 -121 -336.999 -121c-116 0 -208.333 22.5 -277 67.5s-113.667 112.5 -135 202.5h99c16 -62.667 49.5 -109 100.5 -139s123.167 -45 216.5 -45c124 0 213 31.333 267 94s81 163.667 81 303v250
c-42.667 -68.667 -93.5 -119.167 -152.5 -151.5s-129.5 -48.5 -211.5 -48.5c-132 0 -239.167 44.333 -321.5 133s-123.5 205.334 -123.5 350.001c0 150 40.833 271.5 122.5 364.5s186.834 139.5 315.501 139.5c93.333 0 168.5 -15.5 225.5 -46.5s105.5 -82.5 145.5 -154.5
v180h92v-995z" />
    <glyph glyph-name="h" unicode="h" horiz-adv-x="1004" 
d="M850 0l-92.001 -0.000976562v588c0 102.667 -18.167 177.167 -54.5 223.5s-95.5 69.5 -177.5 69.5c-96.667 0 -167.5 -34 -212.5 -102s-67.5 -176 -67.5 -324v-455h-92v1690h92v-902c31.333 67.333 69.833 114 115.5 140s108.834 39 189.501 39
c92.667 0 165.667 -30.167 219 -90.5s80 -144.166 80 -251.499v-625z" />
    <glyph glyph-name="i" unicode="i" horiz-adv-x="479" 
d="M287 0h-92v946h92v-946zM322 1290c0 -22.667 -8.16699 -42 -24.5 -58s-35.5 -24 -57.5 -24c-22.667 0 -42 8 -58 24s-24 35.333 -24 58s8 42 24 58s35.333 24 58 24c22 0 41.167 -8 57.5 -24s24.5 -35.333 24.5 -58z" />
    <glyph glyph-name="j" unicode="j" horiz-adv-x="479" 
d="M287 -532h-92v1478h92v-1478zM322 1290c0 -22.667 -8.16699 -42 -24.5 -58s-35.5 -24 -57.5 -24c-22.667 0 -42 8 -58 24s-24 35.333 -24 58s8 42 24 58s35.333 24 58 24c22 0 41.167 -8 57.5 -24s24.5 -35.333 24.5 -58z" />
    <glyph glyph-name="k" unicode="k" horiz-adv-x="874" 
d="M874 0h-131l-497 496v-496h-92v1690h92v-1168l463 424h120l-477 -434z" />
    <glyph glyph-name="l" unicode="l" horiz-adv-x="408" 
d="M250 0h-92v1690h92v-1690z" />
    <glyph glyph-name="m" unicode="m" horiz-adv-x="1485" 
d="M1311 0l-91.999 -0.00390625v588c0 99.333 -16.333 173 -49 221s-83.334 72 -152.001 72c-85.333 0 -145 -26.667 -179 -80s-51 -162 -51 -326v-475h-92v588c0 103.333 -15.333 178 -46 224s-82 69 -154 69c-89.333 0 -153.333 -33.167 -192 -99.5
s-58 -175.166 -58 -326.499v-455h-92v946h92v-143c20.667 53.333 53.5 94 98.5 122s100.833 42 167.5 42c58.667 0 110 -14.667 154 -44s76 -70.666 96 -123.999c22 56.667 55.333 98.834 100 126.501s102 41.5 172 41.5c82.667 0 149.5 -30.667 200.5 -92
s76.5 -144.666 76.5 -249.999v-625z" />
    <glyph glyph-name="n" unicode="n" horiz-adv-x="1004" 
d="M850 0l-91.999 0.000976562v588c0 102.667 -18.167 177.167 -54.5 223.5s-95.5 69.5 -177.5 69.5c-96.667 0 -167.5 -34 -212.5 -102s-67.5 -176 -67.5 -324v-455h-92v946h92v-158c30 62.667 69 108.167 117 136.5s109.333 42.5 184 42.5
c93.333 0 167.166 -30.333 221.499 -91s81.5 -144.334 81.5 -251.001v-625z" />
    <glyph glyph-name="o" unicode="o" horiz-adv-x="1120" 
d="M958 475c0 114.667 -38.168 211 -114.501 289s-170.5 117 -282.5 117s-206.5 -38.833 -283.5 -116.5s-115.5 -174.167 -115.5 -289.5c0 -114.667 38.833 -211.5 116.5 -290.5s171.834 -118.5 282.501 -118.5s204.5 39.5 281.5 118.5s115.5 175.833 115.5 290.5zM1051 477
c0 -138 -48 -255.333 -144 -352s-212.667 -145 -350 -145c-134.667 0 -249.5 48.333 -344.5 145s-142.5 214 -142.5 352c0 137.333 47.167 253.333 141.5 348s209.5 142 345.5 142c139.333 0 256.5 -47.167 351.5 -141.5s142.5 -210.5 142.5 -348.5z" />
    <glyph glyph-name="p" unicode="p" horiz-adv-x="1147" 
d="M963 481c0 122 -33.167 219.167 -99.5 291.5s-154.833 108.5 -265.5 108.5c-110 0 -196.167 -34.333 -258.5 -103s-93.5 -164 -93.5 -286c0 -128 33.833 -231 101.5 -309s155.167 -117 262.5 -117c104.667 0 189.667 38 255 114s98 176.333 98 301zM1055 483
c0 -150 -40.834 -271.332 -122.501 -363.999s-187.167 -139 -316.5 -139c-85.333 0 -158.166 17.167 -218.499 51.5s-110.833 87.166 -151.5 158.499v-722h-92v1478h92v-170c38.667 63.333 88.5 111 149.5 143s132.5 48 214.5 48c132 0 239.167 -44.5 321.5 -133.5
s123.5 -205.833 123.5 -350.5z" />
    <glyph glyph-name="q" unicode="q" horiz-adv-x="1147" 
d="M901 492c0 122 -31.167 217.333 -93.5 286s-148.5 103 -258.5 103c-110.667 0 -199.167 -36.167 -265.5 -108.5s-99.5 -169.5 -99.5 -291.5c0 -124.667 32.667 -225 98 -301s150.333 -114 255 -114c108 0 195.667 39 263 117s101 181 101 309zM993 -532
l-91.998 0.000976562v722c-38.667 -68.667 -89.334 -120.834 -152.001 -156.501s-135.667 -53.5 -219 -53.5c-128.667 0 -233.834 46.333 -315.501 139s-122.5 214 -122.5 364c0 144.667 41.167 261.5 123.5 350.5s189.5 133.5 321.5 133.5c85.333 0 157 -15.333 215 -46
s107.667 -79 149 -145v170h92v-1478z" />
    <glyph glyph-name="r" unicode="r" horiz-adv-x="569" 
d="M586 946l-31.001 -86c-9.33301 6.66699 -21 11.834 -35 15.501s-28.333 5.5 -43 5.5c-76 0 -131.833 -38.5 -167.5 -115.5s-53.5 -195.5 -53.5 -355.5v-410h-92v946h92v-151c22 60.667 52 104.5 90 131.5s88 40.5 150 40.5c16.667 0 32.834 -1.83301 48.501 -5.5
s29.5 -8.83398 41.5 -15.501z" />
    <glyph glyph-name="s" unicode="s" horiz-adv-x="768" 
d="M686 248c0 -82 -29.6699 -147.163 -89.0029 -195.496s-140.333 -72.5 -243 -72.5c-74.667 0 -139.5 15.667 -194.5 47s-95.167 75.666 -120.5 132.999l84 47c22.667 -48.667 53.834 -84.334 93.501 -107.001s90.5 -34 152.5 -34c66 0 120 15.667 162 47s63 73 63 125
c0 56.667 -16.667 99 -50 127s-99.333 59.333 -198 94c-79.333 28 -140.166 64.5 -182.499 109.5s-63.5 97.167 -63.5 156.5c0 74 24.167 132.833 72.5 176.5s115.166 65.5 200.499 65.5c62 0 114.167 -13.333 156.5 -40s76.833 -67.334 103.5 -122.001l-84 -45
c-19.333 42 -43.666 72.667 -72.999 92s-66.333 29 -111 29c-52 0 -93.667 -14.333 -125 -43s-47 -66.334 -47 -113.001c0 -41.333 15.333 -77.333 46 -108s77.334 -56 140.001 -76c112.667 -37.333 192 -77.5 238 -120.5s69 -100.5 69 -172.5z" />
    <glyph glyph-name="t" unicode="t" horiz-adv-x="428" 
d="M428 860h-174v-860h-92v860h-131v86h131v406h92v-406h174v-86z" />
    <glyph glyph-name="u" unicode="u" horiz-adv-x="967" 
d="M813 391c0 -145.333 -26.168 -250.167 -78.501 -314.5s-136.166 -96.5 -251.499 -96.5c-114 0 -197.333 33 -250 99s-79 170 -79 312v555h92v-528c0 -126 17.5 -216.167 52.5 -270.5s96.5 -81.5 184.5 -81.5c90 0 152.167 26.667 186.5 80s51.5 144 51.5 272v528h92v-555
z" />
    <glyph glyph-name="v" unicode="v" horiz-adv-x="887" 
d="M870 946l-426 -983l-428 983h103l325 -774l324 774h102z" />
    <glyph glyph-name="w" unicode="w" horiz-adv-x="1540" 
d="M1524 946l-426 -983l-328 797l-326 -797l-428 983h103l321 -768l330 805l332 -805l319 768h103z" />
    <glyph glyph-name="x" unicode="x" horiz-adv-x="907" 
d="M887 0h-107l-325 434l-328 -434h-107l383 494l-348 452h105l299 -393l286 393h107l-342 -452z" />
    <glyph glyph-name="y" unicode="y" horiz-adv-x="942" 
d="M926 946l-654 -1478h-102l270 600l-424 878h103l373 -774l331 774h103z" />
    <glyph glyph-name="z" unicode="z" horiz-adv-x="983" 
d="M913 0h-854l668 860h-616v86h792l-667 -860h677v-86z" />
    <glyph glyph-name="braceleft" unicode="{" horiz-adv-x="614" 
d="M539 -424c-114 0 -188.667 16.833 -224 50.5s-53 112.5 -53 236.5v461c0 81.333 -11.5 134 -34.5 158s-73.5 36 -151.5 36v86c78 0 128.5 12.333 151.5 37s34.5 77.334 34.5 158.001v458c0 124 17.667 202.833 53 236.5s110 50.5 224 50.5v-86
c-84 0 -135.833 -8.66699 -155.5 -26s-29.5 -66.666 -29.5 -147.999v-440c0 -106.667 -9.33301 -178 -28 -214s-57.667 -59 -117 -69c59.333 -10 98.333 -33.333 117 -70s28 -107.334 28 -212.001v-443c0 -80.667 9.83301 -129.834 29.5 -147.501s71.5 -26.5 155.5 -26.5
v-86z" />
    <glyph glyph-name="bar" unicode="|" horiz-adv-x="655" 
d="M375 -504h-94v2048h94v-2048z" />
    <glyph glyph-name="braceright" unicode="}" horiz-adv-x="614" 
d="M539 518c-78 0 -128.667 -12.334 -152 -37.001s-35 -77 -35 -157v-461c0 -124 -17.5 -202.833 -52.5 -236.5s-109.5 -50.5 -223.5 -50.5v86c83.333 0 134.833 8.83301 154.5 26.5s29.5 66.834 29.5 147.501v443c0 106 9.33301 177 28 213s58 59 118 69
c-59.333 10 -98.5 33.333 -117.5 70s-28.5 107.667 -28.5 213v440c0 81.333 -9.83301 130.666 -29.5 147.999s-71.167 26 -154.5 26v86c114 0 188.5 -16.833 223.5 -50.5s52.5 -112.5 52.5 -236.5v-458c0 -81.333 11.5 -134.166 34.5 -158.499s73.833 -36.5 152.5 -36.5v-86
z" />
    <glyph glyph-name="asciitilde" unicode="~" 
d="M1096 600c-46.667 -49.333 -91.3311 -85.833 -133.998 -109.5s-85.334 -35.5 -128.001 -35.5c-45.333 0 -107.333 21 -186 63c-6.66699 4 -12 7 -16 9l-19 10c-76 42 -134.333 63 -175 63c-38.667 0 -79.334 -13.167 -122.001 -39.5s-90 -67.833 -142 -124.5v103
c45.333 48 89.833 83.833 133.5 107.5s87.167 35.5 130.5 35.5c46.667 0 110.667 -22.333 192 -67l4 -2l29 -16c74 -40 131 -60 171 -60c37.333 0 76.833 13 118.5 39s89.5 68 143.5 126v-102z" />
    <glyph glyph-name="c4606" 
d="M1188 117c-57.333 -47.333 -117.332 -82.001 -179.999 -104.001s-133 -33 -211 -33c-143.333 0 -263.833 56 -361.5 168s-157.5 265.333 -179.5 460h-207l21 62h182c-1.33301 24.667 -2.33301 44.5 -3 59.5s-1 29.167 -1 42.5c0 14 0.166992 28.667 0.5 44s1.5 38 3.5 68
l-203 1l21 61h188c23.333 190 83.833 340.667 181.5 452s216.834 167 357.501 167c80.667 0 152.5 -12.167 215.5 -36.5s121.5 -62.833 175.5 -115.5v-113c-62.667 61.333 -124.834 105.5 -186.501 132.5s-129.834 40.5 -204.501 40.5
c-115.333 0 -212.166 -47 -290.499 -141s-128.5 -222.667 -150.5 -386h723l-20 -61l-709 -1c-1.33301 -28 -2.33301 -50.5 -3 -67.5s-1 -32.5 -1 -46.5c0 -12 0.333008 -25 1 -39l3 -61h637l-20 -62h-611c20.667 -165.333 70.5 -296 149.5 -392s176.167 -144 291.5 -144
c75.333 0 140.666 10.833 195.999 32.5s120.333 63.834 195 126.501v-114z" />
    <glyph glyph-name="c4606" unicode="&#x20ac;" 
d="M1188 117c-57.333 -47.333 -117.332 -82.001 -179.999 -104.001s-133 -33 -211 -33c-143.333 0 -263.833 56 -361.5 168s-157.5 265.333 -179.5 460h-207l21 62h182c-1.33301 24.667 -2.33301 44.5 -3 59.5s-1 29.167 -1 42.5c0 14 0.166992 28.667 0.5 44s1.5 38 3.5 68
l-203 1l21 61h188c23.333 190 83.833 340.667 181.5 452s216.834 167 357.501 167c80.667 0 152.5 -12.167 215.5 -36.5s121.5 -62.833 175.5 -115.5v-113c-62.667 61.333 -124.834 105.5 -186.501 132.5s-129.834 40.5 -204.501 40.5
c-115.333 0 -212.166 -47 -290.499 -141s-128.5 -222.667 -150.5 -386h723l-20 -61l-709 -1c-1.33301 -28 -2.33301 -50.5 -3 -67.5s-1 -32.5 -1 -46.5c0 -12 0.333008 -25 1 -39l3 -61h637l-20 -62h-611c20.667 -165.333 70.5 -296 149.5 -392s176.167 -144 291.5 -144
c75.333 0 140.666 10.833 195.999 32.5s120.333 63.834 195 126.501v-114z" />
    <glyph glyph-name="figspace" unicode="&#xa0;" 
 />
    <glyph glyph-name="figspace" unicode="&#x2007;" 
 />
    <glyph glyph-name="exclamdown" unicode="&#xa1;" horiz-adv-x="655" 
d="M377 0h-98v1200h98v-1200zM416 1477c0 -24.667 -8.5 -45.5 -25.5 -62.5s-37.833 -25.5 -62.5 -25.5s-45.5 8.5 -62.5 25.5s-25.5 37.833 -25.5 62.5c0 24 8.5 44.667 25.5 62s37.833 26 62.5 26s45.5 -8.66699 62.5 -26s25.5 -38 25.5 -62z" />
    <glyph glyph-name="cent" unicode="&#xa2;" 
d="M674 381v811c-116 -10.667 -207.833 -53.5 -275.5 -128.5s-101.5 -172.167 -101.5 -291.5c0 -105.333 34.833 -194.333 104.5 -267s160.5 -114 272.5 -124zM1028 362c-42.667 -21.333 -86.6699 -37.667 -132.003 -49s-94.666 -18 -147.999 -20v-213h-74v215
c-141.333 9.33301 -254.833 58.5 -340.5 147.5s-128.5 201.5 -128.5 337.5c0 138 43.167 252.667 129.5 344s199.5 142.666 339.5 153.999v170h74v-168c49.333 -1.33301 96.166 -7.83301 140.499 -19.5s85.5 -28.5 123.5 -50.5v-94
c-39.333 22.667 -82.166 40.834 -128.499 54.501s-91.5 21.5 -135.5 23.5v-815c52.667 2 102.834 9.83301 150.501 23.5s90.834 32.5 129.501 56.5v-97z" />
    <glyph glyph-name="sterling" unicode="&#xa3;" 
d="M1157 168c-35.333 -61.333 -78.6631 -108.002 -129.996 -140.002s-108.333 -48 -171 -48c-35.333 0 -73 5.33301 -113 16s-80.667 26.334 -122 47.001c-55.333 27.333 -97.833 45.5 -127.5 54.5s-57.5 13.5 -83.5 13.5c-44.667 0 -84.834 -10.5 -120.501 -31.5
s-70.834 -54.167 -105.501 -99.5l-63 49c23.333 38.667 49.833 70.667 79.5 96s65.167 45.666 106.5 60.999c37.333 52 63.833 97.333 79.5 136s23.5 78 23.5 118c0 24 -2 47 -6 69s-10.333 44 -19 66h-270v74h237l-30 62c-40 77.333 -69.833 150.5 -89.5 219.5
s-29.5 134.167 -29.5 195.5c0 126 43.167 230.667 129.5 314s196.833 125 331.5 125c135.333 0 242.666 -36.5 321.999 -109.5s122.666 -175.167 129.999 -306.5l-98 -16c-6 108.667 -39.333 192.5 -100 251.5s-144 88.5 -250 88.5c-110 0 -198.667 -32.167 -266 -96.5
s-101 -148.5 -101 -252.5c0 -52.667 10.833 -114.167 32.5 -184.5s53.167 -146.5 94.5 -228.5c8.66699 -17.333 14.834 -30.166 18.501 -38.499l10.5 -23.5h395v-74h-367c8 -22.667 13.833 -44.167 17.5 -64.5s5.5 -40.166 5.5 -59.499c0 -44 -9.83301 -88.5 -29.5 -133.5
s-46.834 -85.167 -81.501 -120.5c40.667 0 78 -4.16699 112 -12.5s75.333 -24.833 124 -49.5c44 -22 83.333 -38 118 -48s67 -15 97 -15c45.333 0 86.5 11.333 123.5 34s72.833 59 107.5 109z" />
    <glyph glyph-name="currency" unicode="&#xa4;" 
d="M1012 1036c0 104.667 -36.667 193.667 -110 267s-162.333 110 -267 110s-193.667 -36.667 -267 -110s-110 -162.333 -110 -267c0 -104 36.667 -192.833 110 -266.5s162.333 -110.5 267 -110.5s193.667 36.833 267 110.5s110 162.5 110 266.5zM1163 551l-43 -43l-188 188
c-41.333 -35.333 -87.5 -62.5 -138.5 -81.5s-103.833 -28.5 -158.5 -28.5c-55.333 0 -108.5 9.5 -159.5 28.5s-96.833 46.167 -137.5 81.5l-188 -188l-44 43l189 188c-36 41.333 -63.5 87.5 -82.5 138.5s-28.5 103.833 -28.5 158.5c0 55.333 9.5 108.5 28.5 159.5
s46.5 96.833 82.5 137.5l-189 189l44 43l188 -189c40.667 36 86.5 63.5 137.5 82.5s104.167 28.5 159.5 28.5c54.667 0 107.5 -9.5 158.5 -28.5s97.167 -46.5 138.5 -82.5l188 189l43 -43l-188 -189c35.333 -40.667 62.5 -86.5 81.5 -137.5s28.5 -104.167 28.5 -159.5
c0 -54.667 -9.5 -107.5 -28.5 -158.5s-46.167 -97.167 -81.5 -138.5z" />
    <glyph glyph-name="yen" unicode="&#xa5;" 
d="M1206 690h-516v-690h-98v690h-529v62h508l-133 215h-375v61h338l-317 516h106l451 -735l440 735h107l-314 -516h332v-61h-368l-129 -215h497v-62z" />
    <glyph glyph-name="brokenbar" unicode="&#xa6;" horiz-adv-x="655" 
d="M375 -371h-94v758h94v-758zM375 653h-94v758h94v-758z" />
    <glyph glyph-name="section" unicode="&#xa7;" 
d="M936 594c0 82.667 -29.5 153.5 -88.5 212.5s-129.833 88.5 -212.5 88.5c-83.333 0 -154.333 -29.5 -213 -88.5s-88 -129.833 -88 -212.5s29.333 -153.167 88 -211.5s129.667 -87.5 213 -87.5c82.667 0 153.5 29.167 212.5 87.5s88.5 128.833 88.5 211.5zM1034 594
c0 -73.333 -18.833 -140.834 -56.5 -202.501s-89.167 -109.5 -154.5 -143.5c60 -32 107.167 -76.333 141.5 -133s51.5 -119 51.5 -187c0 -105.333 -37.167 -194.833 -111.5 -268.5s-164.166 -110.5 -269.499 -110.5c-106 0 -196 36.833 -270 110.5s-111 163.167 -111 268.5
h98c0 -78 27.833 -145.167 83.5 -201.5s122.167 -84.5 199.5 -84.5s143.833 28.167 199.5 84.5s83.5 123.5 83.5 201.5c0 77.333 -27.5 142.5 -82.5 195.5s-121.833 79.5 -200.5 79.5c-112 0 -206.5 37.833 -283.5 113.5s-115.5 168.167 -115.5 277.5
c0 75.333 19.333 144.333 58 207s91.667 110.334 159 143.001c-49.333 30 -88 69.833 -116 119.5s-42 103.5 -42 161.5c0 94 33.167 174.167 99.5 240.5s146.5 99.5 240.5 99.5s174.5 -33.167 241.5 -99.5s100.5 -146.5 100.5 -240.5h-98c0 67.333 -24 125.5 -72 174.5
s-105.333 73.5 -172 73.5c-66 0 -122.833 -24.5 -170.5 -73.5s-71.5 -107.167 -71.5 -174.5s23.5 -123.833 70.5 -169.5s104.167 -68.5 171.5 -68.5c111.333 0 205.666 -38 282.999 -114s116 -169 116 -279z" />
    <glyph glyph-name="dieresis" unicode="&#xa8;" horiz-adv-x="862" 
d="M309 1206c0 -22.667 -7.66699 -41.667 -23 -57s-34.333 -23 -57 -23c-22 0 -40.667 7.66699 -56 23s-23 34.333 -23 57s7.66699 41.667 23 57s34 23 56 23c22.667 0 41.667 -7.66699 57 -23s23 -34.333 23 -57zM715 1206c0 -22.667 -7.66699 -41.667 -23 -57
s-34.333 -23 -57 -23s-41.667 7.66699 -57 23s-23 34.333 -23 57s7.66699 41.667 23 57s34.333 23 57 23s41.667 -7.66699 57 -23s23 -34.333 23 -57z" />
    <glyph glyph-name="copyright" unicode="&#xa9;" horiz-adv-x="1638" 
d="M1534 772c0 198 -69.667 366.667 -209 506s-308 209 -506 209c-197.333 0 -365.833 -69.667 -505.5 -209s-209.5 -308 -209.5 -506c0 -197.333 69.833 -365.833 209.5 -505.5s308.167 -209.5 505.5 -209.5c198 0 366.667 69.833 506 209.5s209 308.167 209 505.5z
M1153 389c-46 -28.667 -95.5 -51.167 -148.5 -67.5s-103.833 -24.5 -152.5 -24.5c-143.333 0 -261.5 45.667 -354.5 137s-139.5 208.666 -139.5 351.999c0 140.667 47 256.834 141 348.501s211.667 137.5 353 137.5c56 0 110.167 -8.5 162.5 -25.5s98.5 -40.5 138.5 -70.5
v-99c-46.667 36.667 -94.667 64.667 -144 84s-98.333 29 -147 29c-126.667 0 -228 -36.833 -304 -110.5s-114 -171.5 -114 -293.5c0 -119.333 38.333 -217 115 -293s173.667 -114 291 -114c52.667 0 104 8.66699 154 26s99.667 44 149 80v-96zM1612 772
c0 -219.333 -77.333 -406.166 -232 -560.499s-341.667 -231.5 -561 -231.5s-406.166 77.167 -560.499 231.5s-231.5 341.166 -231.5 560.499s77.167 406.333 231.5 561s341.166 232 560.499 232s406.333 -77.333 561 -232s232 -341.667 232 -561z" />
    <glyph glyph-name="ordfeminine" unicode="&#xaa;" horiz-adv-x="688" 
d="M549 1270c0 59.333 -21.333 110.668 -64 154.001s-93 65 -151 65s-107.667 -21.5 -149 -64.5s-62 -94.5 -62 -154.5s20.667 -111.5 62 -154.5s91 -64.5 149 -64.5s108.333 21.667 151 65s64 94.666 64 153.999zM631 995.002h-82v95
c-24.667 -36.667 -55.334 -65 -92.001 -85s-77 -30 -121 -30c-82 0 -151.667 28.667 -209 86s-86 127 -86 209s28.667 151.667 86 209s127 86 209 86c44 0 84.333 -10 121 -30s67.334 -48.333 92.001 -85v94h82v-549z" />
    <glyph glyph-name="guillemotleft" unicode="&#xab;" horiz-adv-x="813" 
d="M465 43l-70 -43l-282 471l282 475l70 -43l-262 -432zM711 43l-70 -43l-283 471l283 475l70 -43l-262 -432z" />
    <glyph glyph-name="logicalnot" unicode="&#xac;" 
d="M1126 256h-90v510h-934v86h1024v-596z" />
    <glyph glyph-name="sfthyphen" unicode="&#xad;" horiz-adv-x="389" 
d="M389 512h-389v92h389v-92z" />
    <glyph glyph-name="registered" unicode="&#xae;" horiz-adv-x="1638" 
d="M997 1001c0 58 -19 101.333 -57 130s-95.333 43 -172 43h-61v-330h61c79.333 0 137.333 12.5 174 37.5s55 64.833 55 119.5zM1145 313h-113l-305 449h-20v-449h-86v942h149c101.333 0 178.833 -22.167 232.5 -66.5s80.5 -107.5 80.5 -189.5
c0 -66 -21.833 -119.667 -65.5 -161s-106.167 -66 -187.5 -74zM1534 772c0 198 -69.667 366.667 -209 506s-308 209 -506 209c-197.333 0 -365.833 -69.667 -505.5 -209s-209.5 -308 -209.5 -506c0 -197.333 69.833 -365.833 209.5 -505.5s308.167 -209.5 505.5 -209.5
c198 0 366.667 69.833 506 209.5s209 308.167 209 505.5zM1612 772c0 -219.333 -77.333 -406.166 -232 -560.499s-341.667 -231.5 -561 -231.5s-406.166 77.167 -560.499 231.5s-231.5 341.166 -231.5 560.499s77.167 406.333 231.5 561s341.166 232 560.499 232
s406.333 -77.333 561 -232s232 -341.667 232 -561z" />
    <glyph glyph-name="overscore" unicode="&#xaf;" horiz-adv-x="1024" 
d="M1024 1565v-82h-1024v82h1024z" />
    <glyph glyph-name="degree" unicode="&#xb0;" horiz-adv-x="819" 
d="M631 1280c0 60.667 -21.833 112.665 -65.5 155.998s-95.5 65 -155.5 65c-61.333 0 -113.333 -21.333 -156 -64s-64 -95 -64 -157c0 -61.333 21.333 -113.166 64 -155.499s94.667 -63.5 156 -63.5s113.5 21.333 156.5 64s64.5 94.334 64.5 155.001zM692 1280
c0 -77.333 -27.834 -143.501 -83.501 -198.501s-122.5 -82.5 -200.5 -82.5c-78.667 0 -145.167 27.333 -199.5 82s-81.5 121 -81.5 199c0 78.667 27.667 145.834 83 201.501s122 83.5 200 83.5c76.667 0 142.834 -28 198.501 -84s83.5 -123 83.5 -201z" />
    <glyph glyph-name="plusminus" unicode="&#xb1;" 
d="M1167 0h-1065v86h1065v-86zM1167 612h-487v-407h-90v407h-488v86h488v408h90v-408h487v-86z" />
    <glyph glyph-name="twosuperior" unicode="&#xb2;" horiz-adv-x="762" 
d="M680 643l-617 -0.00292969l324 338c74.667 78 126.5 139.5 155.5 184.5s43.5 91.5 43.5 139.5c0 54.667 -18.833 98.334 -56.5 131.001s-87.834 49 -150.501 49c-64.667 0 -116 -19.5 -154 -58.5s-57 -89.833 -57 -152.5h-86c0 88.667 27.333 159.334 82 212.001
s128.334 79 221.001 79c87.333 0 157 -23.167 209 -69.5s78 -108.5 78 -186.5c0 -59.333 -16 -115.666 -48 -168.999s-91.333 -123.333 -178 -210l-206 -207h440v-80z" />
    <glyph glyph-name="threesuperior" unicode="&#xb3;" horiz-adv-x="762" 
d="M664 897c0 -82.667 -27.6689 -148.998 -83.002 -198.998s-126.666 -75 -213.999 -75c-88 0 -156.167 23.167 -204.5 69.5s-72.5 111.166 -72.5 194.499h86c0 -56.667 16.833 -101.667 50.5 -135s80.5 -50 140.5 -50c64 0 115.167 18.167 153.5 54.5
s57.5 83.166 57.5 140.499c0 58 -19 105 -57 141s-88 54 -150 54h-45v71h49c58 0 103.5 13.333 136.5 40s49.5 63.334 49.5 110.001c0 50 -17.167 91.167 -51.5 123.5s-78.5 48.5 -132.5 48.5c-53.333 0 -96.666 -15.167 -129.999 -45.5s-50 -68.5 -50 -114.5h-86
c0 66 25.333 122.5 76 169.5s114 70.5 190 70.5c80.667 0 145.834 -22.333 195.501 -67s74.5 -103 74.5 -175c0 -54.667 -11.833 -98.334 -35.5 -131.001s-58.834 -54.667 -105.501 -66c48 -13.333 86.333 -40.833 115 -82.5s43 -90.5 43 -146.5z" />
    <glyph glyph-name="acute" unicode="&#xb4;" horiz-adv-x="641" 
d="M510 1356l-236 -309l-53 40l223 318z" />
    <glyph glyph-name="mu" unicode="&#xb5;" horiz-adv-x="967" 
d="M901 0c-8 -4 -21.9971 -8.33203 -41.9971 -12.999s-34.667 -7 -44 -7c-56 0 -96 14.167 -120 42.5s-36 75.5 -36 141.5c-34.667 -62 -75.167 -108.167 -121.5 -138.5s-99.833 -45.5 -160.5 -45.5c-56 0 -101 11.833 -135 35.5s-58 60.167 -72 109.5l-139 -657h-92
l313 1478h92l-96 -454c-8.66699 -42.667 -15.334 -82.167 -20.001 -118.5s-7 -69.5 -7 -99.5c0 -72 14 -124.667 42 -158s72 -50 132 -50c75.333 0 139.666 35.667 192.999 107s95 177.666 125 318.999l96 454h92l-119 -551c-12.667 -62 -22 -112 -28 -150
s-9 -68.333 -9 -91c0 -32 4.66699 -54.667 14 -68s27.333 -20 54 -20c9.33301 0 19.166 1.16699 29.499 3.5s22.5 6.5 36.5 12.5z" />
    <glyph glyph-name="paragraph" unicode="&#xb6;" 
d="M1104 1452h-143v-1452h-99v1452h-186v-1452h-98v846c-129.333 6 -230.333 40.167 -303 102.5s-109 144.833 -109 247.5c0 104 37.167 188 111.5 252s172.833 96 295.5 96h531v-92z" />
    <glyph glyph-name="periodcentered" unicode="&#xb7;" horiz-adv-x="635" 
d="M406 784c0 -24 -8.66699 -44.667 -26 -62s-38.333 -26 -63 -26c-24 0 -44.667 8.66699 -62 26s-26 38 -26 62c0 24.667 8.66699 45.5 26 62.5s38 25.5 62 25.5c24.667 0 45.667 -8.5 63 -25.5s26 -37.833 26 -62.5z" />
    <glyph glyph-name="cedilla" unicode="&#xb8;" horiz-adv-x="612" 
d="M444 -63l-186 -318l-59 33l172 323z" />
    <glyph glyph-name="onesuperior" unicode="&#xb9;" horiz-adv-x="762" 
d="M459 643h-86v821h-180l43 80h223v-901z" />
    <glyph glyph-name="ordmasculine" unicode="&#xba;" horiz-adv-x="672" 
d="M549 1270c0 59.333 -21.333 110.668 -64 154.001s-93 65 -151 65s-107.667 -21.5 -149 -64.5s-62 -94.5 -62 -154.5s20.667 -111.5 62 -154.5s91 -64.5 149 -64.5s108.333 21.667 151 65s64 94.666 64 153.999zM631 1270c0 -82 -28.667 -151.667 -86 -209
s-127 -86 -209 -86s-151.667 28.667 -209 86s-86 127 -86 209s28.667 151.667 86 209s127 86 209 86s151.667 -28.667 209 -86s86 -127 86 -209z" />
    <glyph glyph-name="guillemotright" unicode="&#xbb;" horiz-adv-x="813" 
d="M455 471l-283 -471l-70 43l263 428l-263 432l70 43zM700 471l-282 -471l-70 43l262 428l-262 432l70 43z" />
    <glyph glyph-name="onequarter" unicode="&#xbc;" horiz-adv-x="1905" 
d="M1589 301v401l-319 -401h319zM459 643h-86v821h-180l43 80h223v-901zM1470 1565l-933 -1585h-103l934 1585h102zM1815 221h-140v-221h-86v221h-479l565 717v-637h140v-80z" />
    <glyph glyph-name="onehalf" unicode="&#xbd;" horiz-adv-x="1905" 
d="M459 643h-86v821h-180l43 80h223v-901zM1470 1565l-933 -1585h-103l934 1585h102zM1823 0l-617 -0.00292969l324 338c74.667 78 126.5 139.5 155.5 184.5s43.5 91.5 43.5 139.5c0 54.667 -18.833 98.334 -56.5 131.001s-87.834 49 -150.501 49
c-64.667 0 -116 -19.5 -154 -58.5s-57 -89.833 -57 -152.5h-86c0 88.667 27.333 159.334 82 212.001s128.334 79 221.001 79c87.333 0 157 -23.167 209 -69.5s78 -108.5 78 -186.5c0 -59.333 -16 -115.666 -48 -168.999s-91.333 -123.333 -178 -210l-207 -207h441v-80z" />
    <glyph glyph-name="threequarters" unicode="&#xbe;" horiz-adv-x="1905" 
d="M1589 301v401l-319 -401h319zM664 897c0 -82.667 -27.6689 -148.998 -83.002 -198.998s-126.666 -75 -213.999 -75c-88 0 -156.167 23.167 -204.5 69.5s-72.5 111.166 -72.5 194.499h86c0 -56.667 16.833 -101.667 50.5 -135s80.5 -50 140.5 -50
c64 0 115.167 18.167 153.5 54.5s57.5 83.166 57.5 140.499c0 58 -19 105 -57 141s-88 54 -150 54h-45v71h49c58 0 103.5 13.333 136.5 40s49.5 63.334 49.5 110.001c0 50 -17.167 91.167 -51.5 123.5s-78.5 48.5 -132.5 48.5c-53.333 0 -96.666 -15.167 -129.999 -45.5
s-50 -68.5 -50 -114.5h-86c0 66 25.333 122.5 76 169.5s114 70.5 190 70.5c80.667 0 145.834 -22.333 195.501 -67s74.5 -103 74.5 -175c0 -54.667 -11.833 -98.334 -35.5 -131.001s-58.834 -54.667 -105.501 -66c48 -13.333 86.333 -40.833 115 -82.5s43 -90.5 43 -146.5z
M1470 1565l-933 -1585h-103l934 1585h102zM1815 221.002h-140v-221h-86v221h-479l565 717v-637h140v-80z" />
    <glyph glyph-name="questiondown" unicode="&#xbf;" horiz-adv-x="1006" 
d="M864 362c0 -122.667 -32.0029 -216.999 -96.0029 -282.999s-156 -99 -276 -99c-106.667 0 -191.834 29.833 -255.501 89.5s-95.5 139.5 -95.5 239.5c0 87.333 24.833 161.666 74.5 222.999s132.834 121.666 249.501 180.999c93.333 47.333 156.666 88.5 189.999 123.5
s50 83.167 50 144.5c0 52 -18.167 94 -54.5 126s-85.166 48 -146.499 48c-65.333 0 -115.833 -17 -151.5 -51s-53.5 -81.667 -53.5 -143h-98c0 89.333 27 159.333 81 210s128 76 222 76c92 0 164.833 -24.5 218.5 -73.5s80.5 -113.833 80.5 -194.5
c0 -74.667 -22.667 -138.667 -68 -192s-120.333 -104.666 -225 -153.999c-97.333 -46.667 -166.666 -94 -207.999 -142s-62 -106 -62 -174c0 -73.333 23.5 -132.5 70.5 -177.5s109.5 -67.5 187.5 -67.5c84.667 0 149.834 24.667 195.501 74s69.834 121.333 72.501 216h98z
M605.997 1477c0 -24.667 -8.5 -45.5 -25.5 -62.5s-37.833 -25.5 -62.5 -25.5s-45.5 8.5 -62.5 25.5s-25.5 37.833 -25.5 62.5c0 24 8.5 44.667 25.5 62s37.833 26 62.5 26s45.5 -8.66699 62.5 -26s25.5 -38 25.5 -62z" />
    <glyph glyph-name="Agrave" unicode="&#xc0;" horiz-adv-x="1313" 
d="M942 629l-285 721l-284 -721h569zM1296 0h-104l-213 537h-643l-213 -537h-105l639 1581zM756 1685l-53 -40l-236 309l66 49z" />
    <glyph glyph-name="Aacute" unicode="&#xc1;" horiz-adv-x="1313" 
d="M942 629l-285 721l-284 -721h569zM1296 0h-104l-213 537h-643l-213 -537h-105l639 1581zM846 1954l-236 -309l-53 40l223 318z" />
    <glyph glyph-name="Acircumflex" unicode="&#xc2;" horiz-adv-x="1313" 
d="M942 629l-285 721l-284 -721h569zM1296 0h-104l-213 537h-643l-213 -537h-105l639 1581zM917 1681l-45 -36l-215 235l-215 -235l-45 36l260 322z" />
    <glyph glyph-name="Atilde" unicode="&#xc3;" horiz-adv-x="1313" 
d="M942 629l-285 721l-284 -721h569zM1296 0h-104l-213 537h-643l-213 -537h-105l639 1581zM987 1833c-24 -46.667 -50.8311 -80.833 -80.498 -102.5s-65.5 -32.5 -107.5 -32.5c-21.333 0 -43.833 4.33301 -67.5 13s-51.167 22.667 -82.5 42
c-38.667 24.667 -67.834 41.167 -87.501 49.5s-37.5 12.5 -53.5 12.5c-30.667 0 -56 -6 -76 -18s-38.333 -35 -55 -69l-51 31c24 46.667 50.5 80.5 79.5 101.5s64.5 31.5 106.5 31.5c22 0 45.167 -4.33301 69.5 -13s51.833 -22.667 82.5 -42
c40.667 -26 70.167 -42.667 88.5 -50s35.166 -11 50.499 -11c31.333 0 57.333 6.16699 78 18.5s39 34.833 55 67.5z" />
    <glyph glyph-name="Adieresis" unicode="&#xc4;" horiz-adv-x="1313" 
d="M942 629l-285 721l-284 -721h569zM1296 0h-104l-213 537h-643l-213 -537h-105l639 1581zM534 1804c0 -22.667 -7.66699 -41.667 -23 -57s-34.333 -23 -57 -23c-22 0 -40.667 7.66699 -56 23s-23 34.333 -23 57s7.66699 41.667 23 57s34 23 56 23
c22.667 0 41.667 -7.66699 57 -23s23 -34.333 23 -57zM940 1804c0 -22.667 -7.66699 -41.667 -23 -57s-34.333 -23 -57 -23s-41.667 7.66699 -57 23s-23 34.333 -23 57s7.66699 41.667 23 57s34.333 23 57 23s41.667 -7.66699 57 -23s23 -34.333 23 -57z" />
    <glyph glyph-name="Aring" unicode="&#xc5;" horiz-adv-x="1313" 
d="M942 629l-285 721l-284 -721h569zM1296 0h-104l-213 537h-643l-213 -537h-105l639 1581zM854 1872c0 54 -19.167 100.167 -57.5 138.5s-84.5 57.5 -138.5 57.5c-54.667 0 -101.167 -19.167 -139.5 -57.5s-57.5 -84.5 -57.5 -138.5c0 -54.667 19.167 -101.167 57.5 -139.5
s84.833 -57.5 139.5 -57.5c54 0 100.167 19.167 138.5 57.5s57.5 84.833 57.5 139.5zM908 1872c0 -68.667 -24.5 -127.5 -73.5 -176.5s-107.833 -73.5 -176.5 -73.5s-127.5 24.5 -176.5 73.5s-73.5 107.833 -73.5 176.5s24.5 127.5 73.5 176.5s107.833 73.5 176.5 73.5
s127.5 -24.5 176.5 -73.5s73.5 -107.833 73.5 -176.5z" />
    <glyph glyph-name="AE" unicode="&#xc6;" horiz-adv-x="1929" 
d="M952 629l-270 721l-299 -721h569zM1923 0h-731l-203 537h-643l-223 -537h-105l652 1544h659l37 -92h-625l205 -543h627l37 -92h-627l277 -725h628z" />
    <glyph glyph-name="Ccedilla" unicode="&#xc7;" horiz-adv-x="1513" 
d="M1391 117c-70 -43.333 -147.669 -76.999 -233.002 -100.999s-168.333 -36 -249 -36c-233.333 0 -424.666 73.833 -573.999 221.5s-224 338.5 -224 572.5c0 228.667 75.667 417.667 227 567s341.666 224 570.999 224c94 0 180.833 -12.667 260.5 -38
s153.5 -63.333 221.5 -114v-113c-75.333 59.333 -150.666 103 -225.999 131s-155.666 42 -240.999 42c-210 0 -381.667 -65 -515 -195s-200 -298 -200 -504s65.5 -374.5 196.5 -505.5s296.833 -196.5 497.5 -196.5c86 0 170.667 13.667 254 41s161.333 66.666 234 117.999
v-114zM1046 -62.999l-186 -318l-59 33l172 323z" />
    <glyph glyph-name="Egrave" unicode="&#xc8;" horiz-adv-x="1038" 
d="M901 0h-727v1544h727v-92h-629v-543h629v-92h-629v-725h629v-92zM643 1685l-53 -40l-236 309l66 49z" />
    <glyph glyph-name="Eacute" unicode="&#xc9;" horiz-adv-x="1038" 
d="M901 0h-727v1544h727v-92h-629v-543h629v-92h-629v-725h629v-92zM733 1954l-236 -309l-53 40l223 318z" />
    <glyph glyph-name="Ecircumflex" unicode="&#xca;" horiz-adv-x="1038" 
d="M901 0h-727v1544h727v-92h-629v-543h629v-92h-629v-725h629v-92zM802 1681l-45 -36l-215 235l-215 -235l-45 36l260 322z" />
    <glyph glyph-name="Edieresis" unicode="&#xcb;" horiz-adv-x="1038" 
d="M901 0h-727v1544h727v-92h-629v-543h629v-92h-629v-725h629v-92zM422 1804c0 -22.667 -7.66699 -41.667 -23 -57s-34.333 -23 -57 -23c-22 0 -40.667 7.66699 -56 23s-23 34.333 -23 57s7.66699 41.667 23 57s34 23 56 23c22.667 0 41.667 -7.66699 57 -23
s23 -34.333 23 -57zM828 1804c0 -22.667 -7.66699 -41.667 -23 -57s-34.333 -23 -57 -23s-41.667 7.66699 -57 23s-23 34.333 -23 57s7.66699 41.667 23 57s34.333 23 57 23s41.667 -7.66699 57 -23s23 -34.333 23 -57z" />
    <glyph glyph-name="Igrave" unicode="&#xcc;" horiz-adv-x="430" 
d="M264 0h-98v1544h98v-1544zM316 1685l-53 -40l-236 309l66 49z" />
    <glyph glyph-name="Iacute" unicode="&#xcd;" horiz-adv-x="430" 
d="M264 0h-98v1544h98v-1544zM406 1954l-236 -309l-53 40l223 318z" />
    <glyph glyph-name="Icircumflex" unicode="&#xce;" horiz-adv-x="430" 
d="M264 0h-98v1544h98v-1544zM475 1681l-45 -36l-215 235l-215 -235l-45 36l260 322z" />
    <glyph glyph-name="Idieresis" unicode="&#xcf;" horiz-adv-x="430" 
d="M264 0h-98v1544h98v-1544zM94 1804c0 -22.667 -7.66699 -41.667 -23 -57s-34.333 -23 -57 -23c-22 0 -40.667 7.66699 -56 23s-23 34.333 -23 57s7.66699 41.667 23 57s34 23 56 23c22.667 0 41.667 -7.66699 57 -23s23 -34.333 23 -57zM500 1804
c0 -22.667 -7.66699 -41.667 -23 -57s-34.333 -23 -57 -23s-41.667 7.66699 -57 23s-23 34.333 -23 57s7.66699 41.667 23 57s34.333 23 57 23s41.667 -7.66699 57 -23s23 -34.333 23 -57z" />
    <glyph glyph-name="Eth" unicode="&#xd0;" horiz-adv-x="1335" 
d="M1145 772c0 223.333 -65 392.5 -195 507.5s-321.667 172.5 -575 172.5h-103v-598h486v-86h-486v-676h74c284 0 488.167 54.333 612.5 163s186.5 281 186.5 517zM1243 770c0 -259.333 -72.166 -452.5 -216.499 -579.5s-365.833 -190.5 -664.5 -190.5h-188v768h-174v86h174
v690h217c277.333 0 488.666 -67 633.999 -201s218 -325 218 -573z" />
    <glyph glyph-name="Ntilde" unicode="&#xd1;" horiz-adv-x="1726" 
d="M1542 -37l-1259 1364v-1327h-99v1581l1260 -1362v1325h98v-1581zM1194 1833c-24 -46.667 -50.8311 -80.833 -80.498 -102.5s-65.5 -32.5 -107.5 -32.5c-21.333 0 -43.833 4.33301 -67.5 13s-51.167 22.667 -82.5 42c-38.667 24.667 -67.834 41.167 -87.501 49.5
s-37.5 12.5 -53.5 12.5c-30.667 0 -56 -6 -76 -18s-38.333 -35 -55 -69l-51 31c24 46.667 50.5 80.5 79.5 101.5s64.5 31.5 106.5 31.5c22 0 45.167 -4.33301 69.5 -13s51.833 -22.667 82.5 -42c40.667 -26 70.167 -42.667 88.5 -50s35.166 -11 50.499 -11
c31.333 0 57.333 6.16699 78 18.5s39 34.833 55 67.5z" />
    <glyph glyph-name="Ograve" unicode="&#xd2;" horiz-adv-x="1749" 
d="M1573 772c0 196.667 -67.8311 362.667 -203.498 498s-301.5 203 -497.5 203c-194.667 0 -359.334 -67.667 -494.001 -203s-202 -301.333 -202 -498s67.167 -362.5 201.5 -497.5s299.166 -202.5 494.499 -202.5c196 0 361.833 67.667 497.5 203s203.5 301 203.5 497z
M1671 772c0 -220.667 -77.667 -407.834 -233 -561.501s-344 -230.5 -566 -230.5c-220 0 -407.333 76.833 -562 230.5s-232 340.834 -232 561.501c0 225.333 76 413.833 228 565.5s340.667 227.5 566 227.5c226 0 415.667 -75.833 569 -227.5s230 -340.167 230 -565.5z
M975.002 1685l-53 -40l-236 309l66 49z" />
    <glyph glyph-name="Oacute" unicode="&#xd3;" horiz-adv-x="1749" 
d="M1573 772c0 196.667 -67.8311 362.667 -203.498 498s-301.5 203 -497.5 203c-194.667 0 -359.334 -67.667 -494.001 -203s-202 -301.333 -202 -498s67.167 -362.5 201.5 -497.5s299.166 -202.5 494.499 -202.5c196 0 361.833 67.667 497.5 203s203.5 301 203.5 497z
M1671 772c0 -220.667 -77.667 -407.834 -233 -561.501s-344 -230.5 -566 -230.5c-220 0 -407.333 76.833 -562 230.5s-232 340.834 -232 561.501c0 225.333 76 413.833 228 565.5s340.667 227.5 566 227.5c226 0 415.667 -75.833 569 -227.5s230 -340.167 230 -565.5z
M1065 1954l-236 -309l-53 40l223 318z" />
    <glyph glyph-name="Ocircumflex" unicode="&#xd4;" horiz-adv-x="1749" 
d="M1573 772c0 196.667 -67.8311 362.667 -203.498 498s-301.5 203 -497.5 203c-194.667 0 -359.334 -67.667 -494.001 -203s-202 -301.333 -202 -498s67.167 -362.5 201.5 -497.5s299.166 -202.5 494.499 -202.5c196 0 361.833 67.667 497.5 203s203.5 301 203.5 497z
M1671 772c0 -220.667 -77.667 -407.834 -233 -561.501s-344 -230.5 -566 -230.5c-220 0 -407.333 76.833 -562 230.5s-232 340.834 -232 561.501c0 225.333 76 413.833 228 565.5s340.667 227.5 566 227.5c226 0 415.667 -75.833 569 -227.5s230 -340.167 230 -565.5z
M1134 1681l-45 -36l-215 235l-215 -235l-45 36l260 322z" />
    <glyph glyph-name="Otilde" unicode="&#xd5;" horiz-adv-x="1749" 
d="M1573 772c0 196.667 -67.8311 362.667 -203.498 498s-301.5 203 -497.5 203c-194.667 0 -359.334 -67.667 -494.001 -203s-202 -301.333 -202 -498s67.167 -362.5 201.5 -497.5s299.166 -202.5 494.499 -202.5c196 0 361.833 67.667 497.5 203s203.5 301 203.5 497z
M1671 772c0 -220.667 -77.667 -407.834 -233 -561.501s-344 -230.5 -566 -230.5c-220 0 -407.333 76.833 -562 230.5s-232 340.834 -232 561.501c0 225.333 76 413.833 228 565.5s340.667 227.5 566 227.5c226 0 415.667 -75.833 569 -227.5s230 -340.167 230 -565.5z
M1206 1833c-24 -46.667 -50.8311 -80.833 -80.498 -102.5s-65.5 -32.5 -107.5 -32.5c-21.333 0 -43.833 4.33301 -67.5 13s-51.167 22.667 -82.5 42c-38.667 24.667 -67.834 41.167 -87.501 49.5s-37.5 12.5 -53.5 12.5c-30.667 0 -56 -6 -76 -18s-38.333 -35 -55 -69
l-51 31c24 46.667 50.5 80.5 79.5 101.5s64.5 31.5 106.5 31.5c22 0 45.167 -4.33301 69.5 -13s51.833 -22.667 82.5 -42c40.667 -26 70.167 -42.667 88.5 -50s35.166 -11 50.499 -11c31.333 0 57.333 6.16699 78 18.5s39 34.833 55 67.5z" />
    <glyph glyph-name="Odieresis" unicode="&#xd6;" horiz-adv-x="1749" 
d="M1573 772c0 196.667 -67.8311 362.667 -203.498 498s-301.5 203 -497.5 203c-194.667 0 -359.334 -67.667 -494.001 -203s-202 -301.333 -202 -498s67.167 -362.5 201.5 -497.5s299.166 -202.5 494.499 -202.5c196 0 361.833 67.667 497.5 203s203.5 301 203.5 497z
M1671 772c0 -220.667 -77.667 -407.834 -233 -561.501s-344 -230.5 -566 -230.5c-220 0 -407.333 76.833 -562 230.5s-232 340.834 -232 561.501c0 225.333 76 413.833 228 565.5s340.667 227.5 566 227.5c226 0 415.667 -75.833 569 -227.5s230 -340.167 230 -565.5z
M753.002 1804c0 -22.667 -7.66699 -41.667 -23 -57s-34.333 -23 -57 -23c-22 0 -40.667 7.66699 -56 23s-23 34.333 -23 57s7.66699 41.667 23 57s34 23 56 23c22.667 0 41.667 -7.66699 57 -23s23 -34.333 23 -57zM1159 1804c0 -22.667 -7.66699 -41.667 -23 -57
s-34.333 -23 -57 -23s-41.667 7.66699 -57 23s-23 34.333 -23 57s7.66699 41.667 23 57s34.333 23 57 23s41.667 -7.66699 57 -23s23 -34.333 23 -57z" />
    <glyph glyph-name="multiply" unicode="&#xd7;" 
d="M1118 133l-63 -63l-422 422l-406 -408l-61 61l407 406l-421 422l63 63l422 -422l405 408l62 -61l-408 -406z" />
    <glyph glyph-name="Oslash" unicode="&#xd8;" horiz-adv-x="1749" 
d="M1339 1298c-63.333 56.667 -135.168 100 -215.501 130s-164.166 45 -251.499 45c-194.667 0 -359.334 -67.667 -494.001 -203s-202 -301.333 -202 -498c0 -90.667 16.333 -177.667 49 -261s79.334 -157.333 140.001 -222zM1573 772c0 90.667 -16.333 177.668 -49 261.001
s-79.334 157.333 -140.001 222l-976 -1009c63.333 -56.667 134.833 -99.834 214.5 -129.501s162.834 -44.5 249.501 -44.5c196 0 361.833 67.667 497.5 203s203.5 301 203.5 497zM1671 772.001c0 -220.667 -77.666 -407.833 -232.999 -561.5s-344 -230.5 -566 -230.5
c-98 0 -192.333 17 -283 51s-172.334 83 -245.001 147l-192 -198l-46 43l193 198c-70.667 73.333 -125.167 157.5 -163.5 252.5s-57.5 194.5 -57.5 298.5c0 225.333 76 413.833 228 565.5s340.667 227.5 566 227.5c100.667 0 196.667 -16.833 288 -50.5
s173.666 -82.5 246.999 -146.5l190 197l45 -43l-190 -197c70.667 -74 124.834 -158.333 162.501 -253s56.5 -194.667 56.5 -300z" />
    <glyph glyph-name="Ugrave" unicode="&#xd9;" horiz-adv-x="1352" 
d="M1188 573c0 -210.667 -40.332 -362.167 -120.999 -454.5s-211 -138.5 -391 -138.5c-180.667 0 -311.167 46.167 -391.5 138.5s-120.5 243.833 -120.5 454.5v971h98v-997c0 -166.667 33 -287.5 99 -362.5s171 -112.5 315 -112.5c143.333 0 248.166 37.5 314.499 112.5
s99.5 195.833 99.5 362.5v997h98v-971zM776.001 1685l-53 -40l-236 309l66 49z" />
    <glyph glyph-name="Uacute" unicode="&#xda;" horiz-adv-x="1352" 
d="M1188 573c0 -210.667 -40.332 -362.167 -120.999 -454.5s-211 -138.5 -391 -138.5c-180.667 0 -311.167 46.167 -391.5 138.5s-120.5 243.833 -120.5 454.5v971h98v-997c0 -166.667 33 -287.5 99 -362.5s171 -112.5 315 -112.5c143.333 0 248.166 37.5 314.499 112.5
s99.5 195.833 99.5 362.5v997h98v-971zM866.001 1954l-236 -309l-53 40l223 318z" />
    <glyph glyph-name="Ucircumflex" unicode="&#xdb;" horiz-adv-x="1352" 
d="M1188 573c0 -210.667 -40.332 -362.167 -120.999 -454.5s-211 -138.5 -391 -138.5c-180.667 0 -311.167 46.167 -391.5 138.5s-120.5 243.833 -120.5 454.5v971h98v-997c0 -166.667 33 -287.5 99 -362.5s171 -112.5 315 -112.5c143.333 0 248.166 37.5 314.499 112.5
s99.5 195.833 99.5 362.5v997h98v-971zM936.001 1681l-45 -36l-215 235l-215 -235l-45 36l260 322z" />
    <glyph glyph-name="Udieresis" unicode="&#xdc;" horiz-adv-x="1352" 
d="M1188 573c0 -210.667 -40.332 -362.167 -120.999 -454.5s-211 -138.5 -391 -138.5c-180.667 0 -311.167 46.167 -391.5 138.5s-120.5 243.833 -120.5 454.5v971h98v-997c0 -166.667 33 -287.5 99 -362.5s171 -112.5 315 -112.5c143.333 0 248.166 37.5 314.499 112.5
s99.5 195.833 99.5 362.5v997h98v-971zM555.001 1804c0 -22.667 -7.66699 -41.667 -23 -57s-34.333 -23 -57 -23c-22 0 -40.667 7.66699 -56 23s-23 34.333 -23 57s7.66699 41.667 23 57s34 23 56 23c22.667 0 41.667 -7.66699 57 -23s23 -34.333 23 -57zM961.001 1804
c0 -22.667 -7.66699 -41.667 -23 -57s-34.333 -23 -57 -23s-41.667 7.66699 -57 23s-23 34.333 -23 57s7.66699 41.667 23 57s34.333 23 57 23s41.667 -7.66699 57 -23s23 -34.333 23 -57z" />
    <glyph glyph-name="Yacute" unicode="&#xdd;" horiz-adv-x="1145" 
d="M1124 1544l-497 -823v-721h-99v721l-508 823h107l451 -735l440 735h106zM762 1954l-236 -309l-53 40l223 318z" />
    <glyph glyph-name="Thorn" unicode="&#xde;" horiz-adv-x="967" 
d="M786 805c0 111.333 -33.667 192.333 -101 243s-178.333 76 -333 76h-80v-630h80c156.667 0 268.167 24.333 334.5 73s99.5 128 99.5 238zM885 805c0 -138 -43.167 -239.833 -129.5 -305.5s-220.833 -98.5 -403.5 -98.5h-80v-401h-98v1544h98v-327h80
c186 0 321.333 -33.667 406 -101s127 -171 127 -311z" />
    <glyph glyph-name="germandbls" unicode="&#xdf;" horiz-adv-x="1094" 
d="M1004 528c0 -166.667 -43.499 -299.668 -130.499 -399.001s-204.833 -149 -353.5 -149h-31v86h31c116 0 210.167 42.167 282.5 126.5s108.5 195.5 108.5 333.5c0 132.667 -38.5 243 -115.5 331s-175.5 132 -295.5 132v86c84.667 0 152.167 25 202.5 75
s75.5 116.667 75.5 200c0 82.667 -23.833 149 -71.5 199s-109.834 75 -186.501 75c-86 0 -150.5 -23.5 -193.5 -70.5s-64.5 -118.5 -64.5 -214.5v-1339h-92v860h-139v86h139v387c0 128 28.5 222.833 85.5 284.5s145.167 92.5 264.5 92.5
c104.667 0 189.167 -33.167 253.5 -99.5s96.5 -153.166 96.5 -260.499c0 -74 -18.833 -139.167 -56.5 -195.5s-89.167 -95.833 -154.5 -118.5c102 -29.333 185 -90.5 249 -183.5s96 -201.167 96 -324.5z" />
    <glyph glyph-name="agrave" unicode="&#xe0;" horiz-adv-x="1147" 
d="M901 475c0 124.667 -33.167 223.5 -99.5 296.5s-154.5 109.5 -264.5 109.5c-104.667 0 -189.667 -38.167 -255 -114.5s-98 -176.833 -98 -301.5c0 -122 33.167 -219 99.5 -291s154.833 -108 265.5 -108c107.333 0 192.833 37 256.5 111s95.5 173.333 95.5 298zM993 0
l-92.001 -0.000976562v180c-42.667 -68.667 -93.5 -119.167 -152.5 -151.5s-129.5 -48.5 -211.5 -48.5c-132 0 -239.167 44.333 -321.5 133s-123.5 205.334 -123.5 350.001c0 150 40.833 271.5 122.5 364.5s186.834 139.5 315.501 139.5c93.333 0 168.5 -15.5 225.5 -46.5
s105.5 -82.5 145.5 -154.5v180h92v-946zM642.999 1087l-53 -40l-236 309l66 49z" />
    <glyph glyph-name="aacute" unicode="&#xe1;" horiz-adv-x="1147" 
d="M901 475c0 124.667 -33.167 223.5 -99.5 296.5s-154.5 109.5 -264.5 109.5c-104.667 0 -189.667 -38.167 -255 -114.5s-98 -176.833 -98 -301.5c0 -122 33.167 -219 99.5 -291s154.833 -108 265.5 -108c107.333 0 192.833 37 256.5 111s95.5 173.333 95.5 298zM993 0
l-92.001 -0.000976562v180c-42.667 -68.667 -93.5 -119.167 -152.5 -151.5s-129.5 -48.5 -211.5 -48.5c-132 0 -239.167 44.333 -321.5 133s-123.5 205.334 -123.5 350.001c0 150 40.833 271.5 122.5 364.5s186.834 139.5 315.501 139.5c93.333 0 168.5 -15.5 225.5 -46.5
s105.5 -82.5 145.5 -154.5v180h92v-946zM732.999 1356l-236 -309l-53 40l223 318z" />
    <glyph glyph-name="acircumflex" unicode="&#xe2;" horiz-adv-x="1147" 
d="M901 475c0 124.667 -33.167 223.5 -99.5 296.5s-154.5 109.5 -264.5 109.5c-104.667 0 -189.667 -38.167 -255 -114.5s-98 -176.833 -98 -301.5c0 -122 33.167 -219 99.5 -291s154.833 -108 265.5 -108c107.333 0 192.833 37 256.5 111s95.5 173.333 95.5 298zM993 0
l-92.001 -0.000976562v180c-42.667 -68.667 -93.5 -119.167 -152.5 -151.5s-129.5 -48.5 -211.5 -48.5c-132 0 -239.167 44.333 -321.5 133s-123.5 205.334 -123.5 350.001c0 150 40.833 271.5 122.5 364.5s186.834 139.5 315.501 139.5c93.333 0 168.5 -15.5 225.5 -46.5
s105.5 -82.5 145.5 -154.5v180h92v-946zM801.999 1083l-45 -36l-215 235l-215 -235l-45 36l260 322z" />
    <glyph glyph-name="atilde" unicode="&#xe3;" horiz-adv-x="1147" 
d="M901 475c0 124.667 -33.167 223.5 -99.5 296.5s-154.5 109.5 -264.5 109.5c-104.667 0 -189.667 -38.167 -255 -114.5s-98 -176.833 -98 -301.5c0 -122 33.167 -219 99.5 -291s154.833 -108 265.5 -108c107.333 0 192.833 37 256.5 111s95.5 173.333 95.5 298zM993 0
l-92.001 -0.000976562v180c-42.667 -68.667 -93.5 -119.167 -152.5 -151.5s-129.5 -48.5 -211.5 -48.5c-132 0 -239.167 44.333 -321.5 133s-123.5 205.334 -123.5 350.001c0 150 40.833 271.5 122.5 364.5s186.834 139.5 315.501 139.5c93.333 0 168.5 -15.5 225.5 -46.5
s105.5 -82.5 145.5 -154.5v180h92v-946zM873.999 1235c-24 -46.667 -50.8311 -80.833 -80.498 -102.5s-65.5 -32.5 -107.5 -32.5c-21.333 0 -43.833 4.33301 -67.5 13s-51.167 22.667 -82.5 42c-38.667 24.667 -67.834 41.167 -87.501 49.5s-37.5 12.5 -53.5 12.5
c-30.667 0 -56 -6 -76 -18s-38.333 -35 -55 -69l-51 31c24 46.667 50.5 80.5 79.5 101.5s64.5 31.5 106.5 31.5c22 0 45.167 -4.33301 69.5 -13s51.833 -22.667 82.5 -42c40.667 -26 70.167 -42.667 88.5 -50s35.166 -11 50.499 -11c31.333 0 57.333 6.16699 78 18.5
s39 34.833 55 67.5z" />
    <glyph glyph-name="adieresis" unicode="&#xe4;" horiz-adv-x="1147" 
d="M901 475c0 124.667 -33.167 223.5 -99.5 296.5s-154.5 109.5 -264.5 109.5c-104.667 0 -189.667 -38.167 -255 -114.5s-98 -176.833 -98 -301.5c0 -122 33.167 -219 99.5 -291s154.833 -108 265.5 -108c107.333 0 192.833 37 256.5 111s95.5 173.333 95.5 298zM993 0
l-92.001 -0.000976562v180c-42.667 -68.667 -93.5 -119.167 -152.5 -151.5s-129.5 -48.5 -211.5 -48.5c-132 0 -239.167 44.333 -321.5 133s-123.5 205.334 -123.5 350.001c0 150 40.833 271.5 122.5 364.5s186.834 139.5 315.501 139.5c93.333 0 168.5 -15.5 225.5 -46.5
s105.5 -82.5 145.5 -154.5v180h92v-946zM421.999 1206c0 -22.667 -7.66699 -41.667 -23 -57s-34.333 -23 -57 -23c-22 0 -40.667 7.66699 -56 23s-23 34.333 -23 57s7.66699 41.667 23 57s34 23 56 23c22.667 0 41.667 -7.66699 57 -23s23 -34.333 23 -57zM827.999 1206
c0 -22.667 -7.66699 -41.667 -23 -57s-34.333 -23 -57 -23s-41.667 7.66699 -57 23s-23 34.333 -23 57s7.66699 41.667 23 57s34.333 23 57 23s41.667 -7.66699 57 -23s23 -34.333 23 -57z" />
    <glyph glyph-name="aring" unicode="&#xe5;" horiz-adv-x="1147" 
d="M901 475c0 124.667 -33.167 223.5 -99.5 296.5s-154.5 109.5 -264.5 109.5c-104.667 0 -189.667 -38.167 -255 -114.5s-98 -176.833 -98 -301.5c0 -122 33.167 -219 99.5 -291s154.833 -108 265.5 -108c107.333 0 192.833 37 256.5 111s95.5 173.333 95.5 298zM993 0
l-92.001 -0.000976562v180c-42.667 -68.667 -93.5 -119.167 -152.5 -151.5s-129.5 -48.5 -211.5 -48.5c-132 0 -239.167 44.333 -321.5 133s-123.5 205.334 -123.5 350.001c0 150 40.833 271.5 122.5 364.5s186.834 139.5 315.501 139.5c93.333 0 168.5 -15.5 225.5 -46.5
s105.5 -82.5 145.5 -154.5v180h92v-946zM738.999 1274c0 54 -19.167 100.167 -57.5 138.5s-84.5 57.5 -138.5 57.5c-54.667 0 -101.167 -19.167 -139.5 -57.5s-57.5 -84.5 -57.5 -138.5c0 -54.667 19.167 -101.167 57.5 -139.5s84.833 -57.5 139.5 -57.5
c54 0 100.167 19.167 138.5 57.5s57.5 84.833 57.5 139.5zM792.999 1274c0 -68.667 -24.5 -127.5 -73.5 -176.5s-107.833 -73.5 -176.5 -73.5s-127.5 24.5 -176.5 73.5s-73.5 107.833 -73.5 176.5s24.5 127.5 73.5 176.5s107.833 73.5 176.5 73.5s127.5 -24.5 176.5 -73.5
s73.5 -107.833 73.5 -176.5z" />
    <glyph glyph-name="ae" unicode="&#xe6;" horiz-adv-x="1739" 
d="M801 291c-4 13.333 -7.66699 27.833 -11 43.5s-6 31.167 -8 46.5c-24.667 33.333 -67.167 61.5 -127.5 84.5s-121.5 34.5 -183.5 34.5c-92.667 0 -166.667 -20 -222 -60s-83 -92.333 -83 -157c0 -68.667 26.833 -122 80.5 -160s128.5 -57 224.5 -57
c88.667 0 162.5 20 221.5 60s95.167 95 108.5 165zM1558 565c-6 95.333 -39.998 171.833 -101.998 229.5s-141.667 86.5 -239 86.5c-90.667 0 -168.334 -29.167 -233.001 -87.5s-101.334 -134.5 -110.001 -228.5h684zM1657 479l-787.999 -0.000976562
c1.33301 -132 32.333 -233.833 93 -305.5s145.667 -107.5 255 -107.5c76.667 0 142.667 17 198 51s101 85.667 137 155l80 -41c-46.667 -86 -103.667 -149.333 -171 -190s-148.666 -61 -243.999 -61c-89.333 0 -166.666 19 -231.999 57s-115.666 93.333 -150.999 166
c-32.667 -74 -80.334 -129.667 -143.001 -167s-139.334 -56 -230.001 -56c-121.333 0 -216.166 27 -284.499 81s-102.5 128 -102.5 222c0 86.667 36.167 158.834 108.5 216.501s165.166 86.5 278.499 86.5c64.667 0 127.667 -11.5 189 -34.5s103.333 -50.5 126 -82.5v92
c0 104 -27.5 183.333 -82.5 238s-135.167 82 -240.5 82c-52.667 0 -106.834 -8 -162.501 -24s-104.834 -37.333 -147.501 -64v98c48.667 27.333 96.667 46.833 144 58.5s102.666 17.5 165.999 17.5c98.667 0 181.334 -20.667 248.001 -62s112.334 -100 137.001 -176
c35.333 74 86.666 132.167 153.999 174.5s142.333 63.5 225 63.5c132 0 238.333 -41.667 319 -125s121 -195.333 121 -336v-27z" />
    <glyph glyph-name="ccedilla" unicode="&#xe7;" horiz-adv-x="977" 
d="M895 49c-45.333 -23.333 -94.6689 -40.665 -148.002 -51.998s-110.666 -17 -171.999 -17c-141.333 0 -257.166 45.5 -347.499 136.5s-135.5 207.833 -135.5 350.5c0 148.667 47.167 269.167 141.5 361.5s217.166 138.5 368.499 138.5c50.667 0 98.667 -5.83301 144 -17.5
s89.666 -29.167 132.999 -52.5v-94c-43.333 25.333 -88.5 44.666 -135.5 57.999s-94.833 20 -143.5 20c-128 0 -229.333 -37.833 -304 -113.5s-112 -178.5 -112 -308.5c0 -114.667 38.833 -208.834 116.5 -282.501s177.5 -110.5 299.5 -110.5
c56.667 0 109.334 6.5 158.001 19.5s94.334 32.833 137.001 59.5v-96zM715.997 -62.999l-186 -318l-59 33l172 323z" />
    <glyph glyph-name="egrave" unicode="&#xe8;" horiz-adv-x="1044" 
d="M864 566c-6 94 -40.168 170 -102.501 228s-142.166 87 -239.499 87c-90.667 0 -168.167 -29.167 -232.5 -87.5s-100.833 -134.5 -109.5 -228.5zM962.999 479h-789.001c2 -132.667 33.333 -234.667 94 -306s145.334 -107 254.001 -107c77.333 0 143.666 17 198.999 51
s101 85.667 137 155l80 -41c-46.667 -86 -103.667 -149.333 -171 -190s-149 -61 -245 -61c-137.333 0 -245 44.667 -323 134s-117 211 -117 365c0 142.667 41.667 259.667 125 351s188.333 137 315 137c132.667 0 239.334 -41.667 320.001 -125s121 -195.333 121 -336v-27z
M622.998 1087l-53 -40l-236 309l66 49z" />
    <glyph glyph-name="eacute" unicode="&#xe9;" horiz-adv-x="1044" 
d="M864 566c-6 94 -40.168 170 -102.501 228s-142.166 87 -239.499 87c-90.667 0 -168.167 -29.167 -232.5 -87.5s-100.833 -134.5 -109.5 -228.5zM962.999 479h-789.001c2 -132.667 33.333 -234.667 94 -306s145.334 -107 254.001 -107c77.333 0 143.666 17 198.999 51
s101 85.667 137 155l80 -41c-46.667 -86 -103.667 -149.333 -171 -190s-149 -61 -245 -61c-137.333 0 -245 44.667 -323 134s-117 211 -117 365c0 142.667 41.667 259.667 125 351s188.333 137 315 137c132.667 0 239.334 -41.667 320.001 -125s121 -195.333 121 -336v-27z
M712.998 1356l-236 -309l-53 40l223 318z" />
    <glyph glyph-name="ecircumflex" unicode="&#xea;" horiz-adv-x="1044" 
d="M864 566c-6 94 -40.168 170 -102.501 228s-142.166 87 -239.499 87c-90.667 0 -168.167 -29.167 -232.5 -87.5s-100.833 -134.5 -109.5 -228.5zM962.999 479h-789.001c2 -132.667 33.333 -234.667 94 -306s145.334 -107 254.001 -107c77.333 0 143.666 17 198.999 51
s101 85.667 137 155l80 -41c-46.667 -86 -103.667 -149.333 -171 -190s-149 -61 -245 -61c-137.333 0 -245 44.667 -323 134s-117 211 -117 365c0 142.667 41.667 259.667 125 351s188.333 137 315 137c132.667 0 239.334 -41.667 320.001 -125s121 -195.333 121 -336v-27z
M781.998 1083l-45 -36l-215 235l-215 -235l-45 36l260 322z" />
    <glyph glyph-name="edieresis" unicode="&#xeb;" horiz-adv-x="1044" 
d="M864 566c-6 94 -40.168 170 -102.501 228s-142.166 87 -239.499 87c-90.667 0 -168.167 -29.167 -232.5 -87.5s-100.833 -134.5 -109.5 -228.5zM962.999 479h-789.001c2 -132.667 33.333 -234.667 94 -306s145.334 -107 254.001 -107c77.333 0 143.666 17 198.999 51
s101 85.667 137 155l80 -41c-46.667 -86 -103.667 -149.333 -171 -190s-149 -61 -245 -61c-137.333 0 -245 44.667 -323 134s-117 211 -117 365c0 142.667 41.667 259.667 125 351s188.333 137 315 137c132.667 0 239.334 -41.667 320.001 -125s121 -195.333 121 -336v-27z
M400.998 1206c0 -22.667 -7.66699 -41.667 -23 -57s-34.333 -23 -57 -23c-22 0 -40.667 7.66699 -56 23s-23 34.333 -23 57s7.66699 41.667 23 57s34 23 56 23c22.667 0 41.667 -7.66699 57 -23s23 -34.333 23 -57zM806.998 1206c0 -22.667 -7.66699 -41.667 -23 -57
s-34.333 -23 -57 -23s-41.667 7.66699 -57 23s-23 34.333 -23 57s7.66699 41.667 23 57s34.333 23 57 23s41.667 -7.66699 57 -23s23 -34.333 23 -57z" />
    <glyph glyph-name="igrave" unicode="&#xec;" horiz-adv-x="479" 
d="M287 0h-92v946h92v-946zM340 1087l-53 -40l-236 309l66 49z" />
    <glyph glyph-name="iacute" unicode="&#xed;" horiz-adv-x="479" 
d="M287 0h-92v946h92v-946zM430 1356l-236 -309l-53 40l223 318z" />
    <glyph glyph-name="icircumflex" unicode="&#xee;" horiz-adv-x="479" 
d="M287 0h-92v946h92v-946zM499 1083l-45 -36l-215 235l-215 -235l-45 36l260 322z" />
    <glyph glyph-name="idieresis" unicode="&#xef;" horiz-adv-x="479" 
d="M287 0h-92v946h92v-946zM119 1206c0 -22.667 -7.66699 -41.667 -23 -57s-34.333 -23 -57 -23c-22 0 -40.667 7.66699 -56 23s-23 34.333 -23 57s7.66699 41.667 23 57s34 23 56 23c22.667 0 41.667 -7.66699 57 -23s23 -34.333 23 -57zM525 1206
c0 -22.667 -7.66699 -41.667 -23 -57s-34.333 -23 -57 -23s-41.667 7.66699 -57 23s-23 34.333 -23 57s7.66699 41.667 23 57s34.333 23 57 23s41.667 -7.66699 57 -23s23 -34.333 23 -57z" />
    <glyph glyph-name="eth" unicode="&#xf0;" horiz-adv-x="1120" 
d="M958 496c0 111.333 -38.501 203.333 -115.501 276s-172.833 109 -287.5 109c-111.333 0 -204.666 -38.667 -279.999 -116s-113 -174 -113 -290c0 -115.333 38 -212.333 114 -291s169 -118 279 -118c126 0 224.667 37.667 296 113s107 181 107 317zM1051 530
c0 -176.667 -43.502 -312.5 -130.502 -407.5s-210.167 -142.5 -369.5 -142.5c-134 0 -247.667 48 -341 144s-140 213.667 -140 353c0 138 46.167 254.167 138.5 348.5s206.5 141.5 342.5 141.5c78 0 149.833 -15 215.5 -45s120.167 -72.333 163.5 -127
c-27.333 113.333 -74.166 222.666 -140.499 327.999s-149.166 202.666 -248.499 291.999l-279 -180l-45 72l258 166c-37.333 30 -76.833 58.833 -118.5 86.5s-85.5 53.834 -131.5 78.501l47 72c50.667 -27.333 99.5 -56.666 146.5 -87.999s91.833 -64 134.5 -98l287 186
l45 -72l-267 -172c142 -128 249.667 -271.5 323 -430.5s110 -327.5 110 -505.5z" />
    <glyph glyph-name="ntilde" unicode="&#xf1;" horiz-adv-x="1004" 
d="M850 0l-91.999 0.000976562v588c0 102.667 -18.167 177.167 -54.5 223.5s-95.5 69.5 -177.5 69.5c-96.667 0 -167.5 -34 -212.5 -102s-67.5 -176 -67.5 -324v-455h-92v946h92v-158c30 62.667 69 108.167 117 136.5s109.333 42.5 184 42.5
c93.333 0 167.166 -30.333 221.499 -91s81.5 -144.334 81.5 -251.001v-625zM833.001 1235c-24 -46.667 -50.8311 -80.833 -80.498 -102.5s-65.5 -32.5 -107.5 -32.5c-21.333 0 -43.833 4.33301 -67.5 13s-51.167 22.667 -82.5 42
c-38.667 24.667 -67.834 41.167 -87.501 49.5s-37.5 12.5 -53.5 12.5c-30.667 0 -56 -6 -76 -18s-38.333 -35 -55 -69l-51 31c24 46.667 50.5 80.5 79.5 101.5s64.5 31.5 106.5 31.5c22 0 45.167 -4.33301 69.5 -13s51.833 -22.667 82.5 -42
c40.667 -26 70.167 -42.667 88.5 -50s35.166 -11 50.499 -11c31.333 0 57.333 6.16699 78 18.5s39 34.833 55 67.5z" />
    <glyph glyph-name="ograve" unicode="&#xf2;" horiz-adv-x="1120" 
d="M958 475c0 114.667 -38.168 211 -114.501 289s-170.5 117 -282.5 117s-206.5 -38.833 -283.5 -116.5s-115.5 -174.167 -115.5 -289.5c0 -114.667 38.833 -211.5 116.5 -290.5s171.834 -118.5 282.501 -118.5s204.5 39.5 281.5 118.5s115.5 175.833 115.5 290.5zM1051 477
c0 -138 -48 -255.333 -144 -352s-212.667 -145 -350 -145c-134.667 0 -249.5 48.333 -344.5 145s-142.5 214 -142.5 352c0 137.333 47.167 253.333 141.5 348s209.5 142 345.5 142c139.333 0 256.5 -47.167 351.5 -141.5s142.5 -210.5 142.5 -348.5zM659.999 1087l-53 -40
l-236 309l66 49z" />
    <glyph glyph-name="oacute" unicode="&#xf3;" horiz-adv-x="1120" 
d="M958 475c0 114.667 -38.168 211 -114.501 289s-170.5 117 -282.5 117s-206.5 -38.833 -283.5 -116.5s-115.5 -174.167 -115.5 -289.5c0 -114.667 38.833 -211.5 116.5 -290.5s171.834 -118.5 282.501 -118.5s204.5 39.5 281.5 118.5s115.5 175.833 115.5 290.5zM1051 477
c0 -138 -48 -255.333 -144 -352s-212.667 -145 -350 -145c-134.667 0 -249.5 48.333 -344.5 145s-142.5 214 -142.5 352c0 137.333 47.167 253.333 141.5 348s209.5 142 345.5 142c139.333 0 256.5 -47.167 351.5 -141.5s142.5 -210.5 142.5 -348.5zM749.999 1356l-236 -309
l-53 40l223 318z" />
    <glyph glyph-name="ocircumflex" unicode="&#xf4;" horiz-adv-x="1120" 
d="M958 475c0 114.667 -38.168 211 -114.501 289s-170.5 117 -282.5 117s-206.5 -38.833 -283.5 -116.5s-115.5 -174.167 -115.5 -289.5c0 -114.667 38.833 -211.5 116.5 -290.5s171.834 -118.5 282.501 -118.5s204.5 39.5 281.5 118.5s115.5 175.833 115.5 290.5zM1051 477
c0 -138 -48 -255.333 -144 -352s-212.667 -145 -350 -145c-134.667 0 -249.5 48.333 -344.5 145s-142.5 214 -142.5 352c0 137.333 47.167 253.333 141.5 348s209.5 142 345.5 142c139.333 0 256.5 -47.167 351.5 -141.5s142.5 -210.5 142.5 -348.5zM820.999 1083l-45 -36
l-215 235l-215 -235l-45 36l260 322z" />
    <glyph glyph-name="otilde" unicode="&#xf5;" horiz-adv-x="1120" 
d="M958 475c0 114.667 -38.168 211 -114.501 289s-170.5 117 -282.5 117s-206.5 -38.833 -283.5 -116.5s-115.5 -174.167 -115.5 -289.5c0 -114.667 38.833 -211.5 116.5 -290.5s171.834 -118.5 282.501 -118.5s204.5 39.5 281.5 118.5s115.5 175.833 115.5 290.5zM1051 477
c0 -138 -48 -255.333 -144 -352s-212.667 -145 -350 -145c-134.667 0 -249.5 48.333 -344.5 145s-142.5 214 -142.5 352c0 137.333 47.167 253.333 141.5 348s209.5 142 345.5 142c139.333 0 256.5 -47.167 351.5 -141.5s142.5 -210.5 142.5 -348.5zM890.999 1235
c-24 -46.667 -50.8311 -80.833 -80.498 -102.5s-65.5 -32.5 -107.5 -32.5c-21.333 0 -43.833 4.33301 -67.5 13s-51.167 22.667 -82.5 42c-38.667 24.667 -67.834 41.167 -87.501 49.5s-37.5 12.5 -53.5 12.5c-30.667 0 -56 -6 -76 -18s-38.333 -35 -55 -69l-51 31
c24 46.667 50.5 80.5 79.5 101.5s64.5 31.5 106.5 31.5c22 0 45.167 -4.33301 69.5 -13s51.833 -22.667 82.5 -42c40.667 -26 70.167 -42.667 88.5 -50s35.166 -11 50.499 -11c31.333 0 57.333 6.16699 78 18.5s39 34.833 55 67.5z" />
    <glyph glyph-name="odieresis" unicode="&#xf6;" horiz-adv-x="1120" 
d="M958 475c0 114.667 -38.168 211 -114.501 289s-170.5 117 -282.5 117s-206.5 -38.833 -283.5 -116.5s-115.5 -174.167 -115.5 -289.5c0 -114.667 38.833 -211.5 116.5 -290.5s171.834 -118.5 282.501 -118.5s204.5 39.5 281.5 118.5s115.5 175.833 115.5 290.5zM1051 477
c0 -138 -48 -255.333 -144 -352s-212.667 -145 -350 -145c-134.667 0 -249.5 48.333 -344.5 145s-142.5 214 -142.5 352c0 137.333 47.167 253.333 141.5 348s209.5 142 345.5 142c139.333 0 256.5 -47.167 351.5 -141.5s142.5 -210.5 142.5 -348.5zM437.999 1206
c0 -22.667 -7.66699 -41.667 -23 -57s-34.333 -23 -57 -23c-22 0 -40.667 7.66699 -56 23s-23 34.333 -23 57s7.66699 41.667 23 57s34 23 56 23c22.667 0 41.667 -7.66699 57 -23s23 -34.333 23 -57zM843.999 1206c0 -22.667 -7.66699 -41.667 -23 -57s-34.333 -23 -57 -23
s-41.667 7.66699 -57 23s-23 34.333 -23 57s7.66699 41.667 23 57s34.333 23 57 23s41.667 -7.66699 57 -23s23 -34.333 23 -57z" />
    <glyph glyph-name="divide" unicode="&#xf7;" 
d="M723 227c0 -24.667 -8.5 -45.5 -25.5 -62.5s-37.833 -25.5 -62.5 -25.5s-45.5 8.5 -62.5 25.5s-25.5 37.833 -25.5 62.5s8.5 45.5 25.5 62.5s37.833 25.5 62.5 25.5s45.5 -8.5 62.5 -25.5s25.5 -37.833 25.5 -62.5zM1167 510h-1065v86h1065v-86zM723 879
c0 -24.667 -8.5 -45.5 -25.5 -62.5s-37.833 -25.5 -62.5 -25.5s-45.5 8.5 -62.5 25.5s-25.5 37.833 -25.5 62.5c0 24 8.5 44.667 25.5 62s37.833 26 62.5 26s45.5 -8.66699 62.5 -26s25.5 -38 25.5 -62z" />
    <glyph glyph-name="oslash" unicode="&#xf8;" horiz-adv-x="1120" 
d="M958 475c0 50 -7.66797 97.333 -23.001 142s-37.666 84.667 -66.999 120l-571 -571c35.333 -32 75.833 -56.667 121.5 -74s93.167 -26 142.5 -26c110.667 0 204.5 39.5 281.5 118.5s115.5 175.833 115.5 290.5zM822.999 782c-36 32 -76.5 56.499 -121.5 73.499
s-91.833 25.5 -140.5 25.5c-112 0 -206.5 -38.833 -283.5 -116.5s-115.5 -174.167 -115.5 -289.5c0 -49.333 7.83301 -96.666 23.5 -141.999s38.5 -86 68.5 -122zM1051 476.999c0 -138 -48 -255.332 -144 -351.999s-212.667 -145 -350 -145c-60 0 -117.667 10.5 -173 31.5
s-104.666 51.167 -147.999 90.5l-123 -122l-43 45l120 122c-38.667 46 -68.334 97.167 -89.001 153.5s-31 115.166 -31 176.499c0 137.333 47.167 253.333 141.5 348s209.5 142 345.5 142c62.667 0 122.167 -10.333 178.5 -31s106.833 -50.667 151.5 -90l121 121l43 -45
l-121 -121c39.333 -44.667 69.333 -94.667 90 -150s31 -113.333 31 -174z" />
    <glyph glyph-name="ugrave" unicode="&#xf9;" horiz-adv-x="967" 
d="M813 391c0 -145.333 -26.168 -250.167 -78.501 -314.5s-136.166 -96.5 -251.499 -96.5c-114 0 -197.333 33 -250 99s-79 170 -79 312v555h92v-528c0 -126 17.5 -216.167 52.5 -270.5s96.5 -81.5 184.5 -81.5c90 0 152.167 26.667 186.5 80s51.5 144 51.5 272v528h92v-555
zM583.999 1087l-53 -40l-236 309l66 49z" />
    <glyph glyph-name="uacute" unicode="&#xfa;" horiz-adv-x="967" 
d="M813 391c0 -145.333 -26.168 -250.167 -78.501 -314.5s-136.166 -96.5 -251.499 -96.5c-114 0 -197.333 33 -250 99s-79 170 -79 312v555h92v-528c0 -126 17.5 -216.167 52.5 -270.5s96.5 -81.5 184.5 -81.5c90 0 152.167 26.667 186.5 80s51.5 144 51.5 272v528h92v-555
zM673.999 1356l-236 -309l-53 40l223 318z" />
    <glyph glyph-name="ucircumflex" unicode="&#xfb;" horiz-adv-x="967" 
d="M813 391c0 -145.333 -26.168 -250.167 -78.501 -314.5s-136.166 -96.5 -251.499 -96.5c-114 0 -197.333 33 -250 99s-79 170 -79 312v555h92v-528c0 -126 17.5 -216.167 52.5 -270.5s96.5 -81.5 184.5 -81.5c90 0 152.167 26.667 186.5 80s51.5 144 51.5 272v528h92v-555
zM742.999 1083l-45 -36l-215 235l-215 -235l-45 36l260 322z" />
    <glyph glyph-name="udieresis" unicode="&#xfc;" horiz-adv-x="967" 
d="M813 391c0 -145.333 -26.168 -250.167 -78.501 -314.5s-136.166 -96.5 -251.499 -96.5c-114 0 -197.333 33 -250 99s-79 170 -79 312v555h92v-528c0 -126 17.5 -216.167 52.5 -270.5s96.5 -81.5 184.5 -81.5c90 0 152.167 26.667 186.5 80s51.5 144 51.5 272v528h92v-555
zM361.999 1206c0 -22.667 -7.66699 -41.667 -23 -57s-34.333 -23 -57 -23c-22 0 -40.667 7.66699 -56 23s-23 34.333 -23 57s7.66699 41.667 23 57s34 23 56 23c22.667 0 41.667 -7.66699 57 -23s23 -34.333 23 -57zM767.999 1206c0 -22.667 -7.66699 -41.667 -23 -57
s-34.333 -23 -57 -23s-41.667 7.66699 -57 23s-23 34.333 -23 57s7.66699 41.667 23 57s34.333 23 57 23s41.667 -7.66699 57 -23s23 -34.333 23 -57z" />
    <glyph glyph-name="yacute" unicode="&#xfd;" horiz-adv-x="942" 
d="M926 946l-654 -1478h-102l270 600l-424 878h103l373 -774l331 774h103zM670 1356l-236 -309l-53 40l223 318z" />
    <glyph glyph-name="thorn" unicode="&#xfe;" horiz-adv-x="1147" 
d="M963 481c0 122 -33.167 219.167 -99.5 291.5s-154.833 108.5 -265.5 108.5c-110 0 -196.167 -34.333 -258.5 -103s-93.5 -164 -93.5 -286c0 -128 33.833 -231 101.5 -309s155.167 -117 262.5 -117c104.667 0 189.667 38 255 114s98 176.333 98 301zM1055 483
c0 -150 -40.834 -271.332 -122.501 -363.999s-187.167 -139 -316.5 -139c-85.333 0 -158.166 17.167 -218.499 51.5s-110.833 87.166 -151.5 158.499v-722h-92v2222h92v-914c38.667 63.333 88.5 111 149.5 143s132.5 48 214.5 48c132 0 239.167 -44.5 321.5 -133.5
s123.5 -205.833 123.5 -350.5z" />
    <glyph glyph-name="ydieresis" unicode="&#xff;" horiz-adv-x="942" 
d="M926 946l-654 -1478h-102l270 600l-424 878h103l373 -774l331 774h103zM358 1206c0 -22.667 -7.66699 -41.667 -23 -57s-34.333 -23 -57 -23c-22 0 -40.667 7.66699 -56 23s-23 34.333 -23 57s7.66699 41.667 23 57s34 23 56 23c22.667 0 41.667 -7.66699 57 -23
s23 -34.333 23 -57zM764 1206c0 -22.667 -7.66699 -41.667 -23 -57s-34.333 -23 -57 -23s-41.667 7.66699 -57 23s-23 34.333 -23 57s7.66699 41.667 23 57s34.333 23 57 23s41.667 -7.66699 57 -23s23 -34.333 23 -57z" />
    <glyph glyph-name="Amacron" unicode="&#x100;" horiz-adv-x="1313" 
d="M942 629l-285 721l-284 -721h569zM1296 0h-104l-213 537h-643l-213 -537h-105l639 1581zM923 1751h-532v82h532v-82z" />
    <glyph glyph-name="amacron" unicode="&#x101;" horiz-adv-x="1147" 
d="M901 475c0 124.667 -33.167 223.5 -99.5 296.5s-154.5 109.5 -264.5 109.5c-104.667 0 -189.667 -38.167 -255 -114.5s-98 -176.833 -98 -301.5c0 -122 33.167 -219 99.5 -291s154.833 -108 265.5 -108c107.333 0 192.833 37 256.5 111s95.5 173.333 95.5 298zM993 0
l-92.001 -0.000976562v180c-42.667 -68.667 -93.5 -119.167 -152.5 -151.5s-129.5 -48.5 -211.5 -48.5c-132 0 -239.167 44.333 -321.5 133s-123.5 205.334 -123.5 350.001c0 150 40.833 271.5 122.5 364.5s186.834 139.5 315.501 139.5c93.333 0 168.5 -15.5 225.5 -46.5
s105.5 -82.5 145.5 -154.5v180h92v-946zM808.999 1153h-532v82h532v-82z" />
    <glyph glyph-name="Abreve" unicode="&#x102;" horiz-adv-x="1313" 
d="M942 629l-285 721l-284 -721h569zM1296 0h-104l-213 537h-643l-213 -537h-105l639 1581zM932 1888c-14 -77.333 -43.833 -135.5 -89.5 -174.5s-107.5 -58.5 -185.5 -58.5s-139.833 19.5 -185.5 58.5s-75.167 97.167 -88.5 174.5l61 15
c13.333 -56.667 37.333 -98.5 72 -125.5s81.667 -40.5 141 -40.5s106.5 13.5 141.5 40.5s58.833 68.833 71.5 125.5z" />
    <glyph glyph-name="abreve" unicode="&#x103;" horiz-adv-x="1147" 
d="M901 475c0 124.667 -33.167 223.5 -99.5 296.5s-154.5 109.5 -264.5 109.5c-104.667 0 -189.667 -38.167 -255 -114.5s-98 -176.833 -98 -301.5c0 -122 33.167 -219 99.5 -291s154.833 -108 265.5 -108c107.333 0 192.833 37 256.5 111s95.5 173.333 95.5 298zM993 0
l-92.001 -0.000976562v180c-42.667 -68.667 -93.5 -119.167 -152.5 -151.5s-129.5 -48.5 -211.5 -48.5c-132 0 -239.167 44.333 -321.5 133s-123.5 205.334 -123.5 350.001c0 150 40.833 271.5 122.5 364.5s186.834 139.5 315.501 139.5c93.333 0 168.5 -15.5 225.5 -46.5
s105.5 -82.5 145.5 -154.5v180h92v-946zM816.999 1290c-14 -77.333 -43.833 -135.5 -89.5 -174.5s-107.5 -58.5 -185.5 -58.5s-139.833 19.5 -185.5 58.5s-75.167 97.167 -88.5 174.5l61 15c13.333 -56.667 37.333 -98.5 72 -125.5s81.667 -40.5 141 -40.5
s106.5 13.5 141.5 40.5s58.833 68.833 71.5 125.5z" />
    <glyph glyph-name="Aogonek" unicode="&#x104;" horiz-adv-x="1313" 
d="M942 629l-285 721l-284 -721h569zM1296 -451c-86.667 0 -151 15.168 -193 45.501s-63 76.833 -63 139.5c0 44 14.333 90.667 43 140s65 91.333 109 126l-213 537h-643l-213 -537h-105l639 1581l639 -1581h-36c-37.333 -34 -69 -75 -95 -123s-39 -91 -39 -129
c0 -40.667 13.667 -70.334 41 -89.001s70.333 -28 129 -28v-82z" />
    <glyph glyph-name="aogonek" unicode="&#x105;" horiz-adv-x="1147" 
d="M901 475c0 124.667 -33.167 223.5 -99.5 296.5s-154.5 109.5 -264.5 109.5c-104.667 0 -189.667 -38.167 -255 -114.5s-98 -176.833 -98 -301.5c0 -122 33.167 -219 99.5 -291s154.833 -108 265.5 -108c107.333 0 192.833 37 256.5 111s95.5 173.333 95.5 298zM993 -451
c-86 0 -149.168 14.998 -189.501 44.998s-60.5 76.667 -60.5 140c0 43.333 14.833 89.5 44.5 138.5s67.5 91.5 113.5 127.5v180c-42.667 -68.667 -93.5 -119.167 -152.5 -151.5s-129.5 -48.5 -211.5 -48.5c-132 0 -239.167 44.333 -321.5 133s-123.5 205.334 -123.5 350.001
c0 150 40.833 271.5 122.5 364.5s186.834 139.5 315.501 139.5c93.333 0 168.5 -15.5 225.5 -46.5s105.5 -82.5 145.5 -154.5v180h92v-946h-24c-39.333 -35.333 -72.5 -77 -99.5 -125s-40.5 -90.333 -40.5 -127c0 -41.333 12.833 -71.166 38.5 -89.499
s67.5 -27.5 125.5 -27.5v-82z" />
    <glyph glyph-name="Cacute" unicode="&#x106;" horiz-adv-x="1513" 
d="M1391 117c-70 -43.333 -147.669 -76.999 -233.002 -100.999s-168.333 -36 -249 -36c-233.333 0 -424.666 73.833 -573.999 221.5s-224 338.5 -224 572.5c0 228.667 75.667 417.667 227 567s341.666 224 570.999 224c94 0 180.833 -12.667 260.5 -38
s153.5 -63.333 221.5 -114v-113c-75.333 59.333 -150.666 103 -225.999 131s-155.666 42 -240.999 42c-210 0 -381.667 -65 -515 -195s-200 -298 -200 -504s65.5 -374.5 196.5 -505.5s296.833 -196.5 497.5 -196.5c86 0 170.667 13.667 254 41s161.333 66.666 234 117.999
v-114zM1083 1954l-236 -309l-53 40l223 318z" />
    <glyph glyph-name="cacute" unicode="&#x107;" horiz-adv-x="977" 
d="M895 49c-45.333 -23.333 -94.6689 -40.665 -148.002 -51.998s-110.666 -17 -171.999 -17c-141.333 0 -257.166 45.5 -347.499 136.5s-135.5 207.833 -135.5 350.5c0 148.667 47.167 269.167 141.5 361.5s217.166 138.5 368.499 138.5c50.667 0 98.667 -5.83301 144 -17.5
s89.666 -29.167 132.999 -52.5v-94c-43.333 25.333 -88.5 44.666 -135.5 57.999s-94.833 20 -143.5 20c-128 0 -229.333 -37.833 -304 -113.5s-112 -178.5 -112 -308.5c0 -114.667 38.833 -208.834 116.5 -282.501s177.5 -110.5 299.5 -110.5
c56.667 0 109.334 6.5 158.001 19.5s94.334 32.833 137.001 59.5v-96zM765.997 1356l-236 -309l-53 40l223 318z" />
    <glyph glyph-name="Ccircumflex" unicode="&#x108;" horiz-adv-x="1513" 
d="M1391 117c-70 -43.333 -147.669 -76.999 -233.002 -100.999s-168.333 -36 -249 -36c-233.333 0 -424.666 73.833 -573.999 221.5s-224 338.5 -224 572.5c0 228.667 75.667 417.667 227 567s341.666 224 570.999 224c94 0 180.833 -12.667 260.5 -38
s153.5 -63.333 221.5 -114v-113c-75.333 59.333 -150.666 103 -225.999 131s-155.666 42 -240.999 42c-210 0 -381.667 -65 -515 -195s-200 -298 -200 -504s65.5 -374.5 196.5 -505.5s296.833 -196.5 497.5 -196.5c86 0 170.667 13.667 254 41s161.333 66.666 234 117.999
v-114zM1153 1681l-45 -36l-215 235l-215 -235l-45 36l260 322z" />
    <glyph glyph-name="ccircumflex" unicode="&#x109;" horiz-adv-x="977" 
d="M895 49c-45.333 -23.333 -94.6689 -40.665 -148.002 -51.998s-110.666 -17 -171.999 -17c-141.333 0 -257.166 45.5 -347.499 136.5s-135.5 207.833 -135.5 350.5c0 148.667 47.167 269.167 141.5 361.5s217.166 138.5 368.499 138.5c50.667 0 98.667 -5.83301 144 -17.5
s89.666 -29.167 132.999 -52.5v-94c-43.333 25.333 -88.5 44.666 -135.5 57.999s-94.833 20 -143.5 20c-128 0 -229.333 -37.833 -304 -113.5s-112 -178.5 -112 -308.5c0 -114.667 38.833 -208.834 116.5 -282.501s177.5 -110.5 299.5 -110.5
c56.667 0 109.334 6.5 158.001 19.5s94.334 32.833 137.001 59.5v-96zM834.997 1083l-45 -36l-215 235l-215 -235l-45 36l260 322z" />
    <glyph glyph-name="Cdot" unicode="&#x10a;" horiz-adv-x="1513" 
d="M1391 117c-70 -43.333 -147.669 -76.999 -233.002 -100.999s-168.333 -36 -249 -36c-233.333 0 -424.666 73.833 -573.999 221.5s-224 338.5 -224 572.5c0 228.667 75.667 417.667 227 567s341.666 224 570.999 224c94 0 180.833 -12.667 260.5 -38
s153.5 -63.333 221.5 -114v-113c-75.333 59.333 -150.666 103 -225.999 131s-155.666 42 -240.999 42c-210 0 -381.667 -65 -515 -195s-200 -298 -200 -504s65.5 -374.5 196.5 -505.5s296.833 -196.5 497.5 -196.5c86 0 170.667 13.667 254 41s161.333 66.666 234 117.999
v-114zM973.998 1806c0 -22 -8 -41.167 -24 -57.5s-35.333 -24.5 -58 -24.5c-22 0 -41 8.16699 -57 24.5s-24 35.5 -24 57.5c0 22.667 8 42 24 58s35 24 57 24c22.667 0 42 -8 58 -24s24 -35.333 24 -58z" />
    <glyph glyph-name="cdot" unicode="&#x10b;" horiz-adv-x="977" 
d="M895 49c-45.333 -23.333 -94.6689 -40.665 -148.002 -51.998s-110.666 -17 -171.999 -17c-141.333 0 -257.166 45.5 -347.499 136.5s-135.5 207.833 -135.5 350.5c0 148.667 47.167 269.167 141.5 361.5s217.166 138.5 368.499 138.5c50.667 0 98.667 -5.83301 144 -17.5
s89.666 -29.167 132.999 -52.5v-94c-43.333 25.333 -88.5 44.666 -135.5 57.999s-94.833 20 -143.5 20c-128 0 -229.333 -37.833 -304 -113.5s-112 -178.5 -112 -308.5c0 -114.667 38.833 -208.834 116.5 -282.501s177.5 -110.5 299.5 -110.5
c56.667 0 109.334 6.5 158.001 19.5s94.334 32.833 137.001 59.5v-96zM656.997 1208c0 -22 -8 -41.167 -24 -57.5s-35.333 -24.5 -58 -24.5c-22 0 -41 8.16699 -57 24.5s-24 35.5 -24 57.5c0 22.667 8 42 24 58s35 24 57 24c22.667 0 42 -8 58 -24s24 -35.333 24 -58z" />
    <glyph glyph-name="Ccaron" unicode="&#x10c;" horiz-adv-x="1513" 
d="M1391 117c-70 -43.333 -147.669 -76.999 -233.002 -100.999s-168.333 -36 -249 -36c-233.333 0 -424.666 73.833 -573.999 221.5s-224 338.5 -224 572.5c0 228.667 75.667 417.667 227 567s341.666 224 570.999 224c94 0 180.833 -12.667 260.5 -38
s153.5 -63.333 221.5 -114v-113c-75.333 59.333 -150.666 103 -225.999 131s-155.666 42 -240.999 42c-210 0 -381.667 -65 -515 -195s-200 -298 -200 -504s65.5 -374.5 196.5 -505.5s296.833 -196.5 497.5 -196.5c86 0 170.667 13.667 254 41s161.333 66.666 234 117.999
v-114zM1153 1946l-260 -322l-260 322l45 36l215 -235l215 235z" />
    <glyph glyph-name="ccaron" unicode="&#x10d;" horiz-adv-x="977" 
d="M895 49c-45.333 -23.333 -94.6689 -40.665 -148.002 -51.998s-110.666 -17 -171.999 -17c-141.333 0 -257.166 45.5 -347.499 136.5s-135.5 207.833 -135.5 350.5c0 148.667 47.167 269.167 141.5 361.5s217.166 138.5 368.499 138.5c50.667 0 98.667 -5.83301 144 -17.5
s89.666 -29.167 132.999 -52.5v-94c-43.333 25.333 -88.5 44.666 -135.5 57.999s-94.833 20 -143.5 20c-128 0 -229.333 -37.833 -304 -113.5s-112 -178.5 -112 -308.5c0 -114.667 38.833 -208.834 116.5 -282.501s177.5 -110.5 299.5 -110.5
c56.667 0 109.334 6.5 158.001 19.5s94.334 32.833 137.001 59.5v-96zM834.997 1348l-260 -322l-260 322l45 36l215 -235l215 235z" />
    <glyph glyph-name="Dcaron" unicode="&#x10e;" horiz-adv-x="1335" 
d="M1145 772c0 223.333 -65 392.5 -195 507.5s-321.667 172.5 -575 172.5h-103v-1360h74c284 0 488.167 54.333 612.5 163s186.5 281 186.5 517zM1243 770c0 -259.333 -72.166 -452.5 -216.499 -579.5s-365.833 -190.5 -664.5 -190.5h-188v1544h217
c277.333 0 488.666 -67 633.999 -201s218 -325 218 -573zM819.001 1946l-260 -322l-260 322l45 36l215 -235l215 235z" />
    <glyph glyph-name="dcaron" unicode="&#x10f;" horiz-adv-x="1677" 
d="M901 475c0 124.667 -33.167 223.5 -99.5 296.5s-154.5 109.5 -264.5 109.5c-104.667 0 -189.667 -38.167 -255 -114.5s-98 -176.833 -98 -301.5c0 -122 33.167 -219 99.5 -291s154.833 -108 265.5 -108c107.333 0 192.833 37 256.5 111s95.5 173.333 95.5 298zM993 0
l-92.001 -0.00195312v180c-42.667 -68.667 -93.5 -119.167 -152.5 -151.5s-129.5 -48.5 -211.5 -48.5c-132 0 -239.167 44.333 -321.5 133s-123.5 205.334 -123.5 350.001c0 150 40.833 271.5 122.5 364.5s186.834 139.5 315.501 139.5c98.667 0 175.167 -15.667 229.5 -47
s101.5 -82.666 141.5 -153.999v924h92v-1690zM1553 1524l-226 -467l-55 24l190 484z" />
    <glyph glyph-name="Dslash" unicode="&#x110;" horiz-adv-x="1335" 
d="M1145 772c0 223.333 -65 392.5 -195 507.5s-321.667 172.5 -575 172.5h-103v-598h486v-86h-486v-676h74c284 0 488.167 54.333 612.5 163s186.5 281 186.5 517zM1243 770c0 -259.333 -72.166 -452.5 -216.499 -579.5s-365.833 -190.5 -664.5 -190.5h-188v768h-174v86h174
v690h217c277.333 0 488.666 -67 633.999 -201s218 -325 218 -573z" />
    <glyph glyph-name="dcroat" unicode="&#x111;" horiz-adv-x="1147" 
d="M901 475c0 124.667 -33.167 223.5 -99.5 296.5s-154.5 109.5 -264.5 109.5c-104.667 0 -189.667 -38.167 -255 -114.5s-98 -176.833 -98 -301.5c0 -122 33.167 -219 99.5 -291s154.833 -108 265.5 -108c107.333 0 192.833 37 256.5 111s95.5 173.333 95.5 298zM1147 1257
l-154.001 -0.00195312v-1257h-92v180c-42.667 -68.667 -93.5 -119.167 -152.5 -151.5s-129.5 -48.5 -211.5 -48.5c-132 0 -239.167 44.333 -321.5 133s-123.5 205.334 -123.5 350.001c0 150 40.833 271.5 122.5 364.5s186.834 139.5 315.501 139.5
c98.667 0 175.167 -15.667 229.5 -47s101.5 -82.666 141.5 -153.999v491h-401v86h401v347h92v-347h154v-86z" />
    <glyph glyph-name="Emacron" unicode="&#x112;" horiz-adv-x="1038" 
d="M901 0h-727v1544h727v-92h-629v-543h629v-92h-629v-725h629v-92zM809 1751h-532v82h532v-82z" />
    <glyph glyph-name="emacron" unicode="&#x113;" horiz-adv-x="1044" 
d="M864 566c-6 94 -40.168 170 -102.501 228s-142.166 87 -239.499 87c-90.667 0 -168.167 -29.167 -232.5 -87.5s-100.833 -134.5 -109.5 -228.5zM962.999 479h-789.001c2 -132.667 33.333 -234.667 94 -306s145.334 -107 254.001 -107c77.333 0 143.666 17 198.999 51
s101 85.667 137 155l80 -41c-46.667 -86 -103.667 -149.333 -171 -190s-149 -61 -245 -61c-137.333 0 -245 44.667 -323 134s-117 211 -117 365c0 142.667 41.667 259.667 125 351s188.333 137 315 137c132.667 0 239.334 -41.667 320.001 -125s121 -195.333 121 -336v-27z
M787.998 1153h-532v82h532v-82z" />
    <glyph glyph-name="Ebreve" unicode="&#x114;" horiz-adv-x="1038" 
d="M901 0h-727v1544h727v-92h-629v-543h629v-92h-629v-725h629v-92zM817 1888c-14 -77.333 -43.833 -135.5 -89.5 -174.5s-107.5 -58.5 -185.5 -58.5s-139.833 19.5 -185.5 58.5s-75.167 97.167 -88.5 174.5l61 15c13.333 -56.667 37.333 -98.5 72 -125.5
s81.667 -40.5 141 -40.5s106.5 13.5 141.5 40.5s58.833 68.833 71.5 125.5z" />
    <glyph glyph-name="ebreve" unicode="&#x115;" horiz-adv-x="1044" 
d="M864 566c-6 94 -40.168 170 -102.501 228s-142.166 87 -239.499 87c-90.667 0 -168.167 -29.167 -232.5 -87.5s-100.833 -134.5 -109.5 -228.5zM962.999 479h-789.001c2 -132.667 33.333 -234.667 94 -306s145.334 -107 254.001 -107c77.333 0 143.666 17 198.999 51
s101 85.667 137 155l80 -41c-46.667 -86 -103.667 -149.333 -171 -190s-149 -61 -245 -61c-137.333 0 -245 44.667 -323 134s-117 211 -117 365c0 142.667 41.667 259.667 125 351s188.333 137 315 137c132.667 0 239.334 -41.667 320.001 -125s121 -195.333 121 -336v-27z
M796.998 1290c-14 -77.333 -43.833 -135.5 -89.5 -174.5s-107.5 -58.5 -185.5 -58.5s-139.833 19.5 -185.5 58.5s-75.167 97.167 -88.5 174.5l61 15c13.333 -56.667 37.333 -98.5 72 -125.5s81.667 -40.5 141 -40.5s106.5 13.5 141.5 40.5s58.833 68.833 71.5 125.5z" />
    <glyph glyph-name="Edot" unicode="&#x116;" horiz-adv-x="1038" 
d="M901 0h-727v1544h727v-92h-629v-543h629v-92h-629v-725h629v-92zM624 1806c0 -22 -8 -41.167 -24 -57.5s-35.333 -24.5 -58 -24.5c-22 0 -41 8.16699 -57 24.5s-24 35.5 -24 57.5c0 22.667 8 42 24 58s35 24 57 24c22.667 0 42 -8 58 -24s24 -35.333 24 -58z" />
    <glyph glyph-name="edot" unicode="&#x117;" horiz-adv-x="1044" 
d="M864 566c-6 94 -40.168 170 -102.501 228s-142.166 87 -239.499 87c-90.667 0 -168.167 -29.167 -232.5 -87.5s-100.833 -134.5 -109.5 -228.5zM962.999 479h-789.001c2 -132.667 33.333 -234.667 94 -306s145.334 -107 254.001 -107c77.333 0 143.666 17 198.999 51
s101 85.667 137 155l80 -41c-46.667 -86 -103.667 -149.333 -171 -190s-149 -61 -245 -61c-137.333 0 -245 44.667 -323 134s-117 211 -117 365c0 142.667 41.667 259.667 125 351s188.333 137 315 137c132.667 0 239.334 -41.667 320.001 -125s121 -195.333 121 -336v-27z
M603.998 1208c0 -22 -8 -41.167 -24 -57.5s-35.333 -24.5 -58 -24.5c-22 0 -41 8.16699 -57 24.5s-24 35.5 -24 57.5c0 22.667 8 42 24 58s35 24 57 24c22.667 0 42 -8 58 -24s24 -35.333 24 -58z" />
    <glyph glyph-name="Eogonek" unicode="&#x118;" horiz-adv-x="1038" 
d="M901 -451c-87.333 0 -151.833 15.168 -193.5 45.501s-62.5 76.833 -62.5 139.5c0 44 14.167 90.667 42.5 140s64.833 91.333 109.5 126h-623v1544h727v-92h-629v-543h629v-92h-629v-725h629v-92h-37c-36.667 -34 -68 -75 -94 -123s-39 -91 -39 -129
c0 -40.667 13.667 -70.334 41 -89.001s70.333 -28 129 -28v-82z" />
    <glyph glyph-name="eogonek" unicode="&#x119;" horiz-adv-x="1044" 
d="M864 566c-6 94 -40.168 170 -102.501 228s-142.166 87 -239.499 87c-90.667 0 -168.167 -29.167 -232.5 -87.5s-100.833 -134.5 -109.5 -228.5zM962.999 479l-789 0.000976562c2 -132.667 33.333 -234.667 94 -306s145.334 -107 254.001 -107
c77.333 0 143.666 17 198.999 51s101 85.667 137 155l80 -41c-35.333 -66.667 -77 -119.667 -125 -159s-104 -66 -168 -80c-35.333 -36 -65 -76.833 -89 -122.5s-36 -86.167 -36 -121.5c0 -40.667 13.667 -70.334 41 -89.001s70.333 -28 129 -28v-82
c-87.333 0 -151.833 15.167 -193.5 45.5s-62.5 76.833 -62.5 139.5c0 40.667 11.667 83.167 35 127.5s54.666 84.5 93.999 120.5c-4.66699 0 -11.5 -0.333008 -20.5 -1s-15.833 -1 -20.5 -1c-137.333 0 -245 44.667 -323 134s-117 211 -117 365
c0 142.667 41.667 259.667 125 351s188.333 137 315 137c132.667 0 239.334 -41.667 320.001 -125s121 -195.333 121 -336v-27z" />
    <glyph glyph-name="Ecaron" unicode="&#x11a;" horiz-adv-x="1038" 
d="M901 0h-727v1544h727v-92h-629v-543h629v-92h-629v-725h629v-92zM802 1946l-260 -322l-260 322l45 36l215 -235l215 235z" />
    <glyph glyph-name="ecaron" unicode="&#x11b;" horiz-adv-x="1044" 
d="M864 566c-6 94 -40.168 170 -102.501 228s-142.166 87 -239.499 87c-90.667 0 -168.167 -29.167 -232.5 -87.5s-100.833 -134.5 -109.5 -228.5zM962.999 479h-789.001c2 -132.667 33.333 -234.667 94 -306s145.334 -107 254.001 -107c77.333 0 143.666 17 198.999 51
s101 85.667 137 155l80 -41c-46.667 -86 -103.667 -149.333 -171 -190s-149 -61 -245 -61c-137.333 0 -245 44.667 -323 134s-117 211 -117 365c0 142.667 41.667 259.667 125 351s188.333 137 315 137c132.667 0 239.334 -41.667 320.001 -125s121 -195.333 121 -336v-27z
M781.998 1348l-260 -322l-260 322l45 36l215 -235l215 235z" />
    <glyph glyph-name="Gcircumflex" unicode="&#x11c;" horiz-adv-x="1688" 
d="M1602 756c0 -244 -65.502 -434.332 -196.502 -570.999s-312.833 -205 -545.5 -205c-230 0 -416.5 73.167 -559.5 219.5s-214.5 337.166 -214.5 572.499c0 231.333 71.333 421.333 214 570s325.334 223 548.001 223c147.333 0 270.5 -24.167 369.5 -72.5
s188.833 -128.166 269.5 -239.499l-74 -65c-66 95.333 -145.167 166.666 -237.5 213.999s-198.166 71 -317.499 71c-199.333 0 -361.5 -66.5 -486.5 -199.5s-187.5 -304.833 -187.5 -515.5c0 -196.667 64 -360.167 192 -490.5s288.667 -195.5 482 -195.5
c186.667 0 340.167 56 460.5 168s180.5 253.333 180.5 424h-549v92h652zM1104 1681l-45 -36l-215 235l-215 -235l-45 36l260 322z" />
    <glyph glyph-name="gcircumflex" unicode="&#x11d;" horiz-adv-x="1161" 
d="M901 475c0 124.667 -33.167 223.5 -99.5 296.5s-154.5 109.5 -264.5 109.5c-104.667 0 -189.667 -38.167 -255 -114.5s-98 -176.833 -98 -301.5c0 -122 33.167 -219 99.5 -291s154.833 -108 265.5 -108c107.333 0 192.833 37 256.5 111s95.5 173.333 95.5 298zM993 -49
c0 -174.667 -35.6689 -302.334 -107.002 -383.001s-183.666 -121 -336.999 -121c-116 0 -208.333 22.5 -277 67.5s-113.667 112.5 -135 202.5h99c16 -62.667 49.5 -109 100.5 -139s123.167 -45 216.5 -45c124 0 213 31.333 267 94s81 163.667 81 303v250
c-42.667 -68.667 -93.5 -119.167 -152.5 -151.5s-129.5 -48.5 -211.5 -48.5c-132 0 -239.167 44.333 -321.5 133s-123.5 205.334 -123.5 350.001c0 150 40.833 271.5 122.5 364.5s186.834 139.5 315.501 139.5c93.333 0 168.5 -15.5 225.5 -46.5s105.5 -82.5 145.5 -154.5
v180h92v-995zM840.998 1083l-45 -36l-215 235l-215 -235l-45 36l260 322z" />
    <glyph glyph-name="Gbreve" unicode="&#x11e;" horiz-adv-x="1688" 
d="M1602 756c0 -244 -65.502 -434.332 -196.502 -570.999s-312.833 -205 -545.5 -205c-230 0 -416.5 73.167 -559.5 219.5s-214.5 337.166 -214.5 572.499c0 231.333 71.333 421.333 214 570s325.334 223 548.001 223c147.333 0 270.5 -24.167 369.5 -72.5
s188.833 -128.166 269.5 -239.499l-74 -65c-66 95.333 -145.167 166.666 -237.5 213.999s-198.166 71 -317.499 71c-199.333 0 -361.5 -66.5 -486.5 -199.5s-187.5 -304.833 -187.5 -515.5c0 -196.667 64 -360.167 192 -490.5s288.667 -195.5 482 -195.5
c186.667 0 340.167 56 460.5 168s180.5 253.333 180.5 424h-549v92h652zM1118 1888c-14 -77.333 -43.833 -135.5 -89.5 -174.5s-107.5 -58.5 -185.5 -58.5s-139.833 19.5 -185.5 58.5s-75.167 97.167 -88.5 174.5l61 15c13.333 -56.667 37.333 -98.5 72 -125.5
s81.667 -40.5 141 -40.5s106.5 13.5 141.5 40.5s58.833 68.833 71.5 125.5z" />
    <glyph glyph-name="gbreve" unicode="&#x11f;" horiz-adv-x="1161" 
d="M901 475c0 124.667 -33.167 223.5 -99.5 296.5s-154.5 109.5 -264.5 109.5c-104.667 0 -189.667 -38.167 -255 -114.5s-98 -176.833 -98 -301.5c0 -122 33.167 -219 99.5 -291s154.833 -108 265.5 -108c107.333 0 192.833 37 256.5 111s95.5 173.333 95.5 298zM993 -49
c0 -174.667 -35.6689 -302.334 -107.002 -383.001s-183.666 -121 -336.999 -121c-116 0 -208.333 22.5 -277 67.5s-113.667 112.5 -135 202.5h99c16 -62.667 49.5 -109 100.5 -139s123.167 -45 216.5 -45c124 0 213 31.333 267 94s81 163.667 81 303v250
c-42.667 -68.667 -93.5 -119.167 -152.5 -151.5s-129.5 -48.5 -211.5 -48.5c-132 0 -239.167 44.333 -321.5 133s-123.5 205.334 -123.5 350.001c0 150 40.833 271.5 122.5 364.5s186.834 139.5 315.501 139.5c93.333 0 168.5 -15.5 225.5 -46.5s105.5 -82.5 145.5 -154.5
v180h92v-995zM855.998 1290c-14 -77.333 -43.833 -135.5 -89.5 -174.5s-107.5 -58.5 -185.5 -58.5s-139.833 19.5 -185.5 58.5s-75.167 97.167 -88.5 174.5l61 15c13.333 -56.667 37.333 -98.5 72 -125.5s81.667 -40.5 141 -40.5s106.5 13.5 141.5 40.5
s58.833 68.833 71.5 125.5z" />
    <glyph glyph-name="Gdot" unicode="&#x120;" horiz-adv-x="1688" 
d="M1602 756c0 -244 -65.502 -434.332 -196.502 -570.999s-312.833 -205 -545.5 -205c-230 0 -416.5 73.167 -559.5 219.5s-214.5 337.166 -214.5 572.499c0 231.333 71.333 421.333 214 570s325.334 223 548.001 223c147.333 0 270.5 -24.167 369.5 -72.5
s188.833 -128.166 269.5 -239.499l-74 -65c-66 95.333 -145.167 166.666 -237.5 213.999s-198.166 71 -317.499 71c-199.333 0 -361.5 -66.5 -486.5 -199.5s-187.5 -304.833 -187.5 -515.5c0 -196.667 64 -360.167 192 -490.5s288.667 -195.5 482 -195.5
c186.667 0 340.167 56 460.5 168s180.5 253.333 180.5 424h-549v92h652zM924.998 1806c0 -22 -8 -41.167 -24 -57.5s-35.333 -24.5 -58 -24.5c-22 0 -41 8.16699 -57 24.5s-24 35.5 -24 57.5c0 22.667 8 42 24 58s35 24 57 24c22.667 0 42 -8 58 -24s24 -35.333 24 -58z" />
    <glyph glyph-name="gdot" unicode="&#x121;" horiz-adv-x="1161" 
d="M901 475c0 124.667 -33.167 223.5 -99.5 296.5s-154.5 109.5 -264.5 109.5c-104.667 0 -189.667 -38.167 -255 -114.5s-98 -176.833 -98 -301.5c0 -122 33.167 -219 99.5 -291s154.833 -108 265.5 -108c107.333 0 192.833 37 256.5 111s95.5 173.333 95.5 298zM993 -49
c0 -174.667 -35.6689 -302.334 -107.002 -383.001s-183.666 -121 -336.999 -121c-116 0 -208.333 22.5 -277 67.5s-113.667 112.5 -135 202.5h99c16 -62.667 49.5 -109 100.5 -139s123.167 -45 216.5 -45c124 0 213 31.333 267 94s81 163.667 81 303v250
c-42.667 -68.667 -93.5 -119.167 -152.5 -151.5s-129.5 -48.5 -211.5 -48.5c-132 0 -239.167 44.333 -321.5 133s-123.5 205.334 -123.5 350.001c0 150 40.833 271.5 122.5 364.5s186.834 139.5 315.501 139.5c93.333 0 168.5 -15.5 225.5 -46.5s105.5 -82.5 145.5 -154.5
v180h92v-995zM660.998 1208c0 -22 -8 -41.167 -24 -57.5s-35.333 -24.5 -58 -24.5c-22 0 -41 8.16699 -57 24.5s-24 35.5 -24 57.5c0 22.667 8 42 24 58s35 24 57 24c22.667 0 42 -8 58 -24s24 -35.333 24 -58z" />
    <glyph glyph-name="Gcedilla" unicode="&#x122;" horiz-adv-x="1688" 
d="M1602 756c0 -244 -65.502 -434.332 -196.502 -570.999s-312.833 -205 -545.5 -205c-230 0 -416.5 73.167 -559.5 219.5s-214.5 337.166 -214.5 572.499c0 231.333 71.333 421.333 214 570s325.334 223 548.001 223c147.333 0 270.5 -24.167 369.5 -72.5
s188.833 -128.166 269.5 -239.499l-74 -65c-66 95.333 -145.167 166.666 -237.5 213.999s-198.166 71 -317.499 71c-199.333 0 -361.5 -66.5 -486.5 -199.5s-187.5 -304.833 -187.5 -515.5c0 -196.667 64 -360.167 192 -490.5s288.667 -195.5 482 -195.5
c186.667 0 340.167 56 460.5 168s180.5 253.333 180.5 424h-549v92h652zM982.998 -62.999l-186 -318l-59 33l172 323z" />
    <glyph glyph-name="gcedilla" unicode="&#x123;" horiz-adv-x="1161" 
d="M901 475c0 124.667 -33.167 223.5 -99.5 296.5s-154.5 109.5 -264.5 109.5c-104.667 0 -189.667 -38.167 -255 -114.5s-98 -176.833 -98 -301.5c0 -122 33.167 -219 99.5 -291s154.833 -108 265.5 -108c107.333 0 192.833 37 256.5 111s95.5 173.333 95.5 298zM993 -49
c0 -174.667 -35.6689 -302.334 -107.002 -383.001s-183.666 -121 -336.999 -121c-116 0 -208.333 22.5 -277 67.5s-113.667 112.5 -135 202.5h99c16 -62.667 49.5 -109 100.5 -139s123.167 -45 216.5 -45c124 0 213 31.333 267 94s81 163.667 81 303v250
c-42.667 -68.667 -93.5 -119.167 -152.5 -151.5s-129.5 -48.5 -211.5 -48.5c-132 0 -239.167 44.333 -321.5 133s-123.5 205.334 -123.5 350.001c0 150 40.833 271.5 122.5 364.5s186.834 139.5 315.501 139.5c93.333 0 168.5 -15.5 225.5 -46.5s105.5 -82.5 145.5 -154.5
v180h92v-995zM769.998 1356l-236 -309l-53 40l223 318z" />
    <glyph glyph-name="Hcircumflex" unicode="&#x124;" horiz-adv-x="1466" 
d="M1292 0h-98v811h-922v-811h-98v1544h98v-641h922v641h98v-1544zM993 1681l-45 -36l-215 235l-215 -235l-45 36l260 322z" />
    <glyph glyph-name="hcircumflex" unicode="&#x125;" horiz-adv-x="1004" 
d="M850 0l-92.001 -0.000976562v588c0 102.667 -18.167 177.167 -54.5 223.5s-95.5 69.5 -177.5 69.5c-96.667 0 -167.5 -34 -212.5 -102s-67.5 -176 -67.5 -324v-455h-92v1690h92v-902c31.333 67.333 69.833 114 115.5 140s108.834 39 189.501 39
c92.667 0 165.667 -30.167 219 -90.5s80 -144.166 80 -251.499v-625zM468.999 1806l-45 -36l-215 235l-215 -235l-45 36l260 322z" />
    <glyph glyph-name="Itilde" unicode="&#x128;" horiz-adv-x="430" 
d="M264 0h-98v1544h98v-1544zM547 1833c-24 -46.667 -50.8311 -80.833 -80.498 -102.5s-65.5 -32.5 -107.5 -32.5c-21.333 0 -43.833 4.33301 -67.5 13s-51.167 22.667 -82.5 42c-38.667 24.667 -67.834 41.167 -87.501 49.5s-37.5 12.5 -53.5 12.5
c-30.667 0 -56 -6 -76 -18s-38.333 -35 -55 -69l-51 31c24 46.667 50.5 80.5 79.5 101.5s64.5 31.5 106.5 31.5c22 0 45.167 -4.33301 69.5 -13s51.833 -22.667 82.5 -42c40.667 -26 70.167 -42.667 88.5 -50s35.166 -11 50.499 -11c31.333 0 57.333 6.16699 78 18.5
s39 34.833 55 67.5z" />
    <glyph glyph-name="itilde" unicode="&#x129;" horiz-adv-x="479" 
d="M287 0h-92v946h92v-946zM571 1235c-24 -46.667 -50.8311 -80.833 -80.498 -102.5s-65.5 -32.5 -107.5 -32.5c-21.333 0 -43.833 4.33301 -67.5 13s-51.167 22.667 -82.5 42c-38.667 24.667 -67.834 41.167 -87.501 49.5s-37.5 12.5 -53.5 12.5c-30.667 0 -56 -6 -76 -18
s-38.333 -35 -55 -69l-51 31c24 46.667 50.5 80.5 79.5 101.5s64.5 31.5 106.5 31.5c22 0 45.167 -4.33301 69.5 -13s51.833 -22.667 82.5 -42c40.667 -26 70.167 -42.667 88.5 -50s35.166 -11 50.499 -11c31.333 0 57.333 6.16699 78 18.5s39 34.833 55 67.5z" />
    <glyph glyph-name="Imacron" unicode="&#x12a;" horiz-adv-x="430" 
d="M264 0h-98v1544h98v-1544zM481 1751h-532v82h532v-82z" />
    <glyph glyph-name="imacron" unicode="&#x12b;" horiz-adv-x="479" 
d="M287 0h-92v946h92v-946zM506 1153h-532v82h532v-82z" />
    <glyph glyph-name="Ibreve" unicode="&#x12c;" horiz-adv-x="430" 
d="M264 0h-98v1544h98v-1544zM490 1888c-14 -77.333 -43.833 -135.5 -89.5 -174.5s-107.5 -58.5 -185.5 -58.5s-139.833 19.5 -185.5 58.5s-75.167 97.167 -88.5 174.5l61 15c13.333 -56.667 37.333 -98.5 72 -125.5s81.667 -40.5 141 -40.5s106.5 13.5 141.5 40.5
s58.833 68.833 71.5 125.5z" />
    <glyph glyph-name="ibreve" unicode="&#x12d;" horiz-adv-x="479" 
d="M287 0h-92v946h92v-946zM514 1290c-14 -77.333 -43.833 -135.5 -89.5 -174.5s-107.5 -58.5 -185.5 -58.5s-139.833 19.5 -185.5 58.5s-75.167 97.167 -88.5 174.5l61 15c13.333 -56.667 37.333 -98.5 72 -125.5s81.667 -40.5 141 -40.5s106.5 13.5 141.5 40.5
s58.833 68.833 71.5 125.5z" />
    <glyph glyph-name="Iogonek" unicode="&#x12e;" horiz-adv-x="430" 
d="M301 -451c-87.333 0 -151.833 15.168 -193.5 45.501s-62.5 76.833 -62.5 139.5c0 44 14.167 90.667 42.5 140s64.833 91.333 109.5 126h-31v1544h98v-1544c-36.667 -34 -68 -75 -94 -123s-39 -91 -39 -129c0 -40.667 13.667 -70.334 41 -89.001s70.333 -28 129 -28v-82z
" />
    <glyph glyph-name="iogonek" unicode="&#x12f;" horiz-adv-x="479" 
d="M324 -451c-87.333 0 -151.833 15.168 -193.5 45.501s-62.5 76.833 -62.5 139.5c0 44 14.167 90.667 42.5 140s64.5 91.333 108.5 126h-24v946h92v-946c-37.333 -34 -68.833 -75 -94.5 -123s-38.5 -91 -38.5 -129c0 -40.667 13.5 -70.334 40.5 -89.001
s70.167 -28 129.5 -28v-82zM322 1290c0 -22.667 -8.16699 -42 -24.5 -58s-35.5 -24 -57.5 -24c-22.667 0 -42 8 -58 24s-24 35.333 -24 58s8 42 24 58s35.333 24 58 24c22 0 41.167 -8 57.5 -24s24.5 -35.333 24.5 -58z" />
    <glyph glyph-name="Idotaccent" unicode="&#x130;" horiz-adv-x="430" 
d="M264 0h-98v1544h98v-1544zM297 1806c0 -22 -8 -41.167 -24 -57.5s-35.333 -24.5 -58 -24.5c-22 0 -41 8.16699 -57 24.5s-24 35.5 -24 57.5c0 22.667 8 42 24 58s35 24 57 24c22.667 0 42 -8 58 -24s24 -35.333 24 -58z" />
    <glyph glyph-name="dotlessi" unicode="&#x131;" horiz-adv-x="479" 
d="M287 0h-92v946h92v-946z" />
    <glyph glyph-name="Kcedilla" unicode="&#x136;" horiz-adv-x="1165" 
d="M1178 0h-142l-764 795v-795h-98v1544h98v-733l744 733h127l-754 -737zM700 -63l-186 -318l-60 33l172 323z" />
    <glyph glyph-name="kcedilla" unicode="&#x137;" horiz-adv-x="874" 
d="M874 0h-131l-497 496v-496h-92v1690h92v-1168l463 424h120l-477 -434zM555 -63l-186 -318l-60 33l172 323z" />
    <glyph glyph-name="Lacute" unicode="&#x139;" horiz-adv-x="670" 
d="M649 0h-475v1544h98v-1452h377v-92zM426 1954l-236 -309l-53 40l223 318z" />
    <glyph glyph-name="lacute" unicode="&#x13a;" horiz-adv-x="408" 
d="M250 0h-92v1690h92v-1690zM393 2079l-236 -309l-53 40l223 318z" />
    <glyph glyph-name="Lcedilla" unicode="&#x13b;" horiz-adv-x="670" 
d="M649 0h-475v1544h98v-1452h377v-92zM453 -63l-186 -318l-60 33l172 323z" />
    <glyph glyph-name="lcedilla" unicode="&#x13c;" horiz-adv-x="408" 
d="M250 0h-92v1690h92v-1690zM322 -63l-186 -318l-60 33l172 323z" />
    <glyph glyph-name="Lcaron" unicode="&#x13d;" horiz-adv-x="670" 
d="M649 0h-475v1544h98v-1452h377v-92zM692 1524l-225 -467l-55 22l190 486z" />
    <glyph glyph-name="lcaron" unicode="&#x13e;" horiz-adv-x="670" 
d="M250 0h-92v1690h92v-1690zM670 1524l-226 -467l-55 24l191 484z" />
    <glyph glyph-name="Ldot" unicode="&#x13f;" horiz-adv-x="1305" 
d="M649 0h-475v1544h98v-1452h377v-92zM1076 784c0 -24 -8.66699 -44.667 -26 -62s-38.333 -26 -63 -26c-24 0 -44.667 8.66699 -62 26s-26 38 -26 62c0 24.667 8.66699 45.5 26 62.5s38 25.5 62 25.5c24.667 0 45.667 -8.5 63 -25.5s26 -37.833 26 -62.5z" />
    <glyph glyph-name="ldot" unicode="&#x140;" horiz-adv-x="1042" 
d="M250 0h-92v1690h92v-1690zM814 784c0 -24 -8.66699 -44.667 -26 -62s-38.333 -26 -63 -26c-24 0 -44.667 8.66699 -62 26s-26 38 -26 62c0 24.667 8.66699 45.5 26 62.5s38 25.5 62 25.5c24.667 0 45.667 -8.5 63 -25.5s26 -37.833 26 -62.5z" />
    <glyph glyph-name="Lslash" unicode="&#x141;" horiz-adv-x="670" 
d="M649 0h-475v729l-174 -131v100l174 131v715h98v-661l246 184v-100l-246 -185v-690h377v-92z" />
    <glyph glyph-name="lslash" unicode="&#x142;" horiz-adv-x="469" 
d="M469 864l-188 -121v-743h-93v702l-188 -120v102l188 121v885h93v-844l188 121v-103z" />
    <glyph glyph-name="Nacute" unicode="&#x143;" horiz-adv-x="1726" 
d="M1542 -37l-1259 1364v-1327h-99v1581l1260 -1362v1325h98v-1581zM1053 1954l-236 -309l-53 40l223 318z" />
    <glyph glyph-name="nacute" unicode="&#x144;" horiz-adv-x="1004" 
d="M850 0l-91.999 0.000976562v588c0 102.667 -18.167 177.167 -54.5 223.5s-95.5 69.5 -177.5 69.5c-96.667 0 -167.5 -34 -212.5 -102s-67.5 -176 -67.5 -324v-455h-92v946h92v-158c30 62.667 69 108.167 117 136.5s109.333 42.5 184 42.5
c93.333 0 167.166 -30.333 221.499 -91s81.5 -144.334 81.5 -251.001v-625zM692.001 1356l-236 -309l-53 40l223 318z" />
    <glyph glyph-name="Ncedilla" unicode="&#x145;" horiz-adv-x="1726" 
d="M1542 -37l-1259 1364v-1327h-99v1581l1260 -1362v1325h98v-1581zM981 -63l-186 -318l-60 33l172 323z" />
    <glyph glyph-name="ncedilla" unicode="&#x146;" horiz-adv-x="1004" 
d="M850 0l-91.999 0.000976562v588c0 102.667 -18.167 177.167 -54.5 223.5s-95.5 69.5 -177.5 69.5c-96.667 0 -167.5 -34 -212.5 -102s-67.5 -176 -67.5 -324v-455h-92v946h92v-158c30 62.667 69 108.167 117 136.5s109.333 42.5 184 42.5
c93.333 0 167.166 -30.333 221.499 -91s81.5 -144.334 81.5 -251.001v-625zM621.001 -62.999l-186 -318l-60 33l172 323z" />
    <glyph glyph-name="Ncaron" unicode="&#x147;" horiz-adv-x="1726" 
d="M1542 -37l-1259 1364v-1327h-99v1581l1260 -1362v1325h98v-1581zM1124 1946l-260 -322l-260 322l45 36l215 -235l215 235z" />
    <glyph glyph-name="ncaron" unicode="&#x148;" horiz-adv-x="1004" 
d="M850 0l-91.999 0.000976562v588c0 102.667 -18.167 177.167 -54.5 223.5s-95.5 69.5 -177.5 69.5c-96.667 0 -167.5 -34 -212.5 -102s-67.5 -176 -67.5 -324v-455h-92v946h92v-158c30 62.667 69 108.167 117 136.5s109.333 42.5 184 42.5
c93.333 0 167.166 -30.333 221.499 -91s81.5 -144.334 81.5 -251.001v-625zM762.001 1348l-260 -322l-260 322l45 36l215 -235l215 235z" />
    <glyph glyph-name="Omacron" unicode="&#x14c;" horiz-adv-x="1749" 
d="M1573 772c0 196.667 -67.8311 362.667 -203.498 498s-301.5 203 -497.5 203c-194.667 0 -359.334 -67.667 -494.001 -203s-202 -301.333 -202 -498s67.167 -362.5 201.5 -497.5s299.166 -202.5 494.499 -202.5c196 0 361.833 67.667 497.5 203s203.5 301 203.5 497z
M1671 772c0 -220.667 -77.667 -407.834 -233 -561.501s-344 -230.5 -566 -230.5c-220 0 -407.333 76.833 -562 230.5s-232 340.834 -232 561.501c0 225.333 76 413.833 228 565.5s340.667 227.5 566 227.5c226 0 415.667 -75.833 569 -227.5s230 -340.167 230 -565.5z
M1141 1751h-532v82h532v-82z" />
    <glyph glyph-name="omacron" unicode="&#x14d;" horiz-adv-x="1120" 
d="M958 475c0 114.667 -38.168 211 -114.501 289s-170.5 117 -282.5 117s-206.5 -38.833 -283.5 -116.5s-115.5 -174.167 -115.5 -289.5c0 -114.667 38.833 -211.5 116.5 -290.5s171.834 -118.5 282.501 -118.5s204.5 39.5 281.5 118.5s115.5 175.833 115.5 290.5zM1051 477
c0 -138 -48 -255.333 -144 -352s-212.667 -145 -350 -145c-134.667 0 -249.5 48.333 -344.5 145s-142.5 214 -142.5 352c0 137.333 47.167 253.333 141.5 348s209.5 142 345.5 142c139.333 0 256.5 -47.167 351.5 -141.5s142.5 -210.5 142.5 -348.5zM826.999 1153h-532v82
h532v-82z" />
    <glyph glyph-name="Obreve" unicode="&#x14e;" horiz-adv-x="1749" 
d="M1573 772c0 196.667 -67.8311 362.667 -203.498 498s-301.5 203 -497.5 203c-194.667 0 -359.334 -67.667 -494.001 -203s-202 -301.333 -202 -498s67.167 -362.5 201.5 -497.5s299.166 -202.5 494.499 -202.5c196 0 361.833 67.667 497.5 203s203.5 301 203.5 497z
M1671 772c0 -220.667 -77.667 -407.834 -233 -561.501s-344 -230.5 -566 -230.5c-220 0 -407.333 76.833 -562 230.5s-232 340.834 -232 561.501c0 225.333 76 413.833 228 565.5s340.667 227.5 566 227.5c226 0 415.667 -75.833 569 -227.5s230 -340.167 230 -565.5z
M1149 1888c-14 -77.333 -43.833 -135.5 -89.5 -174.5s-107.5 -58.5 -185.5 -58.5s-139.833 19.5 -185.5 58.5s-75.167 97.167 -88.5 174.5l61 15c13.333 -56.667 37.333 -98.5 72 -125.5s81.667 -40.5 141 -40.5s106.5 13.5 141.5 40.5s58.833 68.833 71.5 125.5z" />
    <glyph glyph-name="obreve" unicode="&#x14f;" horiz-adv-x="1120" 
d="M958 475c0 114.667 -38.168 211 -114.501 289s-170.5 117 -282.5 117s-206.5 -38.833 -283.5 -116.5s-115.5 -174.167 -115.5 -289.5c0 -114.667 38.833 -211.5 116.5 -290.5s171.834 -118.5 282.501 -118.5s204.5 39.5 281.5 118.5s115.5 175.833 115.5 290.5zM1051 477
c0 -138 -48 -255.333 -144 -352s-212.667 -145 -350 -145c-134.667 0 -249.5 48.333 -344.5 145s-142.5 214 -142.5 352c0 137.333 47.167 253.333 141.5 348s209.5 142 345.5 142c139.333 0 256.5 -47.167 351.5 -141.5s142.5 -210.5 142.5 -348.5zM835.999 1290
c-14 -77.333 -43.833 -135.5 -89.5 -174.5s-107.5 -58.5 -185.5 -58.5s-139.833 19.5 -185.5 58.5s-75.167 97.167 -88.5 174.5l61 15c13.333 -56.667 37.333 -98.5 72 -125.5s81.667 -40.5 141 -40.5s106.5 13.5 141.5 40.5s58.833 68.833 71.5 125.5z" />
    <glyph glyph-name="Odblacute" unicode="&#x150;" horiz-adv-x="1749" 
d="M1573 772c0 196.667 -67.8311 362.667 -203.498 498s-301.5 203 -497.5 203c-194.667 0 -359.334 -67.667 -494.001 -203s-202 -301.333 -202 -498s67.167 -362.5 201.5 -497.5s299.166 -202.5 494.499 -202.5c196 0 361.833 67.667 497.5 203s203.5 301 203.5 497z
M1671 772c0 -220.667 -77.667 -407.834 -233 -561.501s-344 -230.5 -566 -230.5c-220 0 -407.333 76.833 -562 230.5s-232 340.834 -232 561.501c0 225.333 76 413.833 228 565.5s340.667 227.5 566 227.5c226 0 415.667 -75.833 569 -227.5s230 -340.167 230 -565.5z
M973.002 1958l-229 -313l-50 36l220 322zM1188 1958l-229 -313l-49 36l219 322z" />
    <glyph glyph-name="odblacute" unicode="&#x151;" horiz-adv-x="1120" 
d="M958 475c0 114.667 -38.168 211 -114.501 289s-170.5 117 -282.5 117s-206.5 -38.833 -283.5 -116.5s-115.5 -174.167 -115.5 -289.5c0 -114.667 38.833 -211.5 116.5 -290.5s171.834 -118.5 282.501 -118.5s204.5 39.5 281.5 118.5s115.5 175.833 115.5 290.5zM1051 477
c0 -138 -48 -255.333 -144 -352s-212.667 -145 -350 -145c-134.667 0 -249.5 48.333 -344.5 145s-142.5 214 -142.5 352c0 137.333 47.167 253.333 141.5 348s209.5 142 345.5 142c139.333 0 256.5 -47.167 351.5 -141.5s142.5 -210.5 142.5 -348.5zM658.999 1360l-229 -313
l-50 36l220 322zM873.999 1360l-229 -313l-49 36l219 322z" />
    <glyph glyph-name="OE" unicode="&#x152;" horiz-adv-x="2443" 
d="M1579 772c0 196 -68 361.833 -204 497.5s-302 203.5 -498 203.5s-361.833 -67.667 -497.5 -203s-203.5 -301.333 -203.5 -498c0 -196 67.833 -361.667 203.5 -497s301.5 -203 497.5 -203s362 67.667 498 203s204 301 204 497zM2306 0h-726.999v420
c-64.667 -135.333 -159.834 -242.5 -285.501 -321.5s-264.5 -118.5 -416.5 -118.5c-221.333 0 -409.833 77 -565.5 231s-233.5 341 -233.5 561c0 225.333 76.667 413.833 230 565.5s343 227.5 569 227.5c155.333 0 295.333 -38.5 420 -115.5s218.667 -182.5 282 -316.5v411
h727v-92h-629v-543h629v-92h-629v-725h629v-92z" />
    <glyph glyph-name="oe" unicode="&#x153;" horiz-adv-x="1935" 
d="M971 475c0 114.667 -38.334 211 -115.001 289s-171 117 -283 117s-206.5 -38.833 -283.5 -116.5s-115.5 -174.167 -115.5 -289.5c0 -114.667 38.833 -211.5 116.5 -290.5s171.834 -118.5 282.501 -118.5s204.667 39.5 282 118.5s116 175.833 116 290.5zM1755 566
c-6 94 -40.168 170 -102.501 228s-142.166 87 -239.499 87c-90.667 0 -168.5 -30.167 -233.5 -90.5s-101.833 -135.5 -110.5 -225.5zM1853 479h-789.999c2 -132 33.5 -233.833 94.5 -305.5s146.167 -107.5 255.5 -107.5c77.333 0 143.5 17 198.5 51
s100.833 85.667 137.5 155l80 -41c-46.667 -86 -103.667 -149.333 -171 -190s-149 -61 -245 -61c-100 0 -184.667 25.667 -254 77s-119 124.333 -149 219c-38.667 -90 -97.667 -161.833 -177 -215.5s-167.333 -80.5 -264 -80.5c-134.667 0 -249.5 48.333 -344.5 145
s-142.5 214 -142.5 352c0 137.333 47.167 253.333 141.5 348s209.5 142 345.5 142c99.333 0 188.833 -26.667 268.5 -80s138.5 -125 176.5 -215c32 90.667 83.667 162.5 155 215.5s152.666 79.5 243.999 79.5c132.667 0 239.167 -41.667 319.5 -125
s120.5 -195.333 120.5 -336v-27z" />
    <glyph glyph-name="Racute" unicode="&#x154;" horiz-adv-x="999" 
d="M795 1141c0 104 -32.833 181.833 -98.5 233.5s-164.834 77.5 -297.501 77.5h-127v-598h127c136.667 0 236.834 23 300.501 69s95.5 118.667 95.5 218zM969 0h-122.999l-539 762h-35v-762h-98v1544h227c159.333 0 281.166 -35.333 365.499 -106s126.5 -171 126.5 -301
c0 -118 -41.167 -210 -123.5 -276s-198.833 -99 -349.5 -99zM690.001 1954l-236 -309l-53 40l223 318z" />
    <glyph glyph-name="racute" unicode="&#x155;" horiz-adv-x="569" 
d="M586 946l-31.001 -86c-9.33301 6.66699 -21 11.834 -35 15.501s-28.333 5.5 -43 5.5c-76 0 -131.833 -38.5 -167.5 -115.5s-53.5 -195.5 -53.5 -355.5v-410h-92v946h92v-151c22 60.667 52 104.5 90 131.5s88 40.5 150 40.5c16.667 0 32.834 -1.83301 48.501 -5.5
s29.5 -8.83398 41.5 -15.501zM474.999 1356l-236 -309l-53 40l223 318z" />
    <glyph glyph-name="Rcedilla" unicode="&#x156;" horiz-adv-x="999" 
d="M795 1141c0 104 -32.833 181.833 -98.5 233.5s-164.834 77.5 -297.501 77.5h-127v-598h127c136.667 0 236.834 23 300.501 69s95.5 118.667 95.5 218zM969 0h-122.999l-539 762h-35v-762h-98v1544h227c159.333 0 281.166 -35.333 365.499 -106s126.5 -171 126.5 -301
c0 -118 -41.167 -210 -123.5 -276s-198.833 -99 -349.5 -99zM619.001 -63l-186 -318l-60 33l172 323z" />
    <glyph glyph-name="rcedilla" unicode="&#x157;" horiz-adv-x="569" 
d="M586 946l-31.001 -86c-9.33301 6.66699 -21 11.834 -35 15.501s-28.333 5.5 -43 5.5c-76 0 -131.833 -38.5 -167.5 -115.5s-53.5 -195.5 -53.5 -355.5v-410h-92v946h92v-151c22 60.667 52 104.5 90 131.5s88 40.5 150 40.5c16.667 0 32.834 -1.83301 48.501 -5.5
s29.5 -8.83398 41.5 -15.501zM341.999 -63l-186 -318l-60 33l172 323z" />
    <glyph glyph-name="Rcaron" unicode="&#x158;" horiz-adv-x="999" 
d="M795 1141c0 104 -32.833 181.833 -98.5 233.5s-164.834 77.5 -297.501 77.5h-127v-598h127c136.667 0 236.834 23 300.501 69s95.5 118.667 95.5 218zM969 0h-122.999l-539 762h-35v-762h-98v1544h227c159.333 0 281.166 -35.333 365.499 -106s126.5 -171 126.5 -301
c0 -118 -41.167 -210 -123.5 -276s-198.833 -99 -349.5 -99zM759.001 1946l-260 -322l-260 322l45 36l215 -235l215 235z" />
    <glyph glyph-name="rcaron" unicode="&#x159;" horiz-adv-x="569" 
d="M586 946l-31.001 -86c-9.33301 6.66699 -21 11.834 -35 15.501s-28.333 5.5 -43 5.5c-76 0 -131.833 -38.5 -167.5 -115.5s-53.5 -195.5 -53.5 -355.5v-410h-92v946h92v-151c22 60.667 52 104.5 90 131.5s88 40.5 150 40.5c16.667 0 32.834 -1.83301 48.501 -5.5
s29.5 -8.83398 41.5 -15.501zM543.999 1348l-260 -322l-260 322l45 36l215 -235l215 235z" />
    <glyph glyph-name="Sacute" unicode="&#x15a;" horiz-adv-x="1114" 
d="M975 412c0 -131.333 -42.335 -236.163 -127.002 -314.496s-196.667 -117.5 -336 -117.5c-97.333 0 -182.333 24.5 -255 73.5s-125.667 117.833 -159 206.5l84 43c26.667 -72.667 69.834 -129.334 129.501 -170.001s129.167 -61 208.5 -61
c110.667 0 197.834 30.167 261.501 90.5s95.5 143.5 95.5 249.5c0 79.333 -25.667 148 -77 206s-135.666 114.667 -252.999 170c-146 68 -246.667 131.667 -302 191s-83 138.666 -83 237.999c0 103.333 35.833 187.166 107.5 251.499s165.5 96.5 281.5 96.5
c70.667 0 132.667 -14.167 186 -42.5s97.666 -70.833 132.999 -127.5l-77 -56c-26.667 43.333 -61.667 76.5 -105 99.5s-92.333 34.5 -147 34.5c-87.333 0 -156 -23 -206 -69s-75 -109.333 -75 -190c0 -64 16.333 -116.833 49 -158.5s90.667 -84.834 174 -129.501
c22 -12 55.333 -29 100 -51c261.333 -128.667 392 -283 392 -463zM747.998 1954l-236 -309l-53 40l223 318z" />
    <glyph glyph-name="sacute" unicode="&#x15b;" horiz-adv-x="768" 
d="M686 248c0 -82 -29.6699 -147.163 -89.0029 -195.496s-140.333 -72.5 -243 -72.5c-74.667 0 -139.5 15.667 -194.5 47s-95.167 75.666 -120.5 132.999l84 47c22.667 -48.667 53.834 -84.334 93.501 -107.001s90.5 -34 152.5 -34c66 0 120 15.667 162 47s63 73 63 125
c0 56.667 -16.667 99 -50 127s-99.333 59.333 -198 94c-79.333 28 -140.166 64.5 -182.499 109.5s-63.5 97.167 -63.5 156.5c0 74 24.167 132.833 72.5 176.5s115.166 65.5 200.499 65.5c62 0 114.167 -13.333 156.5 -40s76.833 -67.334 103.5 -122.001l-84 -45
c-19.333 42 -43.666 72.667 -72.999 92s-66.333 29 -111 29c-52 0 -93.667 -14.333 -125 -43s-47 -66.334 -47 -113.001c0 -41.333 15.333 -77.333 46 -108s77.334 -56 140.001 -76c112.667 -37.333 192 -77.5 238 -120.5s69 -100.5 69 -172.5zM572.997 1356l-236 -309
l-53 40l223 318z" />
    <glyph glyph-name="Scircumflex" unicode="&#x15c;" horiz-adv-x="1114" 
d="M975 412c0 -131.333 -42.335 -236.163 -127.002 -314.496s-196.667 -117.5 -336 -117.5c-97.333 0 -182.333 24.5 -255 73.5s-125.667 117.833 -159 206.5l84 43c26.667 -72.667 69.834 -129.334 129.501 -170.001s129.167 -61 208.5 -61
c110.667 0 197.834 30.167 261.501 90.5s95.5 143.5 95.5 249.5c0 79.333 -25.667 148 -77 206s-135.666 114.667 -252.999 170c-146 68 -246.667 131.667 -302 191s-83 138.666 -83 237.999c0 103.333 35.833 187.166 107.5 251.499s165.5 96.5 281.5 96.5
c70.667 0 132.667 -14.167 186 -42.5s97.666 -70.833 132.999 -127.5l-77 -56c-26.667 43.333 -61.667 76.5 -105 99.5s-92.333 34.5 -147 34.5c-87.333 0 -156 -23 -206 -69s-75 -109.333 -75 -190c0 -64 16.333 -116.833 49 -158.5s90.667 -84.834 174 -129.501
c22 -12 55.333 -29 100 -51c261.333 -128.667 392 -283 392 -463zM816.998 1681l-45 -36l-215 235l-215 -235l-45 36l260 322z" />
    <glyph glyph-name="scircumflex" unicode="&#x15d;" horiz-adv-x="768" 
d="M686 248c0 -82 -29.6699 -147.163 -89.0029 -195.496s-140.333 -72.5 -243 -72.5c-74.667 0 -139.5 15.667 -194.5 47s-95.167 75.666 -120.5 132.999l84 47c22.667 -48.667 53.834 -84.334 93.501 -107.001s90.5 -34 152.5 -34c66 0 120 15.667 162 47s63 73 63 125
c0 56.667 -16.667 99 -50 127s-99.333 59.333 -198 94c-79.333 28 -140.166 64.5 -182.499 109.5s-63.5 97.167 -63.5 156.5c0 74 24.167 132.833 72.5 176.5s115.166 65.5 200.499 65.5c62 0 114.167 -13.333 156.5 -40s76.833 -67.334 103.5 -122.001l-84 -45
c-19.333 42 -43.666 72.667 -72.999 92s-66.333 29 -111 29c-52 0 -93.667 -14.333 -125 -43s-47 -66.334 -47 -113.001c0 -41.333 15.333 -77.333 46 -108s77.334 -56 140.001 -76c112.667 -37.333 192 -77.5 238 -120.5s69 -100.5 69 -172.5zM644.997 1083l-45 -36
l-215 235l-215 -235l-45 36l260 322z" />
    <glyph glyph-name="Scedilla" unicode="&#x15e;" horiz-adv-x="1114" 
d="M975 412c0 -131.333 -42.335 -236.163 -127.002 -314.496s-196.667 -117.5 -336 -117.5c-97.333 0 -182.333 24.5 -255 73.5s-125.667 117.833 -159 206.5l84 43c26.667 -72.667 69.834 -129.334 129.501 -170.001s129.167 -61 208.5 -61
c110.667 0 197.834 30.167 261.501 90.5s95.5 143.5 95.5 249.5c0 79.333 -25.667 148 -77 206s-135.666 114.667 -252.999 170c-146 68 -246.667 131.667 -302 191s-83 138.666 -83 237.999c0 103.333 35.833 187.166 107.5 251.499s165.5 96.5 281.5 96.5
c70.667 0 132.667 -14.167 186 -42.5s97.666 -70.833 132.999 -127.5l-77 -56c-26.667 43.333 -61.667 76.5 -105 99.5s-92.333 34.5 -147 34.5c-87.333 0 -156 -23 -206 -69s-75 -109.333 -75 -190c0 -64 16.333 -116.833 49 -158.5s90.667 -84.834 174 -129.501
c22 -12 55.333 -29 100 -51c261.333 -128.667 392 -283 392 -463zM695.998 -62.9971l-186 -318l-59 33l172 323z" />
    <glyph glyph-name="scedilla" unicode="&#x15f;" horiz-adv-x="768" 
d="M686 248c0 -82 -29.6699 -147.163 -89.0029 -195.496s-140.333 -72.5 -243 -72.5c-74.667 0 -139.5 15.667 -194.5 47s-95.167 75.666 -120.5 132.999l84 47c22.667 -48.667 53.834 -84.334 93.501 -107.001s90.5 -34 152.5 -34c66 0 120 15.667 162 47s63 73 63 125
c0 56.667 -16.667 99 -50 127s-99.333 59.333 -198 94c-79.333 28 -140.166 64.5 -182.499 109.5s-63.5 97.167 -63.5 156.5c0 74 24.167 132.833 72.5 176.5s115.166 65.5 200.499 65.5c62 0 114.167 -13.333 156.5 -40s76.833 -67.334 103.5 -122.001l-84 -45
c-19.333 42 -43.666 72.667 -72.999 92s-66.333 29 -111 29c-52 0 -93.667 -14.333 -125 -43s-47 -66.334 -47 -113.001c0 -41.333 15.333 -77.333 46 -108s77.334 -56 140.001 -76c112.667 -37.333 192 -77.5 238 -120.5s69 -100.5 69 -172.5zM521.997 -62.9961l-186 -318
l-59 33l172 323z" />
    <glyph glyph-name="Scaron" unicode="&#x160;" horiz-adv-x="1114" 
d="M975 412c0 -131.333 -42.335 -236.163 -127.002 -314.496s-196.667 -117.5 -336 -117.5c-97.333 0 -182.333 24.5 -255 73.5s-125.667 117.833 -159 206.5l84 43c26.667 -72.667 69.834 -129.334 129.501 -170.001s129.167 -61 208.5 -61
c110.667 0 197.834 30.167 261.501 90.5s95.5 143.5 95.5 249.5c0 79.333 -25.667 148 -77 206s-135.666 114.667 -252.999 170c-146 68 -246.667 131.667 -302 191s-83 138.666 -83 237.999c0 103.333 35.833 187.166 107.5 251.499s165.5 96.5 281.5 96.5
c70.667 0 132.667 -14.167 186 -42.5s97.666 -70.833 132.999 -127.5l-77 -56c-26.667 43.333 -61.667 76.5 -105 99.5s-92.333 34.5 -147 34.5c-87.333 0 -156 -23 -206 -69s-75 -109.333 -75 -190c0 -64 16.333 -116.833 49 -158.5s90.667 -84.834 174 -129.501
c22 -12 55.333 -29 100 -51c261.333 -128.667 392 -283 392 -463zM816.998 1946l-260 -322l-260 322l45 36l215 -235l215 235z" />
    <glyph glyph-name="scaron" unicode="&#x161;" horiz-adv-x="768" 
d="M686 248c0 -82 -29.6699 -147.163 -89.0029 -195.496s-140.333 -72.5 -243 -72.5c-74.667 0 -139.5 15.667 -194.5 47s-95.167 75.666 -120.5 132.999l84 47c22.667 -48.667 53.834 -84.334 93.501 -107.001s90.5 -34 152.5 -34c66 0 120 15.667 162 47s63 73 63 125
c0 56.667 -16.667 99 -50 127s-99.333 59.333 -198 94c-79.333 28 -140.166 64.5 -182.499 109.5s-63.5 97.167 -63.5 156.5c0 74 24.167 132.833 72.5 176.5s115.166 65.5 200.499 65.5c62 0 114.167 -13.333 156.5 -40s76.833 -67.334 103.5 -122.001l-84 -45
c-19.333 42 -43.666 72.667 -72.999 92s-66.333 29 -111 29c-52 0 -93.667 -14.333 -125 -43s-47 -66.334 -47 -113.001c0 -41.333 15.333 -77.333 46 -108s77.334 -56 140.001 -76c112.667 -37.333 192 -77.5 238 -120.5s69 -100.5 69 -172.5zM644.997 1348l-260 -322
l-260 322l45 36l215 -235l215 235z" />
    <glyph glyph-name="Tcedilla" unicode="&#x162;" horiz-adv-x="922" 
d="M881 1452h-371v-1452h-98v1452h-371v92h840v-92zM580 -63l-186 -318l-60 33l172 323z" />
    <glyph glyph-name="tcedilla" unicode="&#x163;" horiz-adv-x="428" 
d="M428 860h-174v-860h-92v860h-131v86h131v406h92v-406h174v-86zM332 -63l-186 -318l-60 33l172 323z" />
    <glyph glyph-name="Tcaron" unicode="&#x164;" horiz-adv-x="922" 
d="M881 1452h-371v-1452h-98v1452h-371v92h840v-92zM721 1946l-260 -322l-260 322l45 36l215 -235l215 235z" />
    <glyph glyph-name="tcaron" unicode="&#x165;" horiz-adv-x="674" 
d="M428 860h-174v-860h-92v860h-131v86h131v406h92v-406h174v-86zM674 1524l-225 -467l-56 24l191 484z" />
    <glyph glyph-name="Utilde" unicode="&#x168;" horiz-adv-x="1352" 
d="M1188 573c0 -210.667 -40.332 -362.167 -120.999 -454.5s-211 -138.5 -391 -138.5c-180.667 0 -311.167 46.167 -391.5 138.5s-120.5 243.833 -120.5 454.5v971h98v-997c0 -166.667 33 -287.5 99 -362.5s171 -112.5 315 -112.5c143.333 0 248.166 37.5 314.499 112.5
s99.5 195.833 99.5 362.5v997h98v-971zM1007 1833c-24 -46.667 -50.8311 -80.833 -80.498 -102.5s-65.5 -32.5 -107.5 -32.5c-21.333 0 -43.833 4.33301 -67.5 13s-51.167 22.667 -82.5 42c-38.667 24.667 -67.834 41.167 -87.501 49.5s-37.5 12.5 -53.5 12.5
c-30.667 0 -56 -6 -76 -18s-38.333 -35 -55 -69l-51 31c24 46.667 50.5 80.5 79.5 101.5s64.5 31.5 106.5 31.5c22 0 45.167 -4.33301 69.5 -13s51.833 -22.667 82.5 -42c40.667 -26 70.167 -42.667 88.5 -50s35.166 -11 50.499 -11c31.333 0 57.333 6.16699 78 18.5
s39 34.833 55 67.5z" />
    <glyph glyph-name="utilde" unicode="&#x169;" horiz-adv-x="967" 
d="M813 391c0 -145.333 -26.168 -250.167 -78.501 -314.5s-136.166 -96.5 -251.499 -96.5c-114 0 -197.333 33 -250 99s-79 170 -79 312v555h92v-528c0 -126 17.5 -216.167 52.5 -270.5s96.5 -81.5 184.5 -81.5c90 0 152.167 26.667 186.5 80s51.5 144 51.5 272v528h92v-555
zM814.999 1235c-24 -46.667 -50.8311 -80.833 -80.498 -102.5s-65.5 -32.5 -107.5 -32.5c-21.333 0 -43.833 4.33301 -67.5 13s-51.167 22.667 -82.5 42c-38.667 24.667 -67.834 41.167 -87.501 49.5s-37.5 12.5 -53.5 12.5c-30.667 0 -56 -6 -76 -18s-38.333 -35 -55 -69
l-51 31c24 46.667 50.5 80.5 79.5 101.5s64.5 31.5 106.5 31.5c22 0 45.167 -4.33301 69.5 -13s51.833 -22.667 82.5 -42c40.667 -26 70.167 -42.667 88.5 -50s35.166 -11 50.499 -11c31.333 0 57.333 6.16699 78 18.5s39 34.833 55 67.5z" />
    <glyph glyph-name="Umacron" unicode="&#x16a;" horiz-adv-x="1352" 
d="M1188 573c0 -210.667 -40.332 -362.167 -120.999 -454.5s-211 -138.5 -391 -138.5c-180.667 0 -311.167 46.167 -391.5 138.5s-120.5 243.833 -120.5 454.5v971h98v-997c0 -166.667 33 -287.5 99 -362.5s171 -112.5 315 -112.5c143.333 0 248.166 37.5 314.499 112.5
s99.5 195.833 99.5 362.5v997h98v-971zM942.001 1751h-532v82h532v-82z" />
    <glyph glyph-name="umacron" unicode="&#x16b;" horiz-adv-x="967" 
d="M813 391c0 -145.333 -26.168 -250.167 -78.501 -314.5s-136.166 -96.5 -251.499 -96.5c-114 0 -197.333 33 -250 99s-79 170 -79 312v555h92v-528c0 -126 17.5 -216.167 52.5 -270.5s96.5 -81.5 184.5 -81.5c90 0 152.167 26.667 186.5 80s51.5 144 51.5 272v528h92v-555
zM748.999 1153h-532v82h532v-82z" />
    <glyph glyph-name="Ubreve" unicode="&#x16c;" horiz-adv-x="1352" 
d="M1188 573c0 -210.667 -40.332 -362.167 -120.999 -454.5s-211 -138.5 -391 -138.5c-180.667 0 -311.167 46.167 -391.5 138.5s-120.5 243.833 -120.5 454.5v971h98v-997c0 -166.667 33 -287.5 99 -362.5s171 -112.5 315 -112.5c143.333 0 248.166 37.5 314.499 112.5
s99.5 195.833 99.5 362.5v997h98v-971zM950.001 1888c-14 -77.333 -43.833 -135.5 -89.5 -174.5s-107.5 -58.5 -185.5 -58.5s-139.833 19.5 -185.5 58.5s-75.167 97.167 -88.5 174.5l61 15c13.333 -56.667 37.333 -98.5 72 -125.5s81.667 -40.5 141 -40.5
s106.5 13.5 141.5 40.5s58.833 68.833 71.5 125.5z" />
    <glyph glyph-name="ubreve" unicode="&#x16d;" horiz-adv-x="967" 
d="M813 391c0 -145.333 -26.168 -250.167 -78.501 -314.5s-136.166 -96.5 -251.499 -96.5c-114 0 -197.333 33 -250 99s-79 170 -79 312v555h92v-528c0 -126 17.5 -216.167 52.5 -270.5s96.5 -81.5 184.5 -81.5c90 0 152.167 26.667 186.5 80s51.5 144 51.5 272v528h92v-555
zM757.999 1290c-14 -77.333 -43.833 -135.5 -89.5 -174.5s-107.5 -58.5 -185.5 -58.5s-139.833 19.5 -185.5 58.5s-75.167 97.167 -88.5 174.5l61 15c13.333 -56.667 37.333 -98.5 72 -125.5s81.667 -40.5 141 -40.5s106.5 13.5 141.5 40.5s58.833 68.833 71.5 125.5z" />
    <glyph glyph-name="Uring" unicode="&#x16e;" horiz-adv-x="1352" 
d="M1188 573c0 -210.667 -40.332 -362.167 -120.999 -454.5s-211 -138.5 -391 -138.5c-180.667 0 -311.167 46.167 -391.5 138.5s-120.5 243.833 -120.5 454.5v971h98v-997c0 -166.667 33 -287.5 99 -362.5s171 -112.5 315 -112.5c143.333 0 248.166 37.5 314.499 112.5
s99.5 195.833 99.5 362.5v997h98v-971zM872.001 1872c0 54 -19.167 100.167 -57.5 138.5s-84.5 57.5 -138.5 57.5c-54.667 0 -101.167 -19.167 -139.5 -57.5s-57.5 -84.5 -57.5 -138.5c0 -54.667 19.167 -101.167 57.5 -139.5s84.833 -57.5 139.5 -57.5
c54 0 100.167 19.167 138.5 57.5s57.5 84.833 57.5 139.5zM926.001 1872c0 -68.667 -24.5 -127.5 -73.5 -176.5s-107.833 -73.5 -176.5 -73.5s-127.5 24.5 -176.5 73.5s-73.5 107.833 -73.5 176.5s24.5 127.5 73.5 176.5s107.833 73.5 176.5 73.5s127.5 -24.5 176.5 -73.5
s73.5 -107.833 73.5 -176.5z" />
    <glyph glyph-name="uring" unicode="&#x16f;" horiz-adv-x="967" 
d="M813 391c0 -145.333 -26.168 -250.167 -78.501 -314.5s-136.166 -96.5 -251.499 -96.5c-114 0 -197.333 33 -250 99s-79 170 -79 312v555h92v-528c0 -126 17.5 -216.167 52.5 -270.5s96.5 -81.5 184.5 -81.5c90 0 152.167 26.667 186.5 80s51.5 144 51.5 272v528h92v-555
zM679.999 1274c0 54 -19.167 100.167 -57.5 138.5s-84.5 57.5 -138.5 57.5c-54.667 0 -101.167 -19.167 -139.5 -57.5s-57.5 -84.5 -57.5 -138.5c0 -54.667 19.167 -101.167 57.5 -139.5s84.833 -57.5 139.5 -57.5c54 0 100.167 19.167 138.5 57.5s57.5 84.833 57.5 139.5z
M733.999 1274c0 -68.667 -24.5 -127.5 -73.5 -176.5s-107.833 -73.5 -176.5 -73.5s-127.5 24.5 -176.5 73.5s-73.5 107.833 -73.5 176.5s24.5 127.5 73.5 176.5s107.833 73.5 176.5 73.5s127.5 -24.5 176.5 -73.5s73.5 -107.833 73.5 -176.5z" />
    <glyph glyph-name="Udblacute" unicode="&#x170;" horiz-adv-x="1352" 
d="M1188 573c0 -210.667 -40.332 -362.167 -120.999 -454.5s-211 -138.5 -391 -138.5c-180.667 0 -311.167 46.167 -391.5 138.5s-120.5 243.833 -120.5 454.5v971h98v-997c0 -166.667 33 -287.5 99 -362.5s171 -112.5 315 -112.5c143.333 0 248.166 37.5 314.499 112.5
s99.5 195.833 99.5 362.5v997h98v-971zM774.001 1958l-229 -313l-50 36l220 322zM989.001 1958l-229 -313l-49 36l219 322z" />
    <glyph glyph-name="udblacute" unicode="&#x171;" horiz-adv-x="967" 
d="M813 391c0 -145.333 -26.168 -250.167 -78.501 -314.5s-136.166 -96.5 -251.499 -96.5c-114 0 -197.333 33 -250 99s-79 170 -79 312v555h92v-528c0 -126 17.5 -216.167 52.5 -270.5s96.5 -81.5 184.5 -81.5c90 0 152.167 26.667 186.5 80s51.5 144 51.5 272v528h92v-555
zM581.999 1360l-229 -313l-50 36l220 322zM796.999 1360l-229 -313l-49 36l219 322z" />
    <glyph glyph-name="Uogonek" unicode="&#x172;" horiz-adv-x="1352" 
d="M1188 573c0 -196 -34.667 -340.668 -104 -434.001s-180.666 -145.666 -333.999 -156.999c-34 -36 -61.667 -75.667 -83 -119s-32 -81.666 -32 -114.999c0 -40.667 13.5 -70.334 40.5 -89.001s70.167 -28 129.5 -28v-82c-87.333 0 -151.833 15.167 -193.5 45.5
s-62.5 76.833 -62.5 139.5c0 39.333 11.5 81 34.5 125s53.833 84.333 92.5 121c-180.667 0 -311.167 46.167 -391.5 138.5s-120.5 243.833 -120.5 454.5v971h98v-997c0 -166.667 33 -287.5 99 -362.5s171 -112.5 315 -112.5c143.333 0 248.166 37.5 314.499 112.5
s99.5 195.833 99.5 362.5v997h98v-971z" />
    <glyph glyph-name="uogonek" unicode="&#x173;" horiz-adv-x="967" 
d="M813 391c0 -128.667 -20.333 -225.166 -61 -289.499s-105 -102.833 -193 -115.5c-34 -35.333 -62 -75 -84 -119s-33 -83.667 -33 -119c0 -40.667 13.667 -70.334 41 -89.001s70.333 -28 129 -28v-82c-87.333 0 -151.833 15.167 -193.5 45.5s-62.5 76.833 -62.5 139.5
c0 39.333 11.5 81 34.5 125s53.833 84.333 92.5 121c-114 0 -197.333 33 -250 99s-79 170 -79 312v555h92v-528c0 -126 17.5 -216.167 52.5 -270.5s96.5 -81.5 184.5 -81.5c90 0 152.167 26.667 186.5 80s51.5 144 51.5 272v528h92v-555z" />
    <glyph glyph-name="Wcircumflex" unicode="&#x174;" horiz-adv-x="2263" 
d="M2214 1544l-590 -1581l-494 1340l-491 -1340l-590 1581h109l481 -1313l491 1350l494 -1350l481 1313h109zM1392 1681l-45 -36l-215 235l-215 -235l-45 36l260 322z" />
    <glyph glyph-name="wcircumflex" unicode="&#x175;" horiz-adv-x="1540" 
d="M1524 946l-426 -983l-328 797l-326 -797l-428 983h103l321 -768l330 805l332 -805l319 768h103zM1030 1083l-45 -36l-215 235l-215 -235l-45 36l260 322z" />
    <glyph glyph-name="Ycircumflex" unicode="&#x176;" horiz-adv-x="1145" 
d="M1124 1544l-497 -823v-721h-99v721l-508 823h107l451 -735l440 735h106zM833 1681l-45 -36l-215 235l-215 -235l-45 36l260 322z" />
    <glyph glyph-name="ycircumflex" unicode="&#x177;" horiz-adv-x="942" 
d="M926 946l-654 -1478h-102l270 600l-424 878h103l373 -774l331 774h103zM739 1083l-45 -36l-215 235l-215 -235l-45 36l260 322z" />
    <glyph glyph-name="Ydieresis" unicode="&#x178;" horiz-adv-x="1145" 
d="M1124 1544l-497 -823v-721h-99v721l-508 823h107l451 -735l440 735h106zM450 1804c0 -22.667 -7.66699 -41.667 -23 -57s-34.333 -23 -57 -23c-22 0 -40.667 7.66699 -56 23s-23 34.333 -23 57s7.66699 41.667 23 57s34 23 56 23c22.667 0 41.667 -7.66699 57 -23
s23 -34.333 23 -57zM856 1804c0 -22.667 -7.66699 -41.667 -23 -57s-34.333 -23 -57 -23s-41.667 7.66699 -57 23s-23 34.333 -23 57s7.66699 41.667 23 57s34.333 23 57 23s41.667 -7.66699 57 -23s23 -34.333 23 -57z" />
    <glyph glyph-name="Zacute" unicode="&#x179;" horiz-adv-x="1163" 
d="M1102 1544l-889 -1452h829v-92h-1001l893 1452h-795v92h963zM772 1954l-236 -309l-53 40l223 318z" />
    <glyph glyph-name="zacute" unicode="&#x17a;" horiz-adv-x="983" 
d="M913 0h-854l668 860h-616v86h792l-667 -860h677v-86zM682 1356l-236 -309l-53 40l223 318z" />
    <glyph glyph-name="Zdot" unicode="&#x17b;" horiz-adv-x="1163" 
d="M1102 1544l-889 -1452h829v-92h-1001l893 1452h-795v92h963zM663 1806c0 -22 -8 -41.167 -24 -57.5s-35.333 -24.5 -58 -24.5c-22 0 -41 8.16699 -57 24.5s-24 35.5 -24 57.5c0 22.667 8 42 24 58s35 24 57 24c22.667 0 42 -8 58 -24s24 -35.333 24 -58z" />
    <glyph glyph-name="zdot" unicode="&#x17c;" horiz-adv-x="983" 
d="M913 0h-854l668 860h-616v86h792l-667 -860h677v-86zM573 1208c0 -22 -8 -41.167 -24 -57.5s-35.333 -24.5 -58 -24.5c-22 0 -41 8.16699 -57 24.5s-24 35.5 -24 57.5c0 22.667 8 42 24 58s35 24 57 24c22.667 0 42 -8 58 -24s24 -35.333 24 -58z" />
    <glyph glyph-name="Zcaron" unicode="&#x17d;" horiz-adv-x="1163" 
d="M1102 1544l-889 -1452h829v-92h-1001l893 1452h-795v92h963zM841 1946l-260 -322l-260 322l45 36l215 -235l215 235z" />
    <glyph glyph-name="zcaron" unicode="&#x17e;" horiz-adv-x="983" 
d="M913 0h-854l668 860h-616v86h792l-667 -860h677v-86zM751 1348l-260 -322l-260 322l45 36l215 -235l215 235z" />
    <glyph glyph-name="florin" unicode="&#x192;" 
d="M1001 1544l-17.999 -87.998c-20 8 -37.833 13.833 -53.5 17.5s-29.834 5.5 -42.501 5.5c-66 0 -112.667 -21.333 -140 -64s-47.666 -120.334 -60.999 -233.001l-27 -236h215l-8 -86h-217l-78 -717c-14 -137.333 -43.333 -234.833 -88 -292.5s-115 -86.5 -211 -86.5
c-18.667 0 -38.167 2 -58.5 6s-37.5 9 -51.5 15l18 88c20 -8 38 -13.833 54 -17.5s30 -5.5 42 -5.5c66.667 0 113.834 21.667 141.501 65s47.5 120.666 59.5 231.999l78 713h-197l11 86h196l27 240c15.333 138 45.166 235.667 89.499 293s114.166 86 209.499 86
c18.667 0 38.167 -2 58.5 -6s37.5 -9 51.5 -15z" />
    <glyph glyph-name="circumflex" unicode="&#x2c6;" horiz-adv-x="872" 
d="M696 1083l-45 -36l-215 235l-215 -235l-45 36l260 322z" />
    <glyph glyph-name="caron" unicode="&#x2c7;" horiz-adv-x="872" 
d="M696 1348l-260 -322l-260 322l45 36l215 -235l215 235z" />
    <glyph glyph-name="macron" unicode="&#x2c9;" horiz-adv-x="934" 
d="M733 1153h-532v82h532v-82z" />
    <glyph glyph-name="breve" unicode="&#x2d8;" horiz-adv-x="889" 
d="M719 1290c-14 -77.333 -43.833 -135.5 -89.5 -174.5s-107.5 -58.5 -185.5 -58.5s-139.833 19.5 -185.5 58.5s-75.167 97.167 -88.5 174.5l61 15c13.333 -56.667 37.333 -98.5 72 -125.5s81.667 -40.5 141 -40.5s106.5 13.5 141.5 40.5s58.833 68.833 71.5 125.5z" />
    <glyph glyph-name="dotaccent" unicode="&#x2d9;" horiz-adv-x="641" 
d="M401 1208c0 -22 -8 -41.167 -24 -57.5s-35.333 -24.5 -58 -24.5c-22 0 -41 8.16699 -57 24.5s-24 35.5 -24 57.5c0 22.667 8 42 24 58s35 24 57 24c22.667 0 42 -8 58 -24s24 -35.333 24 -58z" />
    <glyph glyph-name="ring" unicode="&#x2da;" horiz-adv-x="664" 
d="M528 1274c0 54 -19.167 100.167 -57.5 138.5s-84.5 57.5 -138.5 57.5c-54.667 0 -101.167 -19.167 -139.5 -57.5s-57.5 -84.5 -57.5 -138.5c0 -54.667 19.167 -101.167 57.5 -139.5s84.833 -57.5 139.5 -57.5c54 0 100.167 19.167 138.5 57.5s57.5 84.833 57.5 139.5z
M582 1274c0 -68.667 -24.5 -127.5 -73.5 -176.5s-107.833 -73.5 -176.5 -73.5s-127.5 24.5 -176.5 73.5s-73.5 107.833 -73.5 176.5s24.5 127.5 73.5 176.5s107.833 73.5 176.5 73.5s127.5 -24.5 176.5 -73.5s73.5 -107.833 73.5 -176.5z" />
    <glyph glyph-name="ogonek" unicode="&#x2db;" horiz-adv-x="657" 
d="M403 -451c-86.667 0 -151 15.168 -193 45.501s-63 76.833 -63 139.5c0 44 14.333 90.667 43 140s65 91.333 109 126h68c-37.333 -34 -69 -75 -95 -123s-39 -91 -39 -129c0 -40.667 13.667 -70.334 41 -89.001s70.333 -28 129 -28v-82z" />
    <glyph glyph-name="tilde" unicode="&#x2dc;" horiz-adv-x="899" 
d="M780 1235c-24 -46.667 -50.8311 -80.833 -80.498 -102.5s-65.5 -32.5 -107.5 -32.5c-21.333 0 -43.833 4.33301 -67.5 13s-51.167 22.667 -82.5 42c-38.667 24.667 -67.834 41.167 -87.501 49.5s-37.5 12.5 -53.5 12.5c-30.667 0 -56 -6 -76 -18s-38.333 -35 -55 -69
l-51 31c24 46.667 50.5 80.5 79.5 101.5s64.5 31.5 106.5 31.5c22 0 45.167 -4.33301 69.5 -13s51.833 -22.667 82.5 -42c40.667 -26 70.167 -42.667 88.5 -50s35.166 -11 50.499 -11c31.333 0 57.333 6.16699 78 18.5s39 34.833 55 67.5z" />
    <glyph glyph-name="hungarumlaut" unicode="&#x2dd;" horiz-adv-x="913" 
d="M555 1360l-229 -313l-50 36l220 322zM770 1360l-229 -313l-49 36l219 322z" />
    <glyph glyph-name="U037e" unicode="&#x37e;" horiz-adv-x="635" 
d="M424 154l-285 -523l-57 27l219 553zM406 879c0 -24.667 -8.66699 -45.5 -26 -62.5s-38.333 -25.5 -63 -25.5c-24 0 -44.667 8.5 -62 25.5s-26 37.833 -26 62.5c0 24 8.66699 44.667 26 62s38 26 62 26c24.667 0 45.667 -8.66699 63 -26s26 -38 26 -62z" />
    <glyph glyph-name="tonos" unicode="&#x384;" horiz-adv-x="369" 
d="M227 1436l-8 -369h-69l-9 369h86z" />
    <glyph glyph-name="dieresistonos" unicode="&#x385;" horiz-adv-x="862" 
d="M309 1206c0 -22.667 -7.66699 -41.667 -23 -57s-34.333 -23 -57 -23c-22 0 -40.667 7.66699 -56 23s-23 34.333 -23 57s7.66699 41.667 23 57s34 23 56 23c22.667 0 41.667 -7.66699 57 -23s23 -34.333 23 -57zM473 1436l-8 -369h-68l-8 369h84zM715 1206
c0 -22.667 -7.66699 -41.667 -23 -57s-34.333 -23 -57 -23s-41.667 7.66699 -57 23s-23 34.333 -23 57s7.66699 41.667 23 57s34.333 23 57 23s41.667 -7.66699 57 -23s23 -34.333 23 -57z" />
    <glyph glyph-name="Alphatonos" unicode="&#x386;" horiz-adv-x="1800" 
d="M227 1436l-8 -369h-69l-9 369h86zM1429 629l-285 721l-284 -721h569zM1783 0h-104l-213 537h-643l-213 -537h-105l639 1581z" />
    <glyph glyph-name="anoteleia" unicode="&#x387;" horiz-adv-x="635" 
d="M406 784c0 -24 -8.66699 -44.667 -26 -62s-38.333 -26 -63 -26c-24 0 -44.667 8.66699 -62 26s-26 38 -26 62c0 24.667 8.66699 45.5 26 62.5s38 25.5 62 25.5c24.667 0 45.667 -8.5 63 -25.5s26 -37.833 26 -62.5z" />
    <glyph glyph-name="Epsilontonos" unicode="&#x388;" horiz-adv-x="1407" 
d="M227 1436l-8 -369h-69l-9 369h86zM1270 0h-727v1544h727v-92h-629v-543h629v-92h-629v-725h629v-92z" />
    <glyph glyph-name="Etatonos" unicode="&#x389;" horiz-adv-x="1835" 
d="M227 1436l-8 -369h-69l-9 369h86zM1661 0h-98v811h-922v-811h-98v1544h98v-641h922v641h98v-1544z" />
    <glyph glyph-name="Iotatonos" unicode="&#x38a;" horiz-adv-x="799" 
d="M227 1436l-8 -369h-69l-9 369h86zM633 0h-98v1544h98v-1544z" />
    <glyph glyph-name="Omicrontonos" unicode="&#x38c;" horiz-adv-x="2146" 
d="M227 1436l-8 -369h-69l-9 369h86zM1970 772c0 196.667 -67.8311 362.667 -203.498 498s-301.5 203 -497.5 203c-194.667 0 -359.334 -67.667 -494.001 -203s-202 -301.333 -202 -498s67.167 -362.5 201.5 -497.5s299.166 -202.5 494.499 -202.5
c196 0 361.833 67.667 497.5 203s203.5 301 203.5 497zM2068 772c0 -220.667 -77.667 -407.834 -233 -561.501s-344 -230.5 -566 -230.5c-220 0 -407.333 76.833 -562 230.5s-232 340.834 -232 561.501c0 225.333 76 413.833 228 565.5s340.667 227.5 566 227.5
c226 0 415.667 -75.833 569 -227.5s230 -340.167 230 -565.5z" />
    <glyph glyph-name="Upsilontonos" unicode="&#x38e;" horiz-adv-x="1513" 
d="M227 1436l-8 -369h-69l-9 369h86zM1493 1544l-497 -823v-721h-99v721l-508 823h107l451 -735l440 735h106z" />
    <glyph glyph-name="Omegatonos" unicode="&#x38f;" horiz-adv-x="2142" 
d="M227 1436l-8 -369h-69l-9 369h86zM2085 0l-648.001 0.000976562v92c153.333 38 276.333 119.167 369 243.5s139 269.833 139 436.5c0 198.667 -64.833 365.167 -194.5 499.5s-291.5 201.5 -485.5 201.5c-192.667 0 -353.334 -67 -482.001 -201s-193 -300.667 -193 -500
c0 -167.333 46.333 -313.333 139 -438s215.667 -205.334 369 -242.001v-92h-648v92h432c-123.333 64 -219.333 155.667 -288 275s-103 254.333 -103 405c0 227.333 73.333 416.333 220 567s331.334 226 554.001 226c223.333 0 409 -75.333 557 -226s222 -339.667 222 -567
c0 -151.333 -34.667 -286.5 -104 -405.5s-166.666 -210.5 -291.999 -274.5h437v-92z" />
    <glyph glyph-name="iotedieresistonos" unicode="&#x390;" horiz-adv-x="479" 
d="M287 0h-92v946h92v-946zM119 1206c0 -22.667 -7.66699 -41.667 -23 -57s-34.333 -23 -57 -23c-22 0 -40.667 7.66699 -56 23s-23 34.333 -23 57s7.66699 41.667 23 57s34 23 56 23c22.667 0 41.667 -7.66699 57 -23s23 -34.333 23 -57zM283 1436l-8 -369h-68l-8 369h84z
M525 1206c0 -22.667 -7.66699 -41.667 -23 -57s-34.333 -23 -57 -23s-41.667 7.66699 -57 23s-23 34.333 -23 57s7.66699 41.667 23 57s34.333 23 57 23s41.667 -7.66699 57 -23s23 -34.333 23 -57z" />
    <glyph glyph-name="Alpha" unicode="&#x391;" horiz-adv-x="1313" 
d="M942 629l-285 721l-284 -721h569zM1296 0h-104l-213 537h-643l-213 -537h-105l639 1581z" />
    <glyph glyph-name="Beta" unicode="&#x392;" horiz-adv-x="1157" 
d="M954 414c0 112 -40 197.333 -120 256s-197 88 -351 88h-200v-666h237c155.333 0 266.5 26 333.5 78s100.5 133.333 100.5 244zM877 1143c0 109.333 -30.332 188.167 -90.999 236.5s-160.334 72.5 -299.001 72.5h-204v-602h163c150 0 259.333 23.333 328 70
s103 121 103 223zM1053 424.001c0 -144 -43.3311 -250.667 -129.998 -320s-220.334 -104 -401.001 -104h-338v1544h316c158 0 276.667 -32.5 356 -97.5s119 -162.833 119 -293.5c0 -97.333 -23.5 -173.5 -70.5 -228.5s-120.5 -94.833 -220.5 -119.5
c117.333 -16.667 208.166 -58.667 272.499 -126s96.5 -152.333 96.5 -255z" />
    <glyph glyph-name="Gamma" unicode="&#x393;" horiz-adv-x="670" 
d="M649 1452h-377v-1452h-98v1544h475v-92z" />
    <glyph glyph-name="Delta" unicode="&#x394;" horiz-adv-x="1137" 
d="M1006 92l-439 1215l-436 -1215h875zM1147 0h-1157l577 1575z" />
    <glyph glyph-name="Epsilon" unicode="&#x395;" horiz-adv-x="1038" 
d="M901 0h-727v1544h727v-92h-629v-543h629v-92h-629v-725h629v-92z" />
    <glyph glyph-name="Zeta" unicode="&#x396;" horiz-adv-x="1163" 
d="M1102 1544l-889 -1452h829v-92h-1001l893 1452h-795v92h963z" />
    <glyph glyph-name="Eta" unicode="&#x397;" horiz-adv-x="1466" 
d="M1292 0h-98v811h-922v-811h-98v1544h98v-641h922v641h98v-1544z" />
    <glyph glyph-name="Theta" unicode="&#x398;" horiz-adv-x="1749" 
d="M1335 750h-921v92h921v-92zM1573 772c0 196.667 -67.8311 362.667 -203.498 498s-301.5 203 -497.5 203c-194.667 0 -359.334 -67.667 -494.001 -203s-202 -301.333 -202 -498s67.167 -362.5 201.5 -497.5s299.166 -202.5 494.499 -202.5c196 0 361.833 67.667 497.5 203
s203.5 301 203.5 497zM1671 772c0 -220.667 -77.667 -407.834 -233 -561.501s-344 -230.5 -566 -230.5c-220 0 -407.333 76.833 -562 230.5s-232 340.834 -232 561.501c0 225.333 76 413.833 228 565.5s340.667 227.5 566 227.5c226 0 415.667 -75.833 569 -227.5
s230 -340.167 230 -565.5z" />
    <glyph glyph-name="Iota" unicode="&#x399;" horiz-adv-x="430" 
d="M264 0h-98v1544h98v-1544z" />
    <glyph glyph-name="Kappa" unicode="&#x39a;" horiz-adv-x="1165" 
d="M1178 0h-142l-764 795v-795h-98v1544h98v-733l744 733h127l-754 -737z" />
    <glyph glyph-name="Lambda" unicode="&#x39b;" horiz-adv-x="1137" 
d="M1147 0h-109l-471 1307l-469 -1307h-108l577 1575z" />
    <glyph glyph-name="Mu" unicode="&#x39c;" horiz-adv-x="1837" 
d="M1739 0h-105l-149 1233l-565 -1266l-568 1266l-149 -1233h-105l205 1581l617 -1395l614 1397z" />
    <glyph glyph-name="Nu" unicode="&#x39d;" horiz-adv-x="1726" 
d="M1542 -37l-1259 1364v-1327h-99v1581l1260 -1362v1325h98v-1581z" />
    <glyph glyph-name="Xi" unicode="&#x39e;" horiz-adv-x="1311" 
d="M1178 0h-1045v92h1045v-92zM1178 817h-1045v92h1045v-92zM1178 1452h-1045v92h1045v-92z" />
    <glyph glyph-name="Omicron" unicode="&#x39f;" horiz-adv-x="1749" 
d="M1573 772c0 196.667 -67.8311 362.667 -203.498 498s-301.5 203 -497.5 203c-194.667 0 -359.334 -67.667 -494.001 -203s-202 -301.333 -202 -498s67.167 -362.5 201.5 -497.5s299.166 -202.5 494.499 -202.5c196 0 361.833 67.667 497.5 203s203.5 301 203.5 497z
M1671 772c0 -220.667 -77.667 -407.834 -233 -561.501s-344 -230.5 -566 -230.5c-220 0 -407.333 76.833 -562 230.5s-232 340.834 -232 561.501c0 225.333 76 413.833 228 565.5s340.667 227.5 566 227.5c226 0 415.667 -75.833 569 -227.5s230 -340.167 230 -565.5z" />
    <glyph glyph-name="Pi" unicode="&#x3a0;" horiz-adv-x="1466" 
d="M1292 0h-98v1452h-922v-1452h-98v1544h1118v-1544z" />
    <glyph glyph-name="Rho" unicode="&#x3a1;" horiz-adv-x="967" 
d="M786 1133c0 110.667 -33.667 191.499 -101 242.499s-178.333 76.5 -333 76.5h-80v-631h80c156.667 0 268.167 24.333 334.5 73s99.5 128.334 99.5 239.001zM885 1133c0 -138 -43.167 -239.833 -129.5 -305.5s-220.833 -98.5 -403.5 -98.5h-80v-729h-98v1544h178
c186 0 321.333 -33.5 406 -100.5s127 -170.5 127 -310.5z" />
    <glyph glyph-name="Sigma" unicode="&#x3a3;" horiz-adv-x="1145" 
d="M1063 0h-1022l514 801l-475 743h983v-92h-815l420 -651l-455 -709h850v-92z" />
    <glyph glyph-name="Tau" unicode="&#x3a4;" horiz-adv-x="922" 
d="M881 1452h-371v-1452h-98v1452h-371v92h840v-92z" />
    <glyph glyph-name="Upsilon" unicode="&#x3a5;" horiz-adv-x="1145" 
d="M1124 1544l-497 -823v-721h-99v721l-508 823h107l451 -735l440 735h106z" />
    <glyph glyph-name="Phi" unicode="&#x3a6;" horiz-adv-x="1503" 
d="M702 274v1024c-159.333 0 -286.166 -45.833 -380.499 -137.5s-141.5 -216.5 -141.5 -374.5s47.167 -282.833 141.5 -374.5s221.166 -137.5 380.499 -137.5zM1323 786c0 158 -46.999 282.833 -140.999 374.5s-221 137.5 -381 137.5v-1024
c159.333 0 286.166 45.833 380.499 137.5s141.5 216.5 141.5 374.5zM1421 786c0 -184.667 -55.667 -331.5 -167 -440.5s-262.333 -163.5 -453 -163.5v-182h-99v182c-190.667 0 -341.667 54.5 -453 163.5s-167 255.833 -167 440.5c0 183.333 56 330 168 440
s262.667 165 452 165v153h99v-153c189.333 0 340 -55 452 -165s168 -256.667 168 -440z" />
    <glyph glyph-name="Chi" unicode="&#x3a7;" horiz-adv-x="1012" 
d="M967 0h-107l-358 715l-348 -715h-107l402 821l-363 723h107l317 -631l317 631h107l-371 -737z" />
    <glyph glyph-name="Psi" unicode="&#x3a8;" horiz-adv-x="1499" 
d="M1335 942c0 -209.333 -44.498 -365.833 -133.498 -469.5s-223.167 -155.5 -402.5 -155.5v-317h-99v317c-178.667 0 -312.667 52 -402 156s-134 260.333 -134 469v602h98v-629c0 -165.333 37.167 -290.833 111.5 -376.5s183.166 -128.5 326.499 -128.5v1134h99v-1134
c143.333 0 252.166 42.833 326.499 128.5s111.5 211.167 111.5 376.5v629h98v-602z" />
    <glyph glyph-name="Omega" unicode="&#x3a9;" horiz-adv-x="1749" 
d="M1692 0l-648.001 0.000976562v92c153.333 38 276.333 119.167 369 243.5s139 269.833 139 436.5c0 198.667 -64.833 365.167 -194.5 499.5s-291.5 201.5 -485.5 201.5c-192.667 0 -353.334 -67 -482.001 -201s-193 -300.667 -193 -500
c0 -167.333 46.333 -313.333 139 -438s215.667 -205.334 369 -242.001v-92h-648v92h432c-123.333 64 -219.333 155.667 -288 275s-103 254.333 -103 405c0 227.333 73.333 416.333 220 567s331.334 226 554.001 226c223.333 0 409 -75.333 557 -226s222 -339.667 222 -567
c0 -151.333 -34.667 -286.5 -104 -405.5s-166.666 -210.5 -291.999 -274.5h437v-92z" />
    <glyph glyph-name="Iotadieresis" unicode="&#x3aa;" horiz-adv-x="430" 
d="M264 0h-98v1544h98v-1544zM94 1804c0 -22.667 -7.66699 -41.667 -23 -57s-34.333 -23 -57 -23c-22 0 -40.667 7.66699 -56 23s-23 34.333 -23 57s7.66699 41.667 23 57s34 23 56 23c22.667 0 41.667 -7.66699 57 -23s23 -34.333 23 -57zM500 1804
c0 -22.667 -7.66699 -41.667 -23 -57s-34.333 -23 -57 -23s-41.667 7.66699 -57 23s-23 34.333 -23 57s7.66699 41.667 23 57s34.333 23 57 23s41.667 -7.66699 57 -23s23 -34.333 23 -57z" />
    <glyph glyph-name="Upsilondieresis" unicode="&#x3ab;" horiz-adv-x="1145" 
d="M1124 1544l-497 -823v-721h-99v721l-508 823h107l451 -735l440 735h106zM450 1804c0 -22.667 -7.66699 -41.667 -23 -57s-34.333 -23 -57 -23c-22 0 -40.667 7.66699 -56 23s-23 34.333 -23 57s7.66699 41.667 23 57s34 23 56 23c22.667 0 41.667 -7.66699 57 -23
s23 -34.333 23 -57zM856 1804c0 -22.667 -7.66699 -41.667 -23 -57s-34.333 -23 -57 -23s-41.667 7.66699 -57 23s-23 34.333 -23 57s7.66699 41.667 23 57s34.333 23 57 23s41.667 -7.66699 57 -23s23 -34.333 23 -57z" />
    <glyph glyph-name="alphatonos" unicode="&#x3ac;" horiz-adv-x="1147" 
d="M901 475c0 124.667 -33.167 223.5 -99.5 296.5s-154.5 109.5 -264.5 109.5c-104.667 0 -189.667 -38.167 -255 -114.5s-98 -176.833 -98 -301.5c0 -122 33.167 -219 99.5 -291s154.833 -108 265.5 -108c107.333 0 192.833 37 256.5 111s95.5 173.333 95.5 298zM993 0
l-92.001 -0.000976562v180c-42.667 -68.667 -93.5 -119.167 -152.5 -151.5s-129.5 -48.5 -211.5 -48.5c-132 0 -239.167 44.333 -321.5 133s-123.5 205.334 -123.5 350.001c0 150 40.833 271.5 122.5 364.5s186.834 139.5 315.501 139.5c93.333 0 168.5 -15.5 225.5 -46.5
s105.5 -82.5 145.5 -154.5v180h92v-946zM615.999 1436l-8 -369h-69l-9 369h86z" />
    <glyph glyph-name="epsilontonos" unicode="&#x3ad;" horiz-adv-x="770" 
d="M688 49c-54.667 -28 -101.169 -46.498 -139.502 -55.498s-83.166 -13.5 -134.499 -13.5c-99.333 0 -177.833 24.667 -235.5 74s-86.5 115.333 -86.5 198c0 58 15.667 108.833 47 152.5s74.333 74.167 129 91.5c-57.333 14 -101 39.833 -131 77.5s-45 84.834 -45 141.501
c0 79.333 27.833 141.166 83.5 185.499s133.834 66.5 234.501 66.5c50.667 0 99 -5.83301 145 -17.5s90.333 -29.167 133 -52.5v-94c-43.333 25.333 -88.333 44.666 -135 57.999s-94.334 20 -143.001 20c-68 0 -122.667 -15 -164 -45s-62 -70.333 -62 -121
c0 -60.667 22.667 -107.334 68 -140.001s113 -51.667 203 -57l-1 -41c-83.333 -4.66699 -149.166 -27.834 -197.499 -69.501s-72.5 -93.5 -72.5 -155.5c0 -53.333 21.667 -97.666 65 -132.999s97 -53 161 -53c53.333 0 102 6.33301 146 19s88 32.667 132 60v-96z
M427.998 1436l-8 -369h-69l-9 369h86z" />
    <glyph glyph-name="etatonos" unicode="&#x3ae;" horiz-adv-x="1004" 
d="M850 -532l-91.999 0.000976562v1120c0 102.667 -18.167 177.167 -54.5 223.5s-95.5 69.5 -177.5 69.5c-96.667 0 -167.5 -34 -212.5 -102s-67.5 -176 -67.5 -324v-455h-92v946h92v-158c30 62.667 69 108.167 117 136.5s109.333 42.5 184 42.5
c93.333 0 167.166 -30.333 221.499 -91s81.5 -144.334 81.5 -251.001v-1157zM544.001 1436l-8 -369h-69l-9 369h86z" />
    <glyph glyph-name="iotatonos" unicode="&#x3af;" horiz-adv-x="479" 
d="M287 0h-92v946h92v-946zM282 1436l-8 -369h-69l-9 369h86z" />
    <glyph glyph-name="upsilondieresistonos" unicode="&#x3b0;" horiz-adv-x="967" 
d="M813 391c0 -145.333 -26.168 -250.167 -78.501 -314.5s-136.166 -96.5 -251.499 -96.5c-114 0 -197.333 33 -250 99s-79 170 -79 312v555h92v-528c0 -126 17.5 -216.167 52.5 -270.5s96.5 -81.5 184.5 -81.5c90 0 152.167 26.667 186.5 80s51.5 144 51.5 272v528h92v-555
zM361.999 1206c0 -22.667 -7.66699 -41.667 -23 -57s-34.333 -23 -57 -23c-22 0 -40.667 7.66699 -56 23s-23 34.333 -23 57s7.66699 41.667 23 57s34 23 56 23c22.667 0 41.667 -7.66699 57 -23s23 -34.333 23 -57zM525.999 1436l-8 -369h-68l-8 369h84zM767.999 1206
c0 -22.667 -7.66699 -41.667 -23 -57s-34.333 -23 -57 -23s-41.667 7.66699 -57 23s-23 34.333 -23 57s7.66699 41.667 23 57s34.333 23 57 23s41.667 -7.66699 57 -23s23 -34.333 23 -57z" />
    <glyph glyph-name="alpha" unicode="&#x3b1;" horiz-adv-x="1147" 
d="M901 475c0 124.667 -33.167 223.5 -99.5 296.5s-154.5 109.5 -264.5 109.5c-104.667 0 -189.667 -38.167 -255 -114.5s-98 -176.833 -98 -301.5c0 -122 33.167 -219 99.5 -291s154.833 -108 265.5 -108c107.333 0 192.833 37 256.5 111s95.5 173.333 95.5 298zM993 0
l-92.001 -0.000976562v180c-42.667 -68.667 -93.5 -119.167 -152.5 -151.5s-129.5 -48.5 -211.5 -48.5c-132 0 -239.167 44.333 -321.5 133s-123.5 205.334 -123.5 350.001c0 150 40.833 271.5 122.5 364.5s186.834 139.5 315.501 139.5c93.333 0 168.5 -15.5 225.5 -46.5
s105.5 -82.5 145.5 -154.5v180h92v-946z" />
    <glyph glyph-name="beta" unicode="&#x3b2;" horiz-adv-x="1147" 
d="M963 492c0 122.667 -37 225 -111 307s-165.333 123 -274 123h-74v86c102.667 0 182.5 27.5 239.5 82.5s85.5 132.5 85.5 232.5c0 90.667 -26.167 163.5 -78.5 218.5s-120.833 82.5 -205.5 82.5c-95.333 0 -169 -30.167 -221 -90.5s-78 -145.5 -78 -255.5v-786
c0 -128 33.833 -231 101.5 -309s155.167 -117 262.5 -117c103.333 0 188 39.5 254 118.5s99 181.5 99 307.5zM1055 494c0 -151.333 -41.168 -274.83 -123.501 -370.497s-187.5 -143.5 -315.5 -143.5c-85.333 0 -158.166 17.167 -218.499 51.5
s-110.833 87.166 -151.5 158.499v-722h-92v1804c0 136 35 243 105 321s165.333 117 286 117c112.667 0 203.667 -36 273 -108s104 -165 104 -279c0 -89.333 -19 -163.5 -57 -222.5s-93 -100.833 -165 -125.5c100 -14.667 184.167 -67.834 252.5 -159.501
s102.5 -198.834 102.5 -321.501z" />
    <glyph glyph-name="gamma" unicode="&#x3b3;" horiz-adv-x="887" 
d="M870 946l-381 -878v-600h-92v604l-381 874h103l325 -774l324 774h102z" />
    <glyph glyph-name="delta" unicode="&#x3b4;" horiz-adv-x="1120" 
d="M958 475c0 114.667 -38.168 211 -114.501 289s-170.5 117 -282.5 117s-206.5 -38.833 -283.5 -116.5s-115.5 -174.167 -115.5 -289.5c0 -114.667 38.833 -211.5 116.5 -290.5s171.834 -118.5 282.501 -118.5s204.5 39.5 281.5 118.5s115.5 175.833 115.5 290.5zM1051 477
c0 -138 -48 -255.332 -144 -351.999s-212.667 -145 -350 -145c-134.667 0 -249.5 48.333 -344.5 145s-142.5 214 -142.5 352c0 137.333 47.167 253.333 141.5 348s209.5 142 345.5 142c13.333 0 33.333 -1.33301 60 -4h6c-98.667 72.667 -174.667 150 -228 232
s-80 161.667 -80 239c0 88 28.167 152.667 84.5 194s144.5 62 264.5 62h43v-86h-43c-95.333 0 -161.833 -12.667 -199.5 -38s-56.5 -69.333 -56.5 -132c0 -68 26.5 -139.333 79.5 -214s132.167 -151.667 237.5 -231c122.667 -93.333 207.667 -177.333 255 -252
s71 -161.334 71 -260.001z" />
    <glyph glyph-name="epsilon" unicode="&#x3b5;" horiz-adv-x="770" 
d="M688 49c-54.667 -28 -101.169 -46.498 -139.502 -55.498s-83.166 -13.5 -134.499 -13.5c-99.333 0 -177.833 24.667 -235.5 74s-86.5 115.333 -86.5 198c0 58 15.667 108.833 47 152.5s74.333 74.167 129 91.5c-57.333 14 -101 39.833 -131 77.5s-45 84.834 -45 141.501
c0 79.333 27.833 141.166 83.5 185.499s133.834 66.5 234.501 66.5c50.667 0 99 -5.83301 145 -17.5s90.333 -29.167 133 -52.5v-94c-43.333 25.333 -88.333 44.666 -135 57.999s-94.334 20 -143.001 20c-68 0 -122.667 -15 -164 -45s-62 -70.333 -62 -121
c0 -60.667 22.667 -107.334 68 -140.001s113 -51.667 203 -57l-1 -41c-83.333 -4.66699 -149.166 -27.834 -197.499 -69.501s-72.5 -93.5 -72.5 -155.5c0 -53.333 21.667 -97.666 65 -132.999s97 -53 161 -53c53.333 0 102 6.33301 146 19s88 32.667 132 60v-96z" />
    <glyph glyph-name="zeta" unicode="&#x3b6;" horiz-adv-x="754" 
d="M733 -164c0 -47.333 -13.501 -94.001 -40.501 -140.001s-61.833 -82.667 -104.5 -110l-60 64c37.333 20.667 65.5 46.834 84.5 78.501s28.5 67.5 28.5 107.5c0 54.667 -16.167 95.667 -48.5 123s-80.166 41 -143.499 41c-118.667 0 -209.5 29.167 -272.5 87.5
s-94.5 142.5 -94.5 252.5c0 164 39.167 345.667 117.5 545s204.5 439 378.5 719h-404v86h559c-196 -306 -338.167 -564.5 -426.5 -775.5s-132.5 -399.167 -132.5 -564.5c0 -86 23.333 -151.5 70 -196.5s115 -67.5 205 -67.5c90.667 0 160.667 -22 210 -66
s74 -105.333 74 -184z" />
    <glyph glyph-name="eta" unicode="&#x3b7;" horiz-adv-x="1004" 
d="M850 -532l-91.999 0.000976562v1120c0 102.667 -18.167 177.167 -54.5 223.5s-95.5 69.5 -177.5 69.5c-96.667 0 -167.5 -34 -212.5 -102s-67.5 -176 -67.5 -324v-455h-92v946h92v-158c30 62.667 69 108.167 117 136.5s109.333 42.5 184 42.5
c93.333 0 167.166 -30.333 221.499 -91s81.5 -144.334 81.5 -251.001v-1157z" />
    <glyph glyph-name="theta" unicode="&#x3b8;" horiz-adv-x="1147" 
d="M967 854h-786.999c0 -239.333 35.167 -429.5 105.5 -570.5s166.166 -211.5 287.499 -211.5c124 0 220.667 69.5 290 208.5s104 330.167 104 573.5zM965.001 946c-8 212 -46.332 376.999 -114.999 494.999s-162.334 177 -281.001 177
c-111.333 0 -201.333 -60.667 -270 -182s-107.667 -284.666 -117 -489.999h783zM1065 843.999c0 -262 -44.834 -471.499 -134.501 -628.499s-210.167 -235.5 -361.5 -235.5c-144.667 0 -262 79.667 -352 239s-135 367.666 -135 624.999c0 260 44.667 469.333 134 628
s208.333 238 357 238s267.834 -79.167 357.501 -237.5s134.5 -367.833 134.5 -628.5z" />
    <glyph glyph-name="iota" unicode="&#x3b9;" horiz-adv-x="479" 
d="M287 0h-92v946h92v-946z" />
    <glyph glyph-name="kappa" unicode="&#x3ba;" horiz-adv-x="874" 
d="M874 0h-131l-497 516v-516h-92v946h92v-403l442 403h121l-457 -414z" />
    <glyph glyph-name="lambda" unicode="&#x3bb;" horiz-adv-x="942" 
d="M926 0h-103l-331 774l-373 -774h-103l424 879l-364 811h102z" />
    <glyph glyph-name="mu" unicode="&#x3bc;" horiz-adv-x="1004" 
d="M850 0h-92.001v150c-25.333 -59.333 -58.5 -102.5 -99.5 -129.5s-93.167 -40.5 -156.5 -40.5s-115.666 13.5 -156.999 40.5s-74.333 70.167 -99 129.5v-682h-92v1478h92v-454c0 -148 20.5 -256 61.5 -324s105.833 -102 194.5 -102c88 0 152.667 34 194 102s62 176 62 324
v454h92v-946z" />
    <glyph glyph-name="nu" unicode="&#x3bd;" horiz-adv-x="887" 
d="M870 946l-426 -983l-428 983h103l325 -774l324 774h102z" />
    <glyph glyph-name="xi" unicode="&#x3be;" horiz-adv-x="897" 
d="M836 -184c0 -45.333 -11.668 -89.1689 -35.001 -131.502s-53.333 -75.166 -90 -98.499l-60 64c30.667 23.333 53.667 49 69 77s23 57.667 23 89c0 61.333 -17.667 107.333 -53 138s-88.666 46 -159.999 46c-138 0 -245.5 38.333 -322.5 115s-115.5 185.667 -115.5 327
c0 118 36.5 220.833 109.5 308.5s162.167 139.167 267.5 154.5c-70 24 -122 57.667 -156 101s-51 97 -51 161c0 78 25 155.167 75 231.5s119.333 144.833 208 205.5h-334v86h580c-148.667 -91.333 -258.667 -179.666 -330 -264.999s-107 -169 -107 -251
c0 -74.667 28.333 -131.334 85 -170.001s138.334 -58 245.001 -58v-86h-74c-114.667 0 -214.334 -40.5 -299.001 -121.5s-127 -180.5 -127 -298.5c0 -116 29.5 -204 88.5 -264s144.833 -90 257.5 -90c98 0 173.5 -23.667 226.5 -71s79.5 -113.666 79.5 -198.999z" />
    <glyph glyph-name="omicron" unicode="&#x3bf;" horiz-adv-x="1120" 
d="M958 475c0 114.667 -38.168 211 -114.501 289s-170.5 117 -282.5 117s-206.5 -38.833 -283.5 -116.5s-115.5 -174.167 -115.5 -289.5c0 -114.667 38.833 -211.5 116.5 -290.5s171.834 -118.5 282.501 -118.5s204.5 39.5 281.5 118.5s115.5 175.833 115.5 290.5zM1051 477
c0 -138 -48 -255.333 -144 -352s-212.667 -145 -350 -145c-134.667 0 -249.5 48.333 -344.5 145s-142.5 214 -142.5 352c0 137.333 47.167 253.333 141.5 348s209.5 142 345.5 142c139.333 0 256.5 -47.167 351.5 -141.5s142.5 -210.5 142.5 -348.5z" />
    <glyph glyph-name="pi" unicode="&#x3c0;" horiz-adv-x="952" 
d="M799 0h-92v860h-461v-860h-92v946h645v-946z" />
    <glyph glyph-name="rho" unicode="&#x3c1;" horiz-adv-x="1147" 
d="M963 481c0 122.667 -32.5 220 -97.5 292s-152.167 108 -261.5 108s-196.333 -36 -261 -108s-97 -169.333 -97 -292c0 -126 33.5 -226.667 100.5 -302s154.833 -113 263.5 -113c104.667 0 189.667 38 255 114s98 176.333 98 301zM1055 483
c0 -150 -40.834 -271.333 -122.501 -364s-187.167 -139 -316.5 -139c-88.667 0 -162.667 16 -222 48s-108.666 82.667 -147.999 152v-712h-92v1015c0 144 42 260.667 126 350s192 134 324 134c132.667 0 241 -44.667 325 -134s126 -206 126 -350z" />
    <glyph glyph-name="sigma1" unicode="&#x3c2;" horiz-adv-x="938" 
d="M877 -184c0 -45.333 -11.6641 -89.166 -34.9971 -131.499s-53.333 -75.166 -90 -98.499l-60 64c30.667 23.333 53.667 49 69 77s23 57.667 23 89c0 53.333 -23.833 97.333 -71.5 132s-110.5 52 -188.5 52c-137.333 0 -247.333 43.667 -330 131s-124 202.666 -124 345.999
c0 147.333 46.667 265.833 140 355.5s216.666 134.5 369.999 134.5c50 0 97.667 -5.83301 143 -17.5s89.666 -29.167 132.999 -52.5v-94c-43.333 25.333 -88.333 44.666 -135 57.999s-94.334 20 -143.001 20c-130 0 -231.833 -36.5 -305.5 -109.5
s-110.5 -173.833 -110.5 -302.5c0 -114 33.5 -206.333 100.5 -277s156.167 -106 267.5 -106c104 0 187.833 -25 251.5 -75s95.5 -115 95.5 -195z" />
    <glyph glyph-name="sigma" unicode="&#x3c3;" horiz-adv-x="1130" 
d="M958 475c0 114.667 -38.168 211 -114.501 289s-170.5 117 -282.5 117s-206.5 -38.833 -283.5 -116.5s-115.5 -174.167 -115.5 -289.5c0 -114.667 38.833 -211.5 116.5 -290.5s171.834 -118.5 282.501 -118.5s204.5 39.5 281.5 118.5s115.5 175.833 115.5 290.5zM1120 860
l-252 0.000976562c58 -44.667 103 -100.5 135 -167.5s48 -138.833 48 -215.5c0 -138 -48 -255.333 -144 -352s-212.667 -145 -350 -145c-134.667 0 -249.5 48.333 -344.5 145s-142.5 214 -142.5 352c0 137.333 47.167 253.333 141.5 348s209.5 142 345.5 142
c27.333 0 53 -1.83301 77 -5.5s46.667 -8.83398 68 -15.501h418v-86z" />
    <glyph glyph-name="tau" unicode="&#x3c4;" horiz-adv-x="563" 
d="M553 860h-225v-860h-92v860h-226v86h543v-86z" />
    <glyph glyph-name="upsilon" unicode="&#x3c5;" horiz-adv-x="967" 
d="M813 391c0 -145.333 -26.168 -250.167 -78.501 -314.5s-136.166 -96.5 -251.499 -96.5c-114 0 -197.333 33 -250 99s-79 170 -79 312v555h92v-528c0 -126 17.5 -216.167 52.5 -270.5s96.5 -81.5 184.5 -81.5c90 0 152.167 26.667 186.5 80s51.5 144 51.5 272v528h92v-555
z" />
    <glyph glyph-name="phi" unicode="&#x3c6;" horiz-adv-x="1141" 
d="M979 475c0 106.667 -34.166 196 -102.499 268s-154.833 111.667 -259.5 119l-1 -776c105.333 8.66699 192.166 49.167 260.499 121.5s102.5 161.5 102.5 267.5zM1071 477c0 -129.333 -43 -238.838 -129 -328.505s-194.667 -139.167 -326 -148.5v-532h-92v532
c-138.667 8.66699 -249 55.834 -331 141.501s-123 197.5 -123 335.5c0 126 35 233.167 105 321.5s159.667 137.5 269 147.5v-88c-84 -7.33301 -152 -45.166 -204 -113.499s-78 -158.166 -78 -269.499s32.333 -201.666 97 -270.999s153 -108.666 265 -117.999v860h72
c136.667 0 250 -44.333 340 -133s135 -200.667 135 -336z" />
    <glyph glyph-name="chi" unicode="&#x3c7;" horiz-adv-x="813" 
d="M854 -532h-98l-355 706l-344 -706h-98l393 802l-336 676h99l293 -590l290 590h99l-340 -684z" />
    <glyph glyph-name="psi" unicode="&#x3c8;" horiz-adv-x="1362" 
d="M1229 545c0 -170 -44.167 -303.333 -132.5 -400s-211.5 -145 -369.5 -145v-532h-92v532c-158.667 0 -282 48.167 -370 144.5s-132 229.833 -132 400.5v401h92v-401c0 -144.667 35.833 -257.334 107.5 -338.001s172.5 -121 302.5 -121v860h92v-860
c130 0 230.833 40.333 302.5 121s107.5 193.334 107.5 338.001v401h92v-401z" />
    <glyph glyph-name="omega" unicode="&#x3c9;" horiz-adv-x="1315" 
d="M1202 416c0 -146 -23.998 -255.167 -71.998 -327.5s-120.333 -108.5 -217 -108.5c-66 0 -121.5 25.167 -166.5 75.5s-74.833 119.833 -89.5 208.5c-14 -88.667 -43.5 -158.167 -88.5 -208.5s-100.833 -75.5 -167.5 -75.5c-96 0 -168 36.167 -216 108.5
s-72 181.5 -72 327.5c0 88 11 183 33 285s49.667 183.667 83 245h86c-32 -64.667 -58.333 -145.667 -79 -243s-31 -187 -31 -269c0 -124.667 16 -217.167 48 -277.5s81.333 -90.5 148 -90.5c72 0 125.5 42.167 160.5 126.5s52.5 212.833 52.5 385.5v77h86v-77
c0 -172.667 17.667 -301.167 53 -385.5s88.666 -126.5 159.999 -126.5c66.667 0 116.167 30.167 148.5 90.5s48.5 152.833 48.5 277.5c0 82 -10.333 171.667 -31 269s-47.334 178.333 -80.001 243h86c34 -61.333 62 -143 84 -245s33 -197 33 -285z" />
    <glyph glyph-name="iotadieresis" unicode="&#x3ca;" horiz-adv-x="479" 
d="M287 0h-92v946h92v-946zM119 1206c0 -22.667 -7.66699 -41.667 -23 -57s-34.333 -23 -57 -23c-22 0 -40.667 7.66699 -56 23s-23 34.333 -23 57s7.66699 41.667 23 57s34 23 56 23c22.667 0 41.667 -7.66699 57 -23s23 -34.333 23 -57zM525 1206
c0 -22.667 -7.66699 -41.667 -23 -57s-34.333 -23 -57 -23s-41.667 7.66699 -57 23s-23 34.333 -23 57s7.66699 41.667 23 57s34.333 23 57 23s41.667 -7.66699 57 -23s23 -34.333 23 -57z" />
    <glyph glyph-name="upsilondieresis" unicode="&#x3cb;" horiz-adv-x="967" 
d="M813 391c0 -145.333 -26.168 -250.167 -78.501 -314.5s-136.166 -96.5 -251.499 -96.5c-114 0 -197.333 33 -250 99s-79 170 -79 312v555h92v-528c0 -126 17.5 -216.167 52.5 -270.5s96.5 -81.5 184.5 -81.5c90 0 152.167 26.667 186.5 80s51.5 144 51.5 272v528h92v-555
zM361.999 1206c0 -22.667 -7.66699 -41.667 -23 -57s-34.333 -23 -57 -23c-22 0 -40.667 7.66699 -56 23s-23 34.333 -23 57s7.66699 41.667 23 57s34 23 56 23c22.667 0 41.667 -7.66699 57 -23s23 -34.333 23 -57zM767.999 1206c0 -22.667 -7.66699 -41.667 -23 -57
s-34.333 -23 -57 -23s-41.667 7.66699 -57 23s-23 34.333 -23 57s7.66699 41.667 23 57s34.333 23 57 23s41.667 -7.66699 57 -23s23 -34.333 23 -57z" />
    <glyph glyph-name="omicrontonos" unicode="&#x3cc;" horiz-adv-x="1120" 
d="M958 475c0 114.667 -38.168 211 -114.501 289s-170.5 117 -282.5 117s-206.5 -38.833 -283.5 -116.5s-115.5 -174.167 -115.5 -289.5c0 -114.667 38.833 -211.5 116.5 -290.5s171.834 -118.5 282.501 -118.5s204.5 39.5 281.5 118.5s115.5 175.833 115.5 290.5zM1051 477
c0 -138 -48 -255.333 -144 -352s-212.667 -145 -350 -145c-134.667 0 -249.5 48.333 -344.5 145s-142.5 214 -142.5 352c0 137.333 47.167 253.333 141.5 348s209.5 142 345.5 142c139.333 0 256.5 -47.167 351.5 -141.5s142.5 -210.5 142.5 -348.5zM603.999 1436l-8 -369
h-69l-9 369h86z" />
    <glyph glyph-name="upsilontonos" unicode="&#x3cd;" horiz-adv-x="967" 
d="M813 391c0 -145.333 -26.168 -250.167 -78.501 -314.5s-136.166 -96.5 -251.499 -96.5c-114 0 -197.333 33 -250 99s-79 170 -79 312v555h92v-528c0 -126 17.5 -216.167 52.5 -270.5s96.5 -81.5 184.5 -81.5c90 0 152.167 26.667 186.5 80s51.5 144 51.5 272v528h92v-555
zM525.999 1436l-8 -369h-69l-9 369h86z" />
    <glyph glyph-name="omegatonos" unicode="&#x3ce;" horiz-adv-x="1315" 
d="M1202 416c0 -146 -23.998 -255.167 -71.998 -327.5s-120.333 -108.5 -217 -108.5c-66 0 -121.5 25.167 -166.5 75.5s-74.833 119.833 -89.5 208.5c-14 -88.667 -43.5 -158.167 -88.5 -208.5s-100.833 -75.5 -167.5 -75.5c-96 0 -168 36.167 -216 108.5
s-72 181.5 -72 327.5c0 88 11 183 33 285s49.667 183.667 83 245h86c-32 -64.667 -58.333 -145.667 -79 -243s-31 -187 -31 -269c0 -124.667 16 -217.167 48 -277.5s81.333 -90.5 148 -90.5c72 0 125.5 42.167 160.5 126.5s52.5 212.833 52.5 385.5v77h86v-77
c0 -172.667 17.667 -301.167 53 -385.5s88.666 -126.5 159.999 -126.5c66.667 0 116.167 30.167 148.5 90.5s48.5 152.833 48.5 277.5c0 82 -10.333 171.667 -31 269s-47.334 178.333 -80.001 243h86c34 -61.333 62 -143 84 -245s33 -197 33 -285zM700.002 1436l-8 -369h-69
l-9 369h86z" />
    <glyph glyph-name="afii10023" unicode="&#x401;" horiz-adv-x="1038" 
d="M901 0h-727v1544h727v-92h-629v-543h629v-92h-629v-725h629v-92zM428 1747c0 -22.667 -7.66699 -41.667 -23 -57s-34.333 -23 -57 -23s-41.667 7.66699 -57 23s-23 34.333 -23 57s7.66699 41.667 23 57s34.333 23 57 23s41.667 -7.66699 57 -23s23 -34.333 23 -57z
M813 1747c0 -22.667 -7.66699 -41.667 -23 -57s-34.333 -23 -57 -23s-41.667 7.66699 -57 23s-23 34.333 -23 57s7.66699 41.667 23 57s34.333 23 57 23s41.667 -7.66699 57 -23s23 -34.333 23 -57z" />
    <glyph glyph-name="afii10051" unicode="&#x402;" horiz-adv-x="1458" 
d="M1393 473c0 -141.333 -44.832 -258.832 -134.499 -352.499s-202.5 -140.5 -338.5 -140.5v92c108.667 0 198.5 37.833 269.5 113.5s106.5 171.5 106.5 287.5c0 127.333 -36.5 226 -109.5 296s-174.833 105 -305.5 105c-77.333 0 -154.5 -16.167 -231.5 -48.5
s-137.833 -72.5 -182.5 -120.5v-705h-98v1452h-349v92h836v-92h-389v-641c34 37.333 91.667 72.666 173 105.999s161.666 50 240.999 50c157.333 0 282 -44 374 -132s138 -208.667 138 -362z" />
    <glyph glyph-name="afii10052" unicode="&#x403;" horiz-adv-x="772" 
d="M752 1452h-480v-1452h-98v1544h578v-92zM576 1954l-236 -309l-53 40l223 318z" />
    <glyph glyph-name="afii10053" unicode="&#x404;" horiz-adv-x="1513" 
d="M1391 117c-70 -43.333 -147.669 -76.999 -233.002 -100.999s-168.333 -36 -249 -36c-233.333 0 -424.666 73.833 -573.999 221.5s-224 338.5 -224 572.5c0 228.667 75.667 417.667 227 567s341.666 224 570.999 224c94 0 180.833 -12.667 260.5 -38
s153.5 -63.333 221.5 -114v-113c-75.333 59.333 -150.666 103 -225.999 131s-155.666 42 -240.999 42c-200 0 -365.5 -59 -496.5 -177s-203.167 -273 -216.5 -465h895v-92h-897c8 -196.667 77.167 -357 207.5 -481s292.5 -186 486.5 -186c86 0 170.667 13.667 254 41
s161.333 66.666 234 117.999v-114z" />
    <glyph glyph-name="afii10054" unicode="&#x405;" horiz-adv-x="1114" 
d="M975 412c0 -131.333 -42.335 -236.163 -127.002 -314.496s-196.667 -117.5 -336 -117.5c-97.333 0 -182.333 24.5 -255 73.5s-125.667 117.833 -159 206.5l84 43c26.667 -72.667 69.834 -129.334 129.501 -170.001s129.167 -61 208.5 -61
c110.667 0 197.834 30.167 261.501 90.5s95.5 143.5 95.5 249.5c0 79.333 -25.667 148 -77 206s-135.666 114.667 -252.999 170c-146 68 -246.667 131.667 -302 191s-83 138.666 -83 237.999c0 103.333 35.833 187.166 107.5 251.499s165.5 96.5 281.5 96.5
c70.667 0 132.667 -14.167 186 -42.5s97.666 -70.833 132.999 -127.5l-77 -56c-26.667 43.333 -61.667 76.5 -105 99.5s-92.333 34.5 -147 34.5c-87.333 0 -156 -23 -206 -69s-75 -109.333 -75 -190c0 -64 16.333 -116.833 49 -158.5s90.667 -84.834 174 -129.501
c22 -12 55.333 -29 100 -51c261.333 -128.667 392 -283 392 -463z" />
    <glyph glyph-name="afii10055" unicode="&#x406;" horiz-adv-x="430" 
d="M264 0h-98v1544h98v-1544z" />
    <glyph glyph-name="afii10056" unicode="&#x407;" horiz-adv-x="430" 
d="M264 0h-98v1544h98v-1544zM123 1747c0 -22.667 -7.66699 -41.667 -23 -57s-34.333 -23 -57 -23s-41.667 7.66699 -57 23s-23 34.333 -23 57s7.66699 41.667 23 57s34.333 23 57 23s41.667 -7.66699 57 -23s23 -34.333 23 -57zM467 1747
c0 -22.667 -7.66699 -41.667 -23 -57s-34.333 -23 -57 -23s-41.667 7.66699 -57 23s-23 34.333 -23 57s7.66699 41.667 23 57s34.333 23 57 23s41.667 -7.66699 57 -23s23 -34.333 23 -57z" />
    <glyph glyph-name="afii10057" unicode="&#x408;" horiz-adv-x="446" 
d="M283 49c0 -127.333 -22.165 -222 -66.498 -284s-111.833 -93 -202.5 -93c-58 0 -109.333 13.5 -154 40.5s-80.667 66.167 -108 117.5l80 55c19.333 -38.667 44.666 -68.5 75.999 -89.5s66.666 -31.5 105.999 -31.5c68 0 113.333 23.333 136 70s34 128 34 244v1466h99
v-1495z" />
    <glyph glyph-name="afii10058" unicode="&#x409;" horiz-adv-x="1669" 
d="M1466 424c0 116 -34.667 200.667 -104 254s-179.333 80 -330 80h-237v-666h237c157.333 0 269 25.667 335 77s99 136.333 99 255zM1565 424c0 -144 -43.332 -250.667 -129.999 -320s-220.334 -104 -401.001 -104h-338v1452h-393v-901
c0 -229.333 -21.5 -381.833 -64.5 -457.5s-132.833 -113.5 -269.5 -113.5v92c104 0 169.333 30.167 196 90.5s40 195.833 40 406.5v975h590v-694h237c178 0 311.333 -35.5 400 -106.5s133 -177.5 133 -319.5z" />
    <glyph glyph-name="afii10059" unicode="&#x40a;" horiz-adv-x="1946" 
d="M1774 451c0 119.333 -37.333 209.167 -112 269.5s-185.667 90.5 -333 90.5h-227v-719h227c152 0 264.167 29.167 336.5 87.5s108.5 148.833 108.5 271.5zM1872 451.001c0 -147.333 -46.167 -259.333 -138.5 -336s-226.5 -115 -402.5 -115h-327v811h-732v-811h-98v1544h98
v-641h732v641h98v-641h227c174 0 308 -39 402 -117s141 -189.667 141 -335z" />
    <glyph glyph-name="afii10060" unicode="&#x40b;" horiz-adv-x="1536" 
d="M1393 0l-99 0.00195312v399c0 166.667 -32.833 287.5 -98.5 362.5s-170.5 112.5 -314.5 112.5c-77.333 0 -154.5 -16.167 -231.5 -48.5s-137.833 -72.5 -182.5 -120.5v-705h-98v1452h-349v92h795v-92h-348v-641c34.667 39.333 94.167 75.166 178.5 107.499
s162.833 48.5 235.5 48.5c174.667 0 303.667 -48.333 387 -145s125 -246.334 125 -449.001v-373z" />
    <glyph glyph-name="afii10061" unicode="&#x40c;" horiz-adv-x="1165" 
d="M1178 0h-142l-764 795v-795h-98v1544h98v-733l744 733h127l-754 -737zM772 1954l-236 -309l-53 40l223 318z" />
    <glyph glyph-name="afii10062" unicode="&#x40e;" horiz-adv-x="1051" 
d="M1071 1544l-756 -1544h-104l326 662l-547 882h106l490 -788l381 788h104zM807 1909c-14 -80.667 -45.499 -143.167 -94.499 -187.5s-111.167 -66.5 -186.5 -66.5c-74.667 0 -136.834 22.167 -186.501 66.5s-81.5 106.833 -95.5 187.5l90 18
c15.333 -67.333 38.5 -116.166 69.5 -146.499s71.833 -45.5 122.5 -45.5c51.333 0 92.333 15.167 123 45.5s54 79.166 70 146.499z" />
    <glyph glyph-name="afii10145" unicode="&#x40f;" horiz-adv-x="1466" 
d="M1292 0h-510v-328h-98v328h-510v1544h98v-1452h922v1452h98v-1544z" />
    <glyph glyph-name="afii10017" unicode="&#x410;" horiz-adv-x="1313" 
d="M942 629l-285 721l-284 -721h569zM1296 0h-104l-213 537h-643l-213 -537h-105l639 1581z" />
    <glyph glyph-name="afii10018" unicode="&#x411;" horiz-adv-x="1157" 
d="M954 424c0 116 -34.667 200.667 -104 254s-179.333 80 -330 80h-237v-666h237c157.333 0 269 25.667 335 77s99 136.333 99 255zM1053 424c0 -144 -43.332 -250.667 -129.999 -320s-220.334 -104 -401.001 -104h-338v1544h631v-92h-532v-602h237
c178 0 311.333 -35.5 400 -106.5s133 -177.5 133 -319.5z" />
    <glyph glyph-name="afii10019" unicode="&#x412;" horiz-adv-x="1157" 
d="M954 414c0 112 -40 197.333 -120 256s-197 88 -351 88h-200v-666h237c155.333 0 266.5 26 333.5 78s100.5 133.333 100.5 244zM877 1143c0 109.333 -30.332 188.167 -90.999 236.5s-160.334 72.5 -299.001 72.5h-204v-602h163c150 0 259.333 23.333 328 70
s103 121 103 223zM1053 424.001c0 -144 -43.3311 -250.667 -129.998 -320s-220.334 -104 -401.001 -104h-338v1544h316c158 0 276.667 -32.5 356 -97.5s119 -162.833 119 -293.5c0 -97.333 -23.5 -173.5 -70.5 -228.5s-120.5 -94.833 -220.5 -119.5
c117.333 -16.667 208.166 -58.667 272.499 -126s96.5 -152.333 96.5 -255z" />
    <glyph glyph-name="afii10020" unicode="&#x413;" horiz-adv-x="772" 
d="M752 1452h-480v-1452h-98v1544h578v-92z" />
    <glyph glyph-name="afii10021" unicode="&#x414;" horiz-adv-x="1343" 
d="M1071 92v1360h-747v-881c0 -141.333 -6.5 -248.166 -19.5 -320.499s-34.5 -125.166 -64.5 -158.499h831zM1300 -328.002l-98 0.000976562v328h-1114v-328h-98v420c104 0 169.167 30.167 195.5 90.5s39.5 196.166 39.5 407.499v954h944v-1452h131v-420z" />
    <glyph glyph-name="afii10022" unicode="&#x415;" horiz-adv-x="1038" 
d="M901 0h-727v1544h727v-92h-629v-543h629v-92h-629v-725h629v-92z" />
    <glyph glyph-name="afii10024" unicode="&#x416;" horiz-adv-x="1884" 
d="M1896 0h-141l-764 795v-795h-98v795l-764 -795h-141l788 807l-753 737h127l743 -733v733h98v-733l744 733h127l-754 -737z" />
    <glyph glyph-name="afii10025" unicode="&#x417;" horiz-adv-x="1153" 
d="M1038 414c0 -142.667 -44.001 -250.668 -132.001 -324.001s-217.333 -110 -388 -110c-56.667 0 -120.5 9.33301 -191.5 28s-138.833 44 -203.5 76v104c76.667 -39.333 147.334 -68.5 212.001 -87.5s125 -28.5 181 -28.5c143.333 0 249.833 27.333 319.5 82
s104.5 137.667 104.5 249c0 117.333 -37.667 205.833 -113 265.5s-188 89.5 -338 89.5h-118v92h102c147.333 0 255.833 24.5 325.5 73.5s104.5 125.5 104.5 229.5c0 98.667 -31.333 176.667 -94 234s-150 86 -262 86c-62 0 -127.667 -10.833 -197 -32.5
s-134.666 -51.167 -195.999 -88.5v106c53.333 32 115.666 57.833 186.999 77.5s140 29.5 206 29.5c142 0 253.167 -36 333.5 -108s120.5 -170 120.5 -294c0 -101.333 -23 -180.666 -69 -237.999s-117.667 -98 -215 -122c100 -14 178.5 -56.333 235.5 -127
s85.5 -158 85.5 -262z" />
    <glyph glyph-name="afii10026" unicode="&#x418;" horiz-adv-x="1726" 
d="M1542 0h-98v1331l-1260 -1368v1581h99v-1333l1259 1370v-1581z" />
    <glyph glyph-name="afii10027" unicode="&#x419;" horiz-adv-x="1726" 
d="M1145 1868c-14 -80.667 -45.499 -143.167 -94.499 -187.5s-111.167 -66.5 -186.5 -66.5c-74.667 0 -136.834 22.167 -186.501 66.5s-81.5 106.833 -95.5 187.5l90 18c15.333 -67.333 38.5 -116.166 69.5 -146.499s71.833 -45.5 122.5 -45.5
c51.333 0 92.333 15.167 123 45.5s54 79.166 70 146.499zM1542 0h-98v1331l-1260 -1368v1581h99v-1333l1259 1370v-1581z" />
    <glyph glyph-name="afii10028" unicode="&#x41a;" horiz-adv-x="1165" 
d="M1178 0h-142l-764 795v-795h-98v1544h98v-733l744 733h127l-754 -737z" />
    <glyph glyph-name="afii10029" unicode="&#x41b;" horiz-adv-x="1323" 
d="M1149 0h-98v1452h-748v-901c0 -229.333 -21.5 -381.833 -64.5 -457.5s-132.833 -113.5 -269.5 -113.5v92c104 0 169.333 30.167 196 90.5s40 195.833 40 406.5v975h944v-1544z" />
    <glyph glyph-name="afii10030" unicode="&#x41c;" horiz-adv-x="1837" 
d="M1739 0h-105l-149 1233l-565 -1266l-568 1266l-149 -1233h-105l205 1581l617 -1395l614 1397z" />
    <glyph glyph-name="afii10031" unicode="&#x41d;" horiz-adv-x="1466" 
d="M1292 0h-98v811h-922v-811h-98v1544h98v-641h922v641h98v-1544z" />
    <glyph glyph-name="afii10032" unicode="&#x41e;" horiz-adv-x="1749" 
d="M1573 772c0 196.667 -67.8311 362.667 -203.498 498s-301.5 203 -497.5 203c-194.667 0 -359.334 -67.667 -494.001 -203s-202 -301.333 -202 -498s67.167 -362.5 201.5 -497.5s299.166 -202.5 494.499 -202.5c196 0 361.833 67.667 497.5 203s203.5 301 203.5 497z
M1671 772c0 -220.667 -77.667 -407.834 -233 -561.501s-344 -230.5 -566 -230.5c-220 0 -407.333 76.833 -562 230.5s-232 340.834 -232 561.501c0 225.333 76 413.833 228 565.5s340.667 227.5 566 227.5c226 0 415.667 -75.833 569 -227.5s230 -340.167 230 -565.5z" />
    <glyph glyph-name="afii10033" unicode="&#x41f;" horiz-adv-x="1466" 
d="M1292 0h-98v1452h-922v-1452h-98v1544h1118v-1544z" />
    <glyph glyph-name="afii10034" unicode="&#x420;" horiz-adv-x="967" 
d="M786 1133c0 110.667 -33.667 191.499 -101 242.499s-178.333 76.5 -333 76.5h-80v-631h80c156.667 0 268.167 24.333 334.5 73s99.5 128.334 99.5 239.001zM885 1133c0 -138 -43.167 -239.833 -129.5 -305.5s-220.833 -98.5 -403.5 -98.5h-80v-729h-98v1544h178
c186 0 321.333 -33.5 406 -100.5s127 -170.5 127 -310.5z" />
    <glyph glyph-name="afii10035" unicode="&#x421;" horiz-adv-x="1513" 
d="M1391 117c-70 -43.333 -147.669 -76.999 -233.002 -100.999s-168.333 -36 -249 -36c-233.333 0 -424.666 73.833 -573.999 221.5s-224 338.5 -224 572.5c0 228.667 75.667 417.667 227 567s341.666 224 570.999 224c94 0 180.833 -12.667 260.5 -38
s153.5 -63.333 221.5 -114v-113c-75.333 59.333 -150.666 103 -225.999 131s-155.666 42 -240.999 42c-210 0 -381.667 -65 -515 -195s-200 -298 -200 -504s65.5 -374.5 196.5 -505.5s296.833 -196.5 497.5 -196.5c86 0 170.667 13.667 254 41s161.333 66.666 234 117.999
v-114z" />
    <glyph glyph-name="afii10036" unicode="&#x422;" horiz-adv-x="922" 
d="M881 1452h-371v-1452h-98v1452h-371v92h840v-92z" />
    <glyph glyph-name="afii10037" unicode="&#x423;" horiz-adv-x="1051" 
d="M1071 1544l-756 -1544h-104l326 662l-547 882h106l490 -788l381 788h104z" />
    <glyph glyph-name="afii10038" unicode="&#x424;" horiz-adv-x="1503" 
d="M702 274v1024c-159.333 0 -286.166 -45.833 -380.499 -137.5s-141.5 -216.5 -141.5 -374.5s47.167 -282.833 141.5 -374.5s221.166 -137.5 380.499 -137.5zM1323 786c0 158 -46.999 282.833 -140.999 374.5s-221 137.5 -381 137.5v-1024
c159.333 0 286.166 45.833 380.499 137.5s141.5 216.5 141.5 374.5zM1421 786c0 -184.667 -55.667 -331.5 -167 -440.5s-262.333 -163.5 -453 -163.5v-182h-99v182c-190.667 0 -341.667 54.5 -453 163.5s-167 255.833 -167 440.5c0 183.333 56 330 168 440
s262.667 165 452 165v153h99v-153c189.333 0 340 -55 452 -165s168 -256.667 168 -440z" />
    <glyph glyph-name="afii10039" unicode="&#x425;" horiz-adv-x="1012" 
d="M967 0h-107l-358 715l-348 -715h-107l402 821l-363 723h107l317 -631l317 631h107l-371 -737z" />
    <glyph glyph-name="afii10040" unicode="&#x426;" horiz-adv-x="1466" 
d="M1346 -328h-99v328h-1073v1544h98v-1452h922v1452h98v-1452h54v-420z" />
    <glyph glyph-name="afii10041" unicode="&#x427;" horiz-adv-x="1341" 
d="M1167 0l-98 -0.00195312v709c-34.667 -39.333 -94.167 -75.166 -178.5 -107.499s-162.833 -48.5 -235.5 -48.5c-180 0 -310.333 46.333 -391 139s-121 244.334 -121 455.001v397h99v-424c0 -166.667 32.833 -287.5 98.5 -362.5s170.5 -112.5 314.5 -112.5
c77.333 0 154.5 16.333 231.5 49s137.833 73 182.5 121v729h98v-1544z" />
    <glyph glyph-name="afii10042" unicode="&#x428;" horiz-adv-x="1839" 
d="M1665 0h-1491v1544h98v-1452h598v1452h99v-1452h598v1452h98v-1544z" />
    <glyph glyph-name="afii10043" unicode="&#x429;" horiz-adv-x="1839" 
d="M1718 -328h-98v328h-1446v1544h98v-1452h598v1452h99v-1452h598v1452h98v-1452h53v-420z" />
    <glyph glyph-name="afii10044" unicode="&#x42a;" horiz-adv-x="1362" 
d="M1159 451c0 119.333 -37.168 209.167 -111.501 269.5s-185.166 90.5 -332.499 90.5h-228v-719h228c152 0 264 29.167 336 87.5s108 148.833 108 271.5zM1257 451.001c0 -147.333 -46 -259.333 -138 -336s-226 -115 -402 -115h-328v1452h-491v92h589v-641h228
c173.333 0 307 -39 401 -117s141 -189.667 141 -335z" />
    <glyph glyph-name="afii10045" unicode="&#x42b;" horiz-adv-x="1602" 
d="M954 451c0 119.333 -37.168 209.167 -111.501 269.5s-185.166 90.5 -332.499 90.5h-227v-719h227c152 0 264 29.167 336 87.5s108 148.833 108 271.5zM1053 451.001c0 -147.333 -46.166 -259.333 -138.499 -336s-226.5 -115 -402.5 -115h-328v1544h99v-641h227
c173.333 0 307.166 -39 401.499 -117s141.5 -189.667 141.5 -335zM1417 0.000976562h-98v1544h98v-1544z" />
    <glyph glyph-name="afii10046" unicode="&#x42c;" horiz-adv-x="1157" 
d="M954 451c0 119.333 -37.168 209.167 -111.501 269.5s-185.166 90.5 -332.499 90.5h-227v-719h227c152 0 264 29.167 336 87.5s108 148.833 108 271.5zM1053 451.001c0 -147.333 -46.166 -259.333 -138.499 -336s-226.5 -115 -402.5 -115h-328v1544h99v-641h227
c173.333 0 307.166 -39 401.499 -117s141.5 -189.667 141.5 -335z" />
    <glyph glyph-name="afii10047" unicode="&#x42d;" horiz-adv-x="1513" 
d="M1403 774c0 -234 -74.667 -424.834 -224 -572.501s-341 -221.5 -575 -221.5c-80.667 0 -163.667 12 -249 36s-162.666 57.667 -231.999 101v114c72 -51.333 149.833 -90.666 233.5 -117.999s168.167 -41 253.5 -41c194.667 0 357.167 62 487.5 186
s199.5 284.333 207.5 481h-897v92h895c-14 192 -86.5 347 -217.5 465s-296.167 177 -495.5 177c-85.333 0 -165.833 -14 -241.5 -42s-150.834 -71.667 -225.501 -131v113c67.333 50.667 140.833 88.667 220.5 114s166.5 38 260.5 38c229.333 0 419.833 -74.667 571.5 -224
s227.5 -338.333 227.5 -567z" />
    <glyph glyph-name="afii10048" unicode="&#x42e;" horiz-adv-x="2273" 
d="M2101 772c0 193.333 -67.833 358.5 -203.5 495.5s-299.167 205.5 -490.5 205.5s-354.833 -68.5 -490.5 -205.5s-203.5 -302.167 -203.5 -495.5s67.833 -358.333 203.5 -495s299.167 -205 490.5 -205s354.833 68.333 490.5 205s203.5 301.667 203.5 495zM2200 772
c0 -219.333 -77.333 -406.166 -232 -560.499s-341.667 -231.5 -561 -231.5s-406.333 77.167 -561 231.5s-232 341.166 -232 560.499v39h-342v-811h-98v1544h98v-641h353c32 190 121.833 347.833 269.5 473.5s318.5 188.5 512.5 188.5c219.333 0 406.333 -77.333 561 -232
s232 -341.667 232 -561z" />
    <glyph glyph-name="afii10049" unicode="&#x42f;" horiz-adv-x="999" 
d="M727 854v598h-127c-132 0 -230.833 -25.833 -296.5 -77.5s-98.5 -129.5 -98.5 -233.5c0 -99.333 31.833 -172 95.5 -218s163.5 -69 299.5 -69h127zM825 0h-98.002v762h-35l-538 -762h-123l549 762c-151.333 0 -268.166 33 -350.499 99s-123.5 158 -123.5 276
c0 130 42.333 230.333 127 301s206.334 106 365.001 106h227v-1544z" />
    <glyph glyph-name="afii10065" unicode="&#x430;" horiz-adv-x="1147" 
d="M901 475c0 124.667 -33.167 223.5 -99.5 296.5s-154.5 109.5 -264.5 109.5c-104.667 0 -189.667 -38.167 -255 -114.5s-98 -176.833 -98 -301.5c0 -122 33.167 -219 99.5 -291s154.833 -108 265.5 -108c107.333 0 192.833 37 256.5 111s95.5 173.333 95.5 298zM993 0
l-92.001 -0.000976562v180c-42.667 -68.667 -93.5 -119.167 -152.5 -151.5s-129.5 -48.5 -211.5 -48.5c-132 0 -239.167 44.333 -321.5 133s-123.5 205.334 -123.5 350.001c0 150 40.833 271.5 122.5 364.5s186.834 139.5 315.501 139.5c93.333 0 168.5 -15.5 225.5 -46.5
s105.5 -82.5 145.5 -154.5v180h92v-946z" />
    <glyph glyph-name="afii10066" unicode="&#x431;" horiz-adv-x="1120" 
d="M958 475c0 114.667 -38.166 211 -114.499 289s-170.5 117 -282.5 117c-114.667 0 -209.834 -36.167 -285.501 -108.5s-113.5 -164.5 -113.5 -276.5c0 -122 38.5 -224.167 115.5 -306.5s171.5 -123.5 283.5 -123.5c110.667 0 204.5 39.5 281.5 118.5
s115.5 175.833 115.5 290.5zM1051 477c0 -138 -48.001 -255.333 -144.001 -352s-212.667 -145 -350 -145c-144.667 0 -262 48.833 -352 146.5s-135 228.167 -135 391.5c0 222.667 40 399.5 120 530.5s207 230.167 381 297.5c93.333 35.333 168 85 224 149s84 129 84 195h86
c0 -82.667 -34 -163.5 -102 -242.5s-159 -140.833 -273 -185.5c-112 -43.333 -203.667 -105.333 -275 -186s-115.666 -173.667 -132.999 -279c42.667 54 96.667 95.833 162 125.5s136.333 44.5 213 44.5c139.333 0 256.5 -47.167 351.5 -141.5s142.5 -210.5 142.5 -348.5z
" />
    <glyph glyph-name="afii10067" unicode="&#x432;" horiz-adv-x="834" 
d="M647 262c0 62 -24.167 109 -72.5 141s-119.833 48 -214.5 48h-114v-369h139c93.333 0 160.333 14.5 201 43.5s61 74.5 61 136.5zM598 694c0 60 -18 102.667 -54 128s-96.667 38 -182 38h-116v-323h92c92 0 158.333 12.167 199 36.5s61 64.5 61 120.5zM739 268
c0 -89.333 -29.5 -156.334 -88.5 -201.001s-147.5 -67 -265.5 -67h-231v946h217c105.333 0 184.833 -20.667 238.5 -62s80.5 -102.666 80.5 -183.999c0 -52 -11.5 -94.333 -34.5 -127s-58.5 -57.667 -106.5 -75c60.667 -17.333 107.5 -46 140.5 -86s49.5 -88 49.5 -144z" />
    <glyph glyph-name="afii10068" unicode="&#x433;" horiz-adv-x="584" 
d="M563 860h-317v-860h-92v946h409v-86z" />
    <glyph glyph-name="afii10069" unicode="&#x434;" horiz-adv-x="952" 
d="M799 86l108 -0.000976562v-414h-92v328h-696v-328h-92v414c64 0 108 19.333 132 58s36 107.334 36 206.001v596h604v-860zM229 85.999l478 -0.000976562v774h-420v-504c0 -62 -4.66699 -115.167 -14 -159.5s-24 -81.166 -44 -110.499z" />
    <glyph glyph-name="afii10070" unicode="&#x435;" horiz-adv-x="1044" 
d="M864 566c-6 94 -40.168 170 -102.501 228s-142.166 87 -239.499 87c-90.667 0 -168.167 -29.167 -232.5 -87.5s-100.833 -134.5 -109.5 -228.5zM962.999 479h-789.001c2 -132.667 33.333 -234.667 94 -306s145.334 -107 254.001 -107c77.333 0 143.666 17 198.999 51
s101 85.667 137 155l80 -41c-46.667 -86 -103.667 -149.333 -171 -190s-149 -61 -245 -61c-137.333 0 -245 44.667 -323 134s-117 211 -117 365c0 142.667 41.667 259.667 125 351s188.333 137 315 137c132.667 0 239.334 -41.667 320.001 -125s121 -195.333 121 -336v-27z
" />
    <glyph glyph-name="afii10072" unicode="&#x436;" horiz-adv-x="1350" 
d="M1350 0h-131l-498 496v-496h-92v496l-498 -496h-131l522 512l-477 434h121l463 -424v424h92v-424l463 424h121l-478 -434z" />
    <glyph glyph-name="afii10073" unicode="&#x437;" horiz-adv-x="770" 
d="M678 252c0 -82.667 -28.835 -148.669 -86.502 -198.002s-136.167 -74 -235.5 -74c-51.333 0 -96.166 4.5 -134.499 13.5s-84.833 27.5 -139.5 55.5v96c44 -27.333 88 -47.333 132 -60s92.667 -19 146 -19c64 0 117.667 17.667 161 53s65 79.666 65 132.999
c0 62 -24.167 113.833 -72.5 155.5s-114.166 64.834 -197.499 69.501l-1 41c90 5.33301 157.667 24.333 203 57s68 79.334 68 140.001c0 50.667 -20.667 91 -62 121s-96 45 -164 45c-48.667 0 -96.334 -6.66699 -143.001 -20s-91.667 -32.666 -135 -57.999v94
c42.667 23.333 87 40.833 133 52.5s94.333 17.5 145 17.5c100.667 0 178.834 -22.167 234.501 -66.5s83.5 -106.166 83.5 -185.499c0 -56.667 -15 -103.834 -45 -141.501s-73.667 -63.5 -131 -77.5c54.667 -17.333 97.667 -47.833 129 -91.5s47 -94.5 47 -152.5z" />
    <glyph glyph-name="afii10074" unicode="&#x438;" horiz-adv-x="1116" 
d="M963 0h-93v754l-716 -791v983h92v-753l717 790v-983z" />
    <glyph glyph-name="afii10075" unicode="&#x439;" horiz-adv-x="1116" 
d="M840 1311c-14 -80.667 -45.668 -143.167 -95.001 -187.5s-111.333 -66.5 -186 -66.5c-75.333 0 -137.666 22.167 -186.999 66.5s-81.333 106.833 -96 187.5l91 18c15.333 -67.333 38.5 -116.166 69.5 -146.499s71.833 -45.5 122.5 -45.5c51.333 0 92.333 15.167 123 45.5
s54 79.166 70 146.499zM962.999 0h-93v754l-716 -791v983h92v-753l717 790v-983z" />
    <glyph glyph-name="afii10076" unicode="&#x43a;" horiz-adv-x="874" 
d="M874 0h-131l-497 496v-496h-92v946h92v-424l463 424h120l-477 -434z" />
    <glyph glyph-name="afii10077" unicode="&#x43b;" horiz-adv-x="973" 
d="M819 0l-92.001 0.000976562v860h-461v-524c0 -126.667 -19.5 -217.667 -58.5 -273s-106.167 -83 -201.5 -83v86c64.667 0 108.834 19.167 132.501 57.5s35.5 107.166 35.5 206.499v616h645v-946z" />
    <glyph glyph-name="afii10078" unicode="&#x43c;" horiz-adv-x="1159" 
d="M1053 0h-95l-92 649l-286 -682l-287 682l-92 -649h-95l148 983l326 -797l325 797z" />
    <glyph glyph-name="afii10079" unicode="&#x43d;" horiz-adv-x="952" 
d="M799 0h-92v471h-461v-471h-92v946h92v-389h461v389h92v-946z" />
    <glyph glyph-name="afii10080" unicode="&#x43e;" horiz-adv-x="1120" 
d="M958 475c0 114.667 -38.168 211 -114.501 289s-170.5 117 -282.5 117s-206.5 -38.833 -283.5 -116.5s-115.5 -174.167 -115.5 -289.5c0 -114.667 38.833 -211.5 116.5 -290.5s171.834 -118.5 282.501 -118.5s204.5 39.5 281.5 118.5s115.5 175.833 115.5 290.5zM1051 477
c0 -138 -48 -255.333 -144 -352s-212.667 -145 -350 -145c-134.667 0 -249.5 48.333 -344.5 145s-142.5 214 -142.5 352c0 137.333 47.167 253.333 141.5 348s209.5 142 345.5 142c139.333 0 256.5 -47.167 351.5 -141.5s142.5 -210.5 142.5 -348.5z" />
    <glyph glyph-name="afii10081" unicode="&#x43f;" horiz-adv-x="952" 
d="M799 0h-92v860h-461v-860h-92v946h645v-946z" />
    <glyph glyph-name="afii10082" unicode="&#x440;" horiz-adv-x="1147" 
d="M963 481c0 122 -33.167 219.167 -99.5 291.5s-154.833 108.5 -265.5 108.5c-110 0 -196.167 -34.333 -258.5 -103s-93.5 -164 -93.5 -286c0 -128 33.833 -231 101.5 -309s155.167 -117 262.5 -117c104.667 0 189.667 38 255 114s98 176.333 98 301zM1055 483
c0 -150 -40.834 -271.332 -122.501 -363.999s-187.167 -139 -316.5 -139c-85.333 0 -158.166 17.167 -218.499 51.5s-110.833 87.166 -151.5 158.499v-722h-92v1478h92v-170c38.667 63.333 88.5 111 149.5 143s132.5 48 214.5 48c132 0 239.167 -44.5 321.5 -133.5
s123.5 -205.833 123.5 -350.5z" />
    <glyph glyph-name="afii10083" unicode="&#x441;" horiz-adv-x="977" 
d="M895 49c-45.333 -23.333 -94.6689 -40.665 -148.002 -51.998s-110.666 -17 -171.999 -17c-141.333 0 -257.166 45.5 -347.499 136.5s-135.5 207.833 -135.5 350.5c0 148.667 47.167 269.167 141.5 361.5s217.166 138.5 368.499 138.5c50.667 0 98.667 -5.83301 144 -17.5
s89.666 -29.167 132.999 -52.5v-94c-43.333 25.333 -88.5 44.666 -135.5 57.999s-94.833 20 -143.5 20c-128 0 -229.333 -37.833 -304 -113.5s-112 -178.5 -112 -308.5c0 -114.667 38.833 -208.834 116.5 -282.501s177.5 -110.5 299.5 -110.5
c56.667 0 109.334 6.5 158.001 19.5s94.334 32.833 137.001 59.5v-96z" />
    <glyph glyph-name="afii10084" unicode="&#x442;" horiz-adv-x="563" 
d="M553 860h-225v-860h-92v860h-226v86h543v-86z" />
    <glyph glyph-name="afii10085" unicode="&#x443;" horiz-adv-x="942" 
d="M926 946l-654 -1478h-102l270 600l-424 878h103l373 -774l331 774h103z" />
    <glyph glyph-name="afii10086" unicode="&#x444;" horiz-adv-x="1714" 
d="M811 469c0 132.667 -27.667 234.5 -83 305.5s-134 106.5 -236 106.5c-100.667 0 -181.5 -36.333 -242.5 -109s-91.5 -169.667 -91.5 -291c0 -122.667 30 -222.5 90 -299.5s137 -115.5 231 -115.5c104 0 185.333 35.333 244 106s88 169.667 88 297zM1556 481
c0 121.333 -30.5 218.333 -91.5 291s-141.5 109 -241.5 109c-102.667 0 -181.667 -35.5 -237 -106.5s-83 -172.833 -83 -305.5c0 -127.333 29.333 -226.333 88 -297s140 -106 244 -106c94 0 171 38.5 231 115.5s90 176.833 90 299.5zM1649 483
c0 -148 -38.6709 -268.833 -116.004 -362.5s-174.666 -140.5 -291.999 -140.5c-80.667 0 -150.167 15.333 -208.5 46s-101.5 74.667 -129.5 132v-690h-92v690c-27.333 -57.333 -70.166 -101.333 -128.499 -132s-128.166 -46 -209.499 -46
c-117.333 0 -214.5 46.833 -291.5 140.5s-115.5 214.5 -115.5 362.5c0 143.333 38.5 259.833 115.5 349.5s176.167 134.5 297.5 134.5c76.667 0 143.834 -15.667 201.501 -47s101.167 -75.333 130.5 -132v902h92v-902c29.333 56.667 72.833 100.667 130.5 132
s124.834 47 201.501 47c121.333 0 220.666 -44.833 297.999 -134.5s116 -206.167 116 -349.5z" />
    <glyph glyph-name="afii10087" unicode="&#x445;" horiz-adv-x="907" 
d="M887 0h-107l-325 434l-328 -434h-107l383 494l-348 452h105l299 -393l286 393h107l-342 -452z" />
    <glyph glyph-name="afii10088" unicode="&#x446;" horiz-adv-x="952" 
d="M846 -328h-92v328h-600v946h92v-860h461v860h92v-860h47v-414z" />
    <glyph glyph-name="afii10089" unicode="&#x447;" horiz-adv-x="983" 
d="M829 0l-92.002 -0.00195312v465c-32.667 -34 -77.167 -62 -133.5 -84s-112.166 -33 -167.499 -33c-93.333 0 -167.166 30.333 -221.499 91s-81.5 144.334 -81.5 251.001v256h92v-219c0 -102.667 18.167 -177.167 54.5 -223.5s95.5 -69.5 177.5 -69.5
c59.333 0 115.333 12.333 168 37s90 55.334 112 92.001v383h92v-946z" />
    <glyph glyph-name="afii10090" unicode="&#x448;" horiz-adv-x="1464" 
d="M1311 0h-1157v946h92v-860h440v860h92v-860h441v860h92v-946z" />
    <glyph glyph-name="afii10091" unicode="&#x449;" horiz-adv-x="1464" 
d="M1358 -328h-92v328h-1112v946h92v-860h440v860h92v-860h441v860h92v-860h47v-414z" />
    <glyph glyph-name="afii10092" unicode="&#x44a;" horiz-adv-x="891" 
d="M729 279c0 64 -21.667 112 -65 144s-109 48 -197 48h-139v-385h139c88 0 153.667 16 197 48s65 80.333 65 145zM821 279c0 -91.333 -30.168 -160.667 -90.501 -208s-148.166 -71 -263.499 -71h-231v860h-226v86h318v-389h141c115.333 0 202.833 -23.667 262.5 -71
s89.5 -116.333 89.5 -207z" />
    </font>
</defs>
</svg>
