<?xml version="1.0" standalone="no"?>
<!DOCTYPE svg PUBLIC "-//W3C//DTD SVG 1.1//EN" "http://www.w3.org/Graphics/SVG/1.1/DTD/svg11.dtd" >
<svg>
<metadata>
Created by FontForge 20090914 at Wed Jul  8 17:20:22 2015
 By www-data
Copyright (c) Elektrosmog, Valentin HIndermann, Marco Walser and Pierre Miedinger. www.lineto.com, 2006. All rights reserved.
</metadata>
<defs>
<font id="BrauerNeue-Regular" horiz-adv-x="573" >
  <font-face 
    font-family="BrauerNeue-Regular"
    font-weight="400"
    font-stretch="normal"
    units-per-em="1000"
    panose-1="2 0 5 6 3 0 0 2 0 4"
    ascent="800"
    descent="-200"
    x-height="534.998"
    cap-height="708.999"
    bbox="-39.999 -240 847.001 912"
    underline-thickness="45"
    underline-position="-71"
    unicode-range="U+000D-U+FB02"
  />
<missing-glyph horiz-adv-x="620" 
d="M100 712h420v-712h-420v712zM444 76v560h-268v-560h268z" />
    <glyph glyph-name=".notdef" horiz-adv-x="620" 
d="M100 712h420v-712h-420v712zM444 76v560h-268v-560h268z" />
    <glyph glyph-name="NULL" horiz-adv-x="0" 
 />
    <glyph glyph-name="NULL" horiz-adv-x="0" 
 />
    <glyph glyph-name="nonmarkingreturn" unicode="&#xd;" horiz-adv-x="178" 
 />
    <glyph glyph-name="space" unicode=" " horiz-adv-x="178" 
 />
    <glyph glyph-name="exclam" unicode="!" horiz-adv-x="261" 
d="M86 691c0 5.33301 1.66895 9.66602 5.00195 12.999s7.66602 5 12.999 5h52c5.33301 0 9.66602 -1.66699 12.999 -5s5 -7.66602 5 -12.999v-166c0 -9.33301 -0.333008 -20.666 -1 -33.999s-1.5 -28.166 -2.5 -44.499s-2.33301 -33.333 -4 -51
s-3.16699 -34.834 -4.5 -51.501c-3.33301 -40 -7.33301 -82 -12 -126c-1.33301 -12 -8 -18 -20 -18s-18.667 6 -20 18c-4.66699 44 -8.66699 86 -12 126c-1.33301 16.667 -2.83301 33.834 -4.5 51.501s-3 34.667 -4 51s-1.83301 31.166 -2.5 44.499s-1 24.666 -1 33.999v166
zM176.002 18c0 -5.33301 -1.66699 -9.66602 -5 -12.999s-7.66602 -5 -12.999 -5h-55c-5.33301 0 -9.66602 1.66699 -12.999 5s-5 7.66602 -5 12.999v46c0 5.33301 1.66699 9.66602 5 12.999s7.66602 5 12.999 5h55c5.33301 0 9.66602 -1.66699 12.999 -5
s5 -7.66602 5 -12.999v-46z" />
    <glyph glyph-name="quotedbl" unicode="&#x22;" horiz-adv-x="385" 
d="M143 510c0 -5.33301 -1.66699 -9.66602 -5 -12.999s-7.66602 -5 -12.999 -5h-36c-5.33301 0 -9.66602 1.66699 -12.999 5s-5 7.66602 -5 12.999v181c0 5.33301 1.66699 9.66602 5 12.999s7.66602 5 12.999 5h36c5.33301 0 9.66602 -1.66699 12.999 -5
s5 -7.66602 5 -12.999v-181zM310 510c0 -5.33301 -1.66699 -9.66602 -5 -12.999s-7.66602 -5 -12.999 -5h-36c-5.33301 0 -9.66602 1.66699 -12.999 5s-5 7.66602 -5 12.999v181c0 5.33301 1.66699 9.66602 5 12.999s7.66602 5 12.999 5h36
c5.33301 0 9.66602 -1.66699 12.999 -5s5 -7.66602 5 -12.999v-181z" />
    <glyph glyph-name="numbersign" unicode="#" horiz-adv-x="556" 
d="M378 197l-41 -180c-1.33301 -5.33301 -4.16602 -9.33301 -8.49902 -12s-9.16602 -4 -14.499 -4h-25c-10 0 -15 5.33301 -15 16v4c0 1.33301 0.333008 3.66602 1 6.99902l38 169h-138l-41 -180c-1.33301 -5.33301 -4.16602 -9.33301 -8.49902 -12s-9.16602 -4 -14.499 -4
h-25c-10 0 -15 5.33301 -15 16v4c0 1.33301 0.333008 3.66602 1 6.99902l38 169h-67c-5.33301 0 -9.66602 1.16699 -12.999 3.5s-5 5.5 -5 9.5c0 0.666992 0.333008 2.66699 1 6s1.33398 5.66602 2.00098 6.99902l7 31c2 11.333 8.66699 17 20 17h72l39 174h-71
c-5.33301 0 -9.66602 1.16699 -12.999 3.5s-5 5.5 -5 9.5c0 0.666992 0.333008 2.66699 1 6s1.33398 5.66602 2.00098 6.99902l7 31c2 11.333 8.66699 17 20 17h76l38 167c1.33301 5.33301 4.16602 9.33301 8.49902 12s9.16602 4 14.499 4h25c10 0 15 -5.33301 15 -16v-4
c0 -1.33301 -0.333008 -3.66602 -1 -6.99902l-36 -156h139l38 167c1.33301 5.33301 4.16602 9.33301 8.49902 12s9.16602 4 14.499 4h25c10 0 15 -5.33301 15 -16v-4c0 -1.33301 -0.333008 -3.66602 -1 -6.99902l-36 -156h63c5.33301 0 9.66602 -1.16699 12.999 -3.5
s5 -5.5 5 -9.5c0 -0.666992 -0.333008 -2.66699 -1 -6s-1.33398 -5.66602 -2.00098 -6.99902l-7 -31c-2 -11.333 -8.66699 -17 -20 -17h-67l-40 -174h67c5.33301 0 9.66602 -1.16699 12.999 -3.5s5 -5.5 5 -9.5c0 -0.666992 -0.333008 -2.66699 -1 -6
s-1.33398 -5.66602 -2.00098 -6.99902l-7 -31c-2 -11.333 -8.66699 -17 -20 -17h-71zM191 271h139l39 174h-138z" />
    <glyph glyph-name="dollar" unicode="$" horiz-adv-x="556" 
d="M311 -89c0 -5.33301 -1.66699 -9.66602 -5 -12.999s-7.66602 -5 -12.999 -5h-26c-5.33301 0 -9.66602 1.66699 -12.999 5s-5 7.66602 -5 12.999v68c-24.667 3.33301 -47.334 10.5 -68.001 21.5s-38.5 24.667 -53.5 41s-26.667 34.666 -35 54.999s-12.5 41.5 -12.5 63.5
v46c0 5.33301 1.66699 9.66602 5 12.999s7.66602 5 12.999 5h45c5.33301 0 9.66602 -1.66699 12.999 -5s5 -7.66602 5 -12.999v-35c0 -29.333 8 -54.5 24 -75.5s37.333 -34.5 64 -40.5v278l-82 54c-30 19.333 -51.5 41.333 -64.5 66s-19.5 53 -19.5 85
c0 24 3.66699 46.833 11 68.5s18 41 32 58s31.333 31 52 42s44.334 18.167 71.001 21.5v67c0 5.33301 1.66699 9.66602 5 12.999s7.66602 5 12.999 5h26c5.33301 0 9.66602 -1.66699 12.999 -5s5 -7.66602 5 -12.999v-67c26.667 -3.33301 50.167 -10.5 70.5 -21.5
s37.5 -25 51.5 -42s24.667 -36.333 32 -58s11 -44.5 11 -68.5v-8c0 -5.33301 -1.66699 -9.66602 -5 -12.999s-7.66602 -5 -12.999 -5h-45c-5.33301 0 -9.66602 1.66699 -12.999 5s-5 7.66602 -5 12.999v15c0 25.333 -7 48 -21 68s-35 33 -63 39v-263l80 -50
c32 -20.667 54 -44.167 66 -70.5s18 -57.5 18 -93.5c0 -24.667 -4 -48 -12 -70s-19.167 -41.667 -33.5 -59s-31.5 -31.666 -51.5 -42.999s-42.333 -19 -67 -23v-69zM394 187c0 11.333 -1 21.168 -3 29.501s-5.66699 16 -11 23s-12.5 14 -21.5 21s-20.5 15.167 -34.5 24.5
l-13 8v-237c26 6.66699 46.333 20.167 61 40.5s22 43.166 22 68.499v22zM163 527.002c0 -22 7.5 -39.6689 22.5 -53.002s34.833 -27.666 59.5 -42.999l4 -3v225c-30 -6 -51.833 -19.167 -65.5 -39.5s-20.5 -43.166 -20.5 -68.499v-18z" />
    <glyph glyph-name="percent" unicode="%" horiz-adv-x="724" 
d="M117 468c0 -16 5.16699 -29.5 15.5 -40.5s24.166 -16.5 41.499 -16.5s31 5.5 41 16.5s15 24.5 15 40.5v122c0 16 -5 29.5 -15 40.5s-23.667 16.5 -41 16.5s-31.166 -5.5 -41.499 -16.5s-15.5 -24.5 -15.5 -40.5v-122zM53 590c0 20 3.83301 37.5 11.5 52.5
s17.5 27.333 29.5 37s25 17 39 22s27.667 7.5 41 7.5c12.667 0 26.167 -2.5 40.5 -7.5s27.333 -12.333 39 -22s21.334 -22 29.001 -37s11.5 -32.5 11.5 -52.5v-122c0 -20 -3.83301 -37.5 -11.5 -52.5s-17.334 -27.333 -29.001 -37s-24.667 -17 -39 -22
s-27.833 -7.5 -40.5 -7.5c-13.333 0 -27 2.5 -41 7.5s-27 12.333 -39 22s-21.833 22 -29.5 37s-11.5 32.5 -11.5 52.5v122zM493 95c0 -16 5.16699 -29.5 15.5 -40.5s24.166 -16.5 41.499 -16.5s31 5.5 41 16.5s15 24.5 15 40.5v122c0 16 -5 29.5 -15 40.5
s-23.667 16.5 -41 16.5s-31.166 -5.5 -41.499 -16.5s-15.5 -24.5 -15.5 -40.5v-122zM429 217c0 20 3.83301 37.5 11.5 52.5s17.5 27.333 29.5 37s25 17 39 22s27.667 7.5 41 7.5c12.667 0 26.167 -2.5 40.5 -7.5s27.333 -12.333 39 -22s21.334 -22 29.001 -37
s11.5 -32.5 11.5 -52.5v-122c0 -20 -3.83301 -37.5 -11.5 -52.5s-17.334 -27.333 -29.001 -37s-24.667 -17 -39 -22s-27.833 -7.5 -40.5 -7.5c-13.333 0 -27 2.5 -41 7.5s-27 12.333 -39 22s-21.833 22 -29.5 37s-11.5 32.5 -11.5 52.5v122zM523 696
c0 -1.33301 -0.666992 -4 -2 -8l-282 -737c-3.33301 -10 -6.83301 -16 -10.5 -18s-8.16699 -3 -13.5 -3h-30c-9.33301 0 -14 4.66699 -14 14c0 1.33301 0.666992 4 2 8l282 737c3.33301 9.33301 7 15 11 17s8.66699 3 14 3h30c8.66699 0 13 -4.33301 13 -13z" />
    <glyph glyph-name="ampersand" unicode="&#x26;" horiz-adv-x="584" 
d="M259 441c32 20.667 55.333 41.1689 70 61.502s22 43.166 22 68.499c0 10 -1.16699 20.167 -3.5 30.5s-6.5 20 -12.5 29s-14.167 16.333 -24.5 22s-23.5 8.5 -39.5 8.5c-17.333 0 -31 -2.83301 -41 -8.5s-17.5 -12.834 -22.5 -21.501s-8.33301 -18.334 -10 -29.001
s-2.5 -21 -2.5 -31c0 -9.33301 2 -19.5 6 -30.5s9 -22.333 15 -34s12.833 -23.167 20.5 -34.5s15.167 -21.666 22.5 -30.999zM237 349.002c-32.667 -16.667 -58.167 -37.5 -76.5 -62.5s-27.5 -56.5 -27.5 -94.5c0 -19.333 2.5 -37.5 7.5 -54.5s13 -31.833 24 -44.5
s25.167 -22.667 42.5 -30s38 -11 62 -11c23.333 0 45 3.83301 65 11.5s39.333 22.5 58 44.5zM527 28.002c2 -3.33301 3.16797 -5.83301 3.50098 -7.5s0.5 -3.16699 0.5 -4.5c0 -5.33301 -1.83301 -9.33301 -5.5 -12s-7.83398 -4 -12.501 -4h-37
c-6.66699 0 -11.667 1.5 -15 4.5s-6.33301 6.5 -9 10.5l-20 31c-19.333 -21.333 -42.666 -38 -69.999 -50s-59.333 -18 -96 -18c-37.333 0 -69.333 5.83301 -96 17.5s-48.5 27.334 -65.5 47.001s-29.5 42.334 -37.5 68.001s-12 52.5 -12 80.5c0 49.333 13.167 92 39.5 128
s59.833 65.667 100.5 89c-9.33301 16 -18.5 30.5 -27.5 43.5s-16.833 25.833 -23.5 38.5s-12 25.834 -16 39.501s-6 29.167 -6 46.5c0 22.667 3.5 43.667 10.5 63s17 35.666 30 48.999s28.5 23.833 46.5 31.5s38 11.5 60 11.5c21.333 0 41.333 -3.83301 60 -11.5
s34.834 -18.334 48.501 -32.001s24.334 -30.167 32.001 -49.5s11.5 -40.666 11.5 -63.999c0 -21.333 -3 -40.5 -9 -57.5s-14.5 -33 -25.5 -48s-24.167 -29.167 -39.5 -42.5s-32.333 -27 -51 -41l137 -212c9.33301 15.333 16.666 32.166 21.999 50.499
s9.33301 37.166 12 56.499c0 5.33301 1.66699 9.66602 5 12.999s7.66602 5 12.999 5h36c5.33301 0 9.66602 -1.66699 12.999 -5s5 -7.66602 5 -12.999c-4 -30 -11 -59.833 -21 -89.5s-23.667 -58.167 -41 -85.5z" />
    <glyph glyph-name="quotesingle" unicode="'" horiz-adv-x="214" 
d="M143 510c0 -5.33301 -1.66699 -9.66602 -5 -12.999s-7.66602 -5 -12.999 -5h-36c-5.33301 0 -9.66602 1.66699 -12.999 5s-5 7.66602 -5 12.999v181c0 5.33301 1.66699 9.66602 5 12.999s7.66602 5 12.999 5h36c5.33301 0 9.66602 -1.66699 12.999 -5
s5 -7.66602 5 -12.999v-181z" />
    <glyph glyph-name="parenleft" unicode="(" horiz-adv-x="312" 
d="M134 257c0 -38.667 3 -77.9961 9 -117.996s14.667 -79.5 26 -118.5s25 -76.833 41 -113.5s34 -71.334 54 -104.001c1.33301 -2.66699 2 -5 2 -7c0 -3.33301 -1.33301 -6.5 -4 -9.5s-6 -4.5 -10 -4.5h-44c-5.33301 0 -9.83301 1.33301 -13.5 4s-7.5 8.66699 -11.5 18
c-18.667 31.333 -35.667 65.333 -51 102s-28.333 74.667 -39 114s-18.834 79.166 -24.501 119.499s-8.5 79.5 -8.5 117.5s2.83301 77.167 8.5 117.5s13.834 80.166 24.501 119.499s23.667 77.333 39 114s32.333 70.667 51 102c4 9.33301 7.83301 15.333 11.5 18
s8.16699 4 13.5 4h44c4 0 7.33301 -1.5 10 -4.5s4 -6.16699 4 -9.5c0 -2 -0.666992 -4.33301 -2 -7c-20 -32.667 -38 -67.334 -54 -104.001s-29.667 -74.5 -41 -113.5s-20 -78.5 -26 -118.5s-9 -79.333 -9 -118z" />
    <glyph glyph-name="parenright" unicode=")" horiz-adv-x="312" 
d="M178 257c0 38.667 -3 77.9961 -9 117.996s-14.667 79.5 -26 118.5s-25 76.833 -41 113.5s-34 71.334 -54 104.001c-1.33301 2.66699 -2 5 -2 7c0 3.33301 1.33301 6.5 4 9.5s6 4.5 10 4.5h44c5.33301 0 9.83301 -1.33301 13.5 -4s7.5 -8.66699 11.5 -18
c18.667 -31.333 35.667 -65.333 51 -102s28.333 -74.667 39 -114s18.834 -79.166 24.501 -119.499s8.5 -79.5 8.5 -117.5s-2.83301 -77.167 -8.5 -117.5s-13.834 -80.166 -24.501 -119.499s-23.667 -77.333 -39 -114s-32.333 -70.667 -51 -102
c-4 -9.33301 -7.83301 -15.333 -11.5 -18s-8.16699 -4 -13.5 -4h-44c-4 0 -7.33301 1.5 -10 4.5s-4 6.16699 -4 9.5c0 2 0.666992 4.33301 2 7c20 32.667 38 67.334 54 104.001s29.667 74.5 41 113.5s20 78.5 26 118.5s9 79.333 9 118z" />
    <glyph glyph-name="asterisk" unicode="*" horiz-adv-x="494" 
d="M264 709c7.33301 0 12.8408 -2.83301 16.5078 -8.5s5.5 -12.167 5.5 -19.5c0 -2.66699 -0.166992 -9.33398 -0.5 -20.001s-0.833008 -23 -1.5 -37s-1.5 -28.667 -2.5 -44s-1.83301 -29 -2.5 -41l127 54c2 1.33301 4.33301 2 7 2h7c4.66699 0 9 -0.833008 13 -2.5
s6.66699 -5.16699 8 -10.5l12 -32c0.666992 -2 1 -4.66699 1 -8c-1.33301 -11.333 -8 -18.666 -20 -21.999c-2.66699 -1.33301 -8.83398 -3.5 -18.501 -6.5l-33.5 -10.5l-40 -12.5c-14 -4.33301 -27 -8.16602 -39 -11.499l24.5 -32l25.5 -35l21.5 -30
c6.33301 -8.66699 10.166 -14.334 11.499 -17.001c1.33301 -3.33301 2.66602 -6.33301 3.99902 -9s2 -5.66699 2 -9c0 -6.66699 -3 -12 -9 -16l-29 -18c-3.33301 -2.66699 -7.33301 -4 -12 -4c-4 0.666992 -7.83301 2.5 -11.5 5.5s-6.83398 6.16699 -9.50098 9.5
c-1.33301 2 -4.83301 7.66699 -10.5 17l-19.5 32.5l-23 38.5l-21 35l-21 -35l-23 -38.5l-19.5 -32.5c-5.66699 -9.33301 -9.16699 -15 -10.5 -17c-2.66699 -3.33301 -5.83398 -6.5 -9.50098 -9.5s-7.5 -4.83301 -11.5 -5.5c-4.66699 0 -8.66699 1.33301 -12 4l-29 18
c-6 4 -9 9.33301 -9 16c0 3.33301 0.666992 6.33301 2 9s2.66602 5.66699 3.99902 9c1.33301 2.66699 5.16602 8.33398 11.499 17.001l21.5 30l25.5 35l24.5 32c-12 3.33301 -25 7.16602 -39 11.499l-40 12.5l-33.5 10.5c-9.66699 3 -15.834 5.16699 -18.501 6.5
c-12 3.33301 -18.667 10.666 -20 21.999c0 3.33301 0.333008 6 1 8l12 32c1.33301 5.33301 4 8.83301 8 10.5s8.33301 2.5 13 2.5h7c2.66699 0 5 -0.666992 7 -2l127 -54c-0.666992 12 -1.5 25.667 -2.5 41s-1.83301 30 -2.5 44s-1.16699 26.333 -1.5 37
s-0.5 17.334 -0.5 20.001c0 7.33301 1.83301 13.833 5.5 19.5s9.16699 8.5 16.5 8.5h34v0z" />
    <glyph glyph-name="plus" unicode="+" 
d="M325 19c0 -5.33301 -1.66699 -9.66602 -5 -12.999s-7.66602 -5 -12.999 -5h-40c-5.33301 0 -9.66602 1.66699 -12.999 5s-5 7.66602 -5 12.999v213h-186c-5.33301 0 -9.66602 1.66699 -12.999 5s-5 7.66602 -5 12.999v36c0 5.33301 1.66699 9.66602 5 12.999
s7.66602 5 12.999 5h186v213c0 5.33301 1.66699 9.66602 5 12.999s7.66602 5 12.999 5h40c5.33301 0 9.66602 -1.66699 12.999 -5s5 -7.66602 5 -12.999v-213h185c5.33301 0 9.66602 -1.66699 12.999 -5s5 -7.66602 5 -12.999v-36c0 -5.33301 -1.66699 -9.66602 -5 -12.999
s-7.66602 -5 -12.999 -5h-185v-213z" />
    <glyph glyph-name="comma" unicode="," horiz-adv-x="237" 
d="M100 -68c9.33301 1.33301 16.834 6.33301 22.501 15s8.5 18 8.5 28c0 15.333 -6.66699 23.666 -20 24.999h-28c-5.33301 0 -9.66602 1.66699 -12.999 5s-5 7.66602 -5 12.999v57c0 5.33301 1.66699 9.66602 5 12.999s7.66602 5 12.999 5h71
c5.33301 0 9.66602 -1.66699 12.999 -5s5 -7.66602 5 -12.999v-75c0 -25.333 -5.5 -48.166 -16.5 -68.499s-27.833 -32.166 -50.5 -35.499h-9c-7.33301 0 -11 3.33301 -11 10v15c0 7.33301 3.66699 11 11 11h4z" />
    <glyph glyph-name="hyphen" unicode="-" horiz-adv-x="453" 
d="M380 304c5.33301 0 9.66602 -1.66699 12.999 -5s5 -7.66602 5 -12.999v-36c0 -5.33301 -1.66699 -9.66602 -5 -12.999s-7.66602 -5 -12.999 -5h-307c-5.33301 0 -9.66602 1.66699 -12.999 5s-5 7.66602 -5 12.999v36c0 5.33301 1.66699 9.66602 5 12.999
s7.66602 5 12.999 5h307z" />
    <glyph glyph-name="period" unicode="." horiz-adv-x="237" 
d="M172 18c0 -5.33301 -1.66699 -9.66602 -5 -12.999s-7.66602 -5 -12.999 -5h-71c-5.33301 0 -9.66602 1.66699 -12.999 5s-5 7.66602 -5 12.999v57c0 5.33301 1.66699 9.66602 5 12.999s7.66602 5 12.999 5h71c5.33301 0 9.66602 -1.66699 12.999 -5s5 -7.66602 5 -12.999
v-57z" />
    <glyph glyph-name="slash" unicode="/" horiz-adv-x="392" 
d="M372 696c0 -1.33301 -0.666992 -4 -2 -8l-282 -737c-3.33301 -10 -6.83301 -16 -10.5 -18s-8.16699 -3 -13.5 -3h-30c-9.33301 0 -14 4.66699 -14 14c0 1.33301 0.666992 4 2 8l282 737c3.33301 9.33301 7 15 11 17s8.66699 3 14 3h30c8.66699 0 13 -4.33301 13 -13z" />
    <glyph glyph-name="zero" unicode="0" horiz-adv-x="494" 
d="M247 725c26.667 0 51.667 -4.5 75 -13.5s43.5 -21.667 60.5 -38s30.333 -36.333 40 -60s14.5 -50.167 14.5 -79.5v-362c0 -29.333 -4.83301 -55.833 -14.5 -79.5s-23 -43.834 -40 -60.501s-37.167 -29.334 -60.5 -38.001s-48.333 -13 -75 -13
c-27.333 0 -52.5 4.33301 -75.5 13s-43 21.334 -60 38.001s-30.333 36.834 -40 60.501s-14.5 50.167 -14.5 79.5v362c0 29.333 4.83301 55.833 14.5 79.5s23 43.667 40 60s37 29 60 38s48.167 13.5 75.5 13.5zM247 653c-34.667 0 -62.5 -10.833 -83.5 -32.5
s-31.5 -50.167 -31.5 -85.5v-363c0 -36 10.5 -64.833 31.5 -86.5s48.833 -32.5 83.5 -32.5s62.5 10.833 83.5 32.5s31.5 50.5 31.5 86.5v363c0 35.333 -10.5 63.833 -31.5 85.5s-48.833 32.5 -83.5 32.5z" />
    <glyph glyph-name="one" unicode="1" horiz-adv-x="345" 
d="M95 621c12 2 22.1689 4.66797 30.502 8.00098s15.166 8 20.499 14s9.66602 13.5 12.999 22.5s6.66602 20.167 9.99902 33.5c1.33301 4.66699 3.33301 7.5 6 8.5s5.66699 1.5 9 1.5h43c5.33301 0 9.66602 -1.66699 12.999 -5s5 -7.66602 5 -12.999v-673
c0 -5.33301 -1.66699 -9.66602 -5 -12.999s-7.66602 -5 -12.999 -5h-40c-5.33301 0 -9.66602 1.66699 -12.999 5s-5 7.66602 -5 12.999v528h-81c-5.33301 0 -9.66602 1.66699 -12.999 5s-5 7.66602 -5 12.999v38c0 5.33301 1.66699 9.66602 5 12.999s7.66602 5 12.999 5z
" />
    <glyph glyph-name="two" unicode="2" horiz-adv-x="465" 
d="M66 0c-5.33301 0 -9.66797 1.66699 -13.001 5s-5 7.66602 -5 12.999v40c0 13.333 1.33301 23.166 4 29.499s6 12.166 10 17.499l251 349c12 16.667 21.167 32 27.5 46s9.5 27.667 9.5 41c0 34 -10.333 61.333 -31 82s-48.334 31 -83.001 31s-62 -10.833 -82 -32.5
s-30 -50.167 -30 -85.5v-6c0 -5.33301 -1.66699 -9.66602 -5 -12.999s-7.66602 -5 -12.999 -5h-37c-5.33301 0 -9.66602 1.66699 -12.999 5s-5 7.66602 -5 12.999v14c0 23.333 3.83301 46 11.5 68s19.334 41.333 35.001 58s35 30 58 40s49.833 15 80.5 15
c28 0 53.5 -4.5 76.5 -13.5s42.833 -21.5 59.5 -37.5s29.667 -35.333 39 -58s14 -47.667 14 -75c0 -17.333 -2.83301 -35.666 -8.5 -54.999s-15.834 -39 -30.501 -59l-256 -355h275c5.33301 0 9.66602 -1.66699 12.999 -5s5 -7.66602 5 -12.999v-36
c0 -5.33301 -1.66699 -9.66602 -5 -12.999s-7.66602 -5 -12.999 -5h-339z" />
    <glyph glyph-name="three" unicode="3" horiz-adv-x="454" 
d="M216 331c-5.33301 0 -9.66699 1.67188 -13 5.00488s-5 7.66602 -5 12.999v48c0 5.33301 1.66699 9.66602 5 12.999s7.66602 5 12.999 5h38c26.667 0 46 7.66699 58 23s18 35.666 18 60.999v43c0 36.667 -9.83301 64.334 -29.5 83.001s-45.5 28 -77.5 28
c-18 0 -33.667 -3 -47 -9s-24.166 -14.167 -32.499 -24.5s-14.666 -22.166 -18.999 -35.499s-6.5 -27.333 -6.5 -42c0 -5.33301 -1.66699 -9.66602 -5 -12.999s-7.66602 -5 -12.999 -5h-40c-5.33301 0 -9.66602 1.66699 -12.999 5s-5 7.66602 -5 12.999
c0 25.333 4.16699 49.166 12.5 71.499s20.166 41.666 35.499 57.999s34.333 29.333 57 39s48 14.5 76 14.5c26 0 50 -4.16699 72 -12.5s41.167 -20.166 57.5 -35.499s29 -33.666 38 -54.999s13.5 -45.333 13.5 -72v-48c0 -14 -0.333008 -26.833 -1 -38.5
s-2.83398 -22.5 -6.50098 -32.5s-9.33398 -19.667 -17.001 -29s-18.5 -19 -32.5 -29c16 -8 28.5 -17.833 37.5 -29.5s15.667 -24.334 20 -38.001s7 -27.834 8 -42.501s1.5 -29.334 1.5 -44.001v-46c0 -29.333 -4.83301 -55.833 -14.5 -79.5s-23 -43.834 -40 -60.501
s-37.167 -29.5 -60.5 -38.5s-48.666 -13.5 -75.999 -13.5s-52.666 4.5 -75.999 13.5s-43.5 22 -60.5 39s-30.167 37.5 -39.5 61.5s-14 50.667 -14 80v3c0 5.33301 1.66699 9.66602 5 12.999s7.66602 5 12.999 5h41c5.33301 0 9.66602 -1.66699 12.999 -5
s5 -7.66602 5 -12.999v-3c0 -36 10.167 -65.333 30.5 -88s47.833 -34 82.5 -34s62.334 11 83.001 33s31 51 31 87v70c0 28 -6.83301 49.667 -20.5 65s-33.834 23 -60.501 23h-40z" />
    <glyph glyph-name="four" unicode="4" horiz-adv-x="488" 
d="M300 644l-194 -391h194v391zM34 248c0 8.66699 3.33203 19.998 9.99902 33.998l207 418c3.33301 6 8.66602 9 15.999 9h91c5.33301 0 9.66602 -1.66699 12.999 -5s5 -7.66602 5 -12.999v-438h61c5.33301 0 9.66602 -1.66699 12.999 -5s5 -7.66602 5 -12.999v-36
c0 -5.33301 -1.66699 -9.66602 -5 -12.999s-7.66602 -5 -12.999 -5h-61v-163c0 -5.33301 -1.66699 -9.66602 -5 -12.999s-7.66602 -5 -12.999 -5h-40c-5.33301 0 -9.66602 1.66699 -12.999 5s-5 7.66602 -5 12.999v163h-248c-5.33301 0 -9.66602 1.66699 -12.999 5
s-5 7.66602 -5 12.999v49z" />
    <glyph glyph-name="five" unicode="5" horiz-adv-x="466" 
d="M53 172c0 5.33301 1.67285 9.66602 5.00586 12.999s7.66602 5 12.999 5h39c5.33301 0 9.66602 -1.66699 12.999 -5s5 -7.66602 5 -12.999c0 -36 10.167 -64.833 30.5 -86.5s47.166 -32.5 80.499 -32.5s60 10.833 80 32.5s30 50.5 30 86.5v117
c0 80.667 -37.333 121 -112 121c-32 0 -56.833 -10.333 -74.5 -31s-27.834 -46.334 -30.501 -77.001c0 -5.33301 -1.66699 -9.66602 -5 -12.999s-7.66602 -5 -12.999 -5h-38c-5.33301 0 -9.66602 1.66699 -12.999 5s-5 7.66602 -5 12.999v389
c0 5.33301 1.66699 9.66602 5 12.999s7.66602 5 12.999 5h307c5.33301 0 9.66602 -1.66699 12.999 -5s5 -7.66602 5 -12.999v-38c0 -5.33301 -1.66699 -9.66602 -5 -12.999s-7.66602 -5 -12.999 -5h-251v-214c21.333 26 45 43.333 71 52s50.333 13 73 13
c22 0 42.167 -4.66699 60.5 -14s34.166 -21.666 47.499 -36.999s23.666 -33.333 30.999 -54s11 -42.334 11 -65.001v-144c0 -30 -5.16699 -56.833 -15.5 -80.5s-24 -43.667 -41 -60s-36.833 -28.833 -59.5 -37.5s-46.334 -13 -71.001 -13c-26 0 -50.167 4.16699 -72.5 12.5
s-41.833 20.5 -58.5 36.5s-30 35.667 -40 59s-15 50 -15 80v3z" />
    <glyph glyph-name="six" unicode="6" horiz-adv-x="468" 
d="M237 389c-32.667 0 -58.5 -11.5 -77.5 -34.5s-28.5 -52.5 -28.5 -88.5v-91c0 -36 9.5 -65.333 28.5 -88s44.833 -34 77.5 -34s58.5 11.333 77.5 34s28.5 52 28.5 88v98c0 36 -8.16699 64.333 -24.5 85s-43.5 31 -81.5 31zM338 554c0 30 -9.33301 54.502 -28 73.502
s-43 28.5 -73 28.5c-32.667 0 -58.5 -11.167 -77.5 -33.5s-28.5 -51.5 -28.5 -87.5v-130c21.333 27.333 43.166 45.166 65.499 53.499s44.833 12.5 67.5 12.5c20 0 39.167 -3.66699 57.5 -11s34.666 -18.5 48.999 -33.5s25.833 -33.833 34.5 -56.5s13 -49.334 13 -80.001
v-115c0 -29.333 -4.66699 -56 -14 -80s-22 -44.5 -38 -61.5s-35 -30 -57 -39s-46 -13.5 -72 -13.5s-50 4.5 -72 13.5s-41.167 22 -57.5 39s-29.166 37.5 -38.499 61.5s-14 50.667 -14 80v360c0 29.333 4.66699 56 14 80s22.166 44.5 38.499 61.5s35.5 30.167 57.5 39.5
s46 14 72 14c24 0 46.833 -4.16699 68.5 -12.5s40.5 -20.166 56.5 -35.499s28.667 -33.833 38 -55.5s14 -45.834 14 -72.501c0 -5.33301 -1.66699 -9.66602 -5 -12.999s-7.66602 -5 -12.999 -5h-40c-5.33301 0 -9.66602 1.66699 -12.999 5s-5 7.66602 -5 12.999z" />
    <glyph glyph-name="seven" unicode="7" horiz-adv-x="392" 
d="M349 709c5.33301 0 9.66699 -1.66504 13 -4.99805s5 -7.66602 5 -12.999v-35c0 -8 -1.33301 -16.333 -4 -25s-4.66699 -15 -6 -19l-218 -592c-2 -5.33301 -4.5 -10 -7.5 -14s-7.5 -6 -13.5 -6h-42c-4.66699 0 -8.66699 1.66699 -12 5s-5 8.33301 -5 15
c0 3.33301 0.666992 6.66602 2 9.99902l222 606h-250c-5.33301 0 -9.66602 1.66699 -12.999 5s-5 7.66602 -5 12.999v37c0 5.33301 1.66699 9.66602 5 12.999s7.66602 5 12.999 5h316z" />
    <glyph glyph-name="eight" unicode="8" horiz-adv-x="474" 
d="M237 725c26 0 49.8291 -4.16699 71.4961 -12.5s40.334 -19.666 56.001 -33.999s27.834 -30.833 36.501 -49.5s13 -38.334 13 -59.001v-54c0 -12 -1 -24.167 -3 -36.5s-5.5 -24.5 -10.5 -36.5s-12.167 -23.333 -21.5 -34s-21 -20 -35 -28
c33.333 -17.333 55.666 -39.5 66.999 -66.5s17 -57.833 17 -92.5v-49c0 -30 -4.83301 -56.833 -14.5 -80.5s-23 -43.667 -40 -60s-37.167 -29 -60.5 -38s-48.666 -13.5 -75.999 -13.5s-52.666 4.5 -75.999 13.5s-43.5 21.667 -60.5 38s-30.333 36.333 -40 60
s-14.5 50.5 -14.5 80.5v49c0 34.667 5.66699 65.5 17 92.5s33.666 49.167 66.999 66.5c-14 8 -25.667 17.333 -35 28s-16.5 22 -21.5 34s-8.5 24.167 -10.5 36.5s-3 24.5 -3 36.5v54c0 20.667 4.33301 40.334 13 59.001s20.834 35.167 36.501 49.5
s34.334 25.666 56.001 33.999s45.5 12.5 71.5 12.5zM236.996 415c32 0 57.833 9.16699 77.5 27.5s29.5 44.833 29.5 79.5v24c0 34.667 -9.83301 61.167 -29.5 79.5s-45.5 27.5 -77.5 27.5s-57.833 -9.16699 -77.5 -27.5s-29.5 -44.833 -29.5 -79.5v-24
c0 -34.667 9.83301 -61.167 29.5 -79.5s45.5 -27.5 77.5 -27.5zM236.996 53c34.667 0 62.334 11 83.001 33s31 51 31 87v49c0 36 -10.333 65.167 -31 87.5s-48.334 33.5 -83.001 33.5s-62.334 -11.167 -83.001 -33.5s-31 -51.5 -31 -87.5v-49c0 -36 10.333 -65 31 -87
s48.334 -33 83.001 -33z" />
    <glyph glyph-name="nine" unicode="9" horiz-adv-x="468" 
d="M231 656c-32.667 0 -58.5 -11.001 -77.5 -33.001s-28.5 -51 -28.5 -87v-92c0 -39.333 8.16699 -69.333 24.5 -90s43.5 -31 81.5 -31c14.667 0 28.5 3 41.5 9s24.333 14.333 34 25s17.167 23.334 22.5 38.001s8 31 8 49v92c0 36 -9.5 65 -28.5 87s-44.833 33 -77.5 33z
M130 157.999c0 -30 9.33203 -54.501 27.999 -73.501s43 -28.5 73 -28.5c32.667 0 58.5 11.167 77.5 33.5s28.5 51.5 28.5 87.5v130c-21.333 -27.333 -43.166 -45.166 -65.499 -53.499s-43.166 -12.5 -62.499 -12.5c-22.667 0 -43.667 4.16699 -63 12.5
s-36.166 20.5 -50.499 36.5s-25.5 35.5 -33.5 58.5s-12 48.833 -12 77.5v111c0 29.333 4.66699 56 14 80s22 44.5 38 61.5s35 30 57 39s46 13.5 72 13.5s50 -4.5 72 -13.5s41.167 -22 57.5 -39s29.166 -37.5 38.499 -61.5s14 -50.667 14 -80v-360
c0 -29.333 -4.66699 -56 -14 -80s-22.166 -44.5 -38.499 -61.5s-35.5 -30.167 -57.5 -39.5s-46 -14 -72 -14c-24 0 -46.833 4.16699 -68.5 12.5s-40.5 20.166 -56.5 35.499s-28.667 33.833 -38 55.5s-14 45.834 -14 72.501c0 5.33301 1.66699 9.66602 5 12.999
s7.66602 5 12.999 5h40c5.33301 0 9.66602 -1.66699 12.999 -5s5 -7.66602 5 -12.999z" />
    <glyph glyph-name="colon" unicode=":" horiz-adv-x="237" 
d="M172 367c0 -5.33301 -1.66699 -9.66602 -5 -12.999s-7.66602 -5 -12.999 -5h-71c-5.33301 0 -9.66602 1.66699 -12.999 5s-5 7.66602 -5 12.999v57c0 5.33301 1.66699 9.66602 5 12.999s7.66602 5 12.999 5h71c5.33301 0 9.66602 -1.66699 12.999 -5
s5 -7.66602 5 -12.999v-57zM172 18c0 -5.33301 -1.66699 -9.66602 -5 -12.999s-7.66602 -5 -12.999 -5h-71c-5.33301 0 -9.66602 1.66699 -12.999 5s-5 7.66602 -5 12.999v57c0 5.33301 1.66699 9.66602 5 12.999s7.66602 5 12.999 5h71
c5.33301 0 9.66602 -1.66699 12.999 -5s5 -7.66602 5 -12.999v-57z" />
    <glyph glyph-name="semicolon" unicode=";" horiz-adv-x="237" 
d="M172 367c0 -5.33301 -1.66699 -9.66602 -5 -12.999s-7.66602 -5 -12.999 -5h-71c-5.33301 0 -9.66602 1.66699 -12.999 5s-5 7.66602 -5 12.999v57c0 5.33301 1.66699 9.66602 5 12.999s7.66602 5 12.999 5h71c5.33301 0 9.66602 -1.66699 12.999 -5
s5 -7.66602 5 -12.999v-57zM106 -68c9.33301 1.33301 16.834 6.33301 22.501 15s8.5 18 8.5 28c0 15.333 -6.66699 23.666 -20 24.999h-33c-5.33301 0 -9.66602 1.66699 -12.999 5s-5 7.66602 -5 12.999v57c0 5.33301 1.66699 9.66602 5 12.999s7.66602 5 12.999 5h71
c5.33301 0 9.66602 -1.66699 12.999 -5s5 -7.66602 5 -12.999v-75c0 -25.333 -5.5 -48.166 -16.5 -68.499s-27.833 -32.166 -50.5 -35.499h-7c-7.33301 0 -11 3.33301 -11 10v15c0 7.33301 3.66699 11 11 11h7z" />
    <glyph glyph-name="less" unicode="&#x3c;" 
d="M131 296c0 6.66699 1.33301 11.3301 4 13.9971s6 5.33398 10 8.00098l271 211c4.66699 2.66699 9 4 13 4c8.66699 0 13 -5 13 -15v-52c0 -5.33301 -1.16699 -9.33301 -3.5 -12s-6.16602 -6 -11.499 -10l-225 -176l225 -177c5.33301 -4 9.16602 -7.33301 11.499 -10
s3.5 -6.66699 3.5 -12v-52c0 -10 -4.33301 -15 -13 -15c-4 0 -8.33301 1.33301 -13 4l-271 212c-4 2.66699 -7.33301 5.33398 -10 8.00098s-4 7.33398 -4 14.001v56v0z" />
    <glyph glyph-name="equal" unicode="=" 
d="M456 407c5.33301 0 9.66602 -1.66699 12.999 -5s5 -7.66602 5 -12.999v-36c0 -5.33301 -1.66699 -9.66602 -5 -12.999s-7.66602 -5 -12.999 -5h-340c-5.33301 0 -9.66602 1.66699 -12.999 5s-5 7.66602 -5 12.999v36c0 5.33301 1.66699 9.66602 5 12.999
s7.66602 5 12.999 5h340zM456 201c5.33301 0 9.66602 -1.66699 12.999 -5s5 -7.66602 5 -12.999v-36c0 -5.33301 -1.66699 -9.66602 -5 -12.999s-7.66602 -5 -12.999 -5h-340c-5.33301 0 -9.66602 1.66699 -12.999 5s-5 7.66602 -5 12.999v36
c0 5.33301 1.66699 9.66602 5 12.999s7.66602 5 12.999 5h340z" />
    <glyph glyph-name="greater" unicode="&#x3e;" 
d="M442 240c0 -6.66699 -1.33301 -11.3301 -4 -13.9971s-6 -5.33398 -10 -8.00098l-271 -212c-4.66699 -2.66699 -9 -4 -13 -4c-8.66699 0 -13 5 -13 15v52c0 5.33301 1.16699 9.5 3.5 12.5s6.16602 6.16699 11.499 9.5l225 177l-225 176
c-5.33301 3.33301 -9.16602 6.5 -11.499 9.5s-3.5 7.16699 -3.5 12.5v52c0 10 4.33301 15 13 15c4 0 8.33301 -1.33301 13 -4l271 -211c4 -2.66699 7.33301 -5.33398 10 -8.00098s4 -7.33398 4 -14.001v-56z" />
    <glyph glyph-name="question" unicode="?" horiz-adv-x="478" 
d="M175 251c0 8 0.328125 15.6689 0.995117 23.002s2.16699 14.666 4.5 21.999s5.83301 15.166 10.5 23.499s11 17.166 19 26.499l107 121c8.66699 9.33301 16.167 20 22.5 32s9.5 26.333 9.5 43c0 36 -8.83301 64 -26.5 84s-45.167 30 -82.5 30
c-36.667 0 -64 -10.667 -82 -32s-27 -49 -27 -83v-4c0 -5.33301 -1.66699 -9.66602 -5 -12.999s-7.66602 -5 -12.999 -5h-43c-5.33301 0 -9.66602 1.66699 -12.999 5s-5 7.66602 -5 12.999v12c0 26.667 4.66699 51 14 73s22.333 41 39 57s36.334 28.5 59.001 37.5
s47.667 13.5 75 13.5c25.333 0 49.333 -4 72 -12s42.5 -19.667 59.5 -35s30.5 -34.666 40.5 -57.999s15 -50.333 15 -81c0 -5.33301 -0.5 -12 -1.5 -20s-3 -17 -6 -27s-6.83301 -20.167 -11.5 -30.5s-11 -19.833 -19 -28.5l-100 -114
c-6.66699 -7.33301 -12 -13.666 -16 -18.999s-7 -11 -9 -17s-3.33301 -12.833 -4 -20.5s-1 -17.834 -1 -30.501v-24c0 -5.33301 -1.66699 -9.66602 -5 -12.999s-7.66602 -5 -12.999 -5h-47c-5.33301 0 -9.66602 1.66699 -12.999 5s-5 7.66602 -5 12.999v38zM262.995 18.002
c0 -5.33301 -1.66699 -9.66602 -5 -12.999s-7.66602 -5 -12.999 -5h-57c-5.33301 0 -9.66602 1.66699 -12.999 5s-5 7.66602 -5 12.999v57c0 5.33301 1.66699 9.66602 5 12.999s7.66602 5 12.999 5h57c5.33301 0 9.66602 -1.66699 12.999 -5s5 -7.66602 5 -12.999v-57z" />
    <glyph glyph-name="at" unicode="@" horiz-adv-x="762" 
d="M455 373c0 28 -6.16699 47.332 -18.5 57.999s-33.5 16 -63.5 16c-14 0 -27 -3.83301 -39 -11.5s-22.667 -18.5 -32 -32.5s-16.666 -30.667 -21.999 -50s-8 -40.666 -8 -63.999c0 -26 6.5 -44.5 19.5 -55.5s31.167 -16.5 54.5 -16.5c28 0 50.167 10.333 66.5 31
s28.5 48.667 36.5 84c1.33301 6 2.66602 13.5 3.99902 22.5s2 15.167 2 18.5zM558 23.999c-5.33301 -6.66699 -14.0039 -13.3301 -26.0039 -19.9971s-26.333 -12.667 -43 -18s-35.167 -9.66602 -55.5 -12.999s-41.5 -5 -63.5 -5c-50.667 0 -96.334 9.5 -137.001 28.5
s-75.167 44.833 -103.5 77.5s-50.166 71.167 -65.499 115.5s-23 92.166 -23 143.499c0 42 7.83301 84.833 23.5 128.5s38.334 83.167 68.001 118.5s66 64.166 109 86.499s91.833 33.5 146.5 33.5c46.667 0 90.167 -7.16699 130.5 -21.5s75.5 -34.5 105.5 -60.5
s53.5 -56.833 70.5 -92.5s25.5 -74.834 25.5 -117.501s-5.66699 -80 -17 -112s-26.5 -58.833 -45.5 -80.5s-40.5 -37.834 -64.5 -48.501s-48.667 -16 -74 -16c-5.33301 0 -11.333 0.333008 -18 1s-13.5 2.66699 -20.5 6s-13.667 8.83301 -20 16.5s-11.5 18.5 -15.5 32.5
c-10 -12 -20 -21.667 -30 -29s-19.833 -13 -29.5 -17s-19.5 -6.66699 -29.5 -8s-20.333 -2 -31 -2c-20 0 -37.333 4.33301 -52 13s-26.834 19.667 -36.501 33s-16.834 28 -21.501 44s-7 31.333 -7 46c0 35.333 4.83301 67.166 14.5 95.499s22.834 52.333 39.501 72
s36.334 34.834 59.001 45.501s47 16 73 16c22 0 40.333 -3.5 55 -10.5s27.667 -17.167 39 -30.5l7 24c1.33301 5.33301 3.33301 9.16602 6 11.499s7.33398 3.5 14.001 3.5h28c8.66699 0 13 -4.33301 13 -13c0 -3.33301 -0.333008 -6 -1 -8l-43 -200
c-3.33301 -13.333 -5 -25.333 -5 -36c0 -5.33301 0.166992 -10.5 0.5 -15.5s1.5 -9.33301 3.5 -13s5.33301 -6.5 10 -8.5s11.334 -3 20.001 -3c14 0 28 4.16699 42 12.5s26.5 20.333 37.5 36s20 34.167 27 55.5s10.5 45 10.5 71c0 37.333 -6.83301 71 -20.5 101
s-32.667 55.667 -57 77s-53.166 37.666 -86.499 48.999s-69.666 17 -108.999 17c-36.667 0 -72 -7.66699 -106 -23s-64 -36.666 -90 -63.999s-46.667 -59.666 -62 -96.999s-23 -78 -23 -122c0 -42 5.83301 -81.167 17.5 -117.5s29 -67.833 52 -94.5s51.667 -47.667 86 -63
s74.166 -23 119.499 -23c53.333 0 97 11.333 131 34c3.33301 2.66699 6.83301 5.16699 10.5 7.5s7.83398 3.5 12.501 3.5c5.33301 0 9.16602 -1.5 11.499 -4.5s4.83301 -6.5 7.5 -10.5c7.33301 -12 11 -20.667 11 -26c0 -3.33301 -1.66699 -7.33301 -5 -12z" />
    <glyph glyph-name="A" unicode="A" horiz-adv-x="528" 
d="M306 709c8 0 13.3311 -4.66797 15.998 -14.001l180 -672c0.666992 -3.33301 1 -5.66602 1 -6.99902c0 -4.66699 -2 -8.5 -6 -11.5s-8.66699 -4.5 -14 -4.5h-41c-4.66699 0 -8.16699 1.66699 -10.5 5s-4.16602 7.33301 -5.49902 12l-40 151h-244l-40 -151
c-1.33301 -4.66699 -3.16602 -8.66699 -5.49902 -12s-5.83301 -5 -10.5 -5h-41c-5.33301 0 -10 1.5 -14 4.5s-6 6.83301 -6 11.5c0 2 0.333008 4.33301 1 7l180 672c2 9.33301 7.33301 14 16 14h84zM263.998 630.999l-103 -389h206z" />
    <glyph glyph-name="B" unicode="B" horiz-adv-x="497" 
d="M359 547c0 32.667 -7.5 56.5 -22.5 71.5s-38.833 22.5 -71.5 22.5h-125v-231h127c32.667 0 56.167 7.66699 70.5 23s21.5 39.333 21.5 72v42zM278 68c29.333 0 51.5 6.33301 66.5 19s22.5 34.667 22.5 66v90c0 33.333 -7.83301 57.5 -23.5 72.5s-39.5 22.5 -71.5 22.5
h-132v-270h138zM78 0c-5.33301 0 -9.66602 1.66797 -12.999 5.00098s-5 7.66602 -5 12.999v673c0 5.33301 1.66699 9.66602 5 12.999s7.66602 5 12.999 5h229c38 0 68.333 -11.667 91 -35s34 -53 34 -89v-92c0 -26 -5.33301 -49.333 -16 -70s-28.667 -36.667 -54 -48
c31.333 -8 54.166 -24.667 68.499 -50s21.5 -53.666 21.5 -84.999v-107c0 -18.667 -3.33301 -36.167 -10 -52.5s-16 -30.5 -28 -42.5s-26.167 -21.333 -42.5 -28s-34.166 -10 -53.499 -10h-240z" />
    <glyph glyph-name="C" unicode="C" horiz-adv-x="495" 
d="M448 175c0 -29.333 -5 -56 -15 -80s-23.833 -44.5 -41.5 -61.5s-38.5 -30 -62.5 -39s-49.667 -13.5 -77 -13.5s-53 4.5 -77 13.5s-44.833 22 -62.5 39s-31.5 37.5 -41.5 61.5s-15 50.667 -15 80v360c0 29.333 5 56 15 80s23.833 44.5 41.5 61.5s38.5 30.167 62.5 39.5
s49.667 14 77 14s53 -4.66699 77 -14s44.833 -22.5 62.5 -39.5s31.5 -37.5 41.5 -61.5s15 -50.667 15 -80v-11c0 -5.33301 -1.66699 -9.66602 -5 -12.999s-7.66602 -5 -12.999 -5h-46c-5.33301 0 -9.66602 1.66699 -12.999 5s-5 7.66602 -5 12.999v11
c0 36 -10.333 65.167 -31 87.5s-48.334 33.5 -83.001 33.5s-62.334 -11.167 -83.001 -33.5s-31 -51.5 -31 -87.5v-360c0 -36 10.333 -65 31 -87s48.334 -33 83.001 -33s62.334 11 83.001 33s31 51 31 87v13c0 5.33301 1.66699 9.66602 5 12.999s7.66602 5 12.999 5h46
c5.33301 0 9.66602 -1.66699 12.999 -5s5 -7.66602 5 -12.999v-13z" />
    <glyph glyph-name="D" unicode="D" horiz-adv-x="497" 
d="M364 549c0 61.333 -27.667 92 -83 92h-140v-573h140c55.333 0 83 30.667 83 92v389zM306 709c18.667 0 36.334 -3.3291 53.001 -9.99609s31.167 -16.334 43.5 -29.001s22 -28.167 29 -46.5s10.5 -38.833 10.5 -61.5v-415c0 -22.667 -3.5 -43.167 -10.5 -61.5
s-16.667 -33.833 -29 -46.5s-26.833 -22.334 -43.5 -29.001s-34.334 -10 -53.001 -10h-227c-5.33301 0 -9.66602 1.66699 -12.999 5s-5 7.66602 -5 12.999v673c0 5.33301 1.66699 9.66602 5 12.999s7.66602 5 12.999 5h227z" />
    <glyph glyph-name="E" unicode="E" horiz-adv-x="452" 
d="M141 637v-221.004h212c5.33301 0 9.66602 -1.66699 12.999 -5s5 -7.66602 5 -12.999v-36c0 -5.33301 -1.66699 -9.66602 -5 -12.999s-7.66602 -5 -12.999 -5h-212v-272h258c5.33301 0 9.66602 -1.66699 12.999 -5s5 -7.66602 5 -12.999v-36
c0 -5.33301 -1.66699 -9.66602 -5 -12.999s-7.66602 -5 -12.999 -5h-320c-5.33301 0 -9.66602 1.66699 -12.999 5s-5 7.66602 -5 12.999v673c0 5.33301 1.66699 9.66602 5 12.999s7.66602 5 12.999 5h316c5.33301 0 9.66602 -1.66699 12.999 -5s5 -7.66602 5 -12.999v-36
c0 -5.33301 -1.66699 -9.66602 -5 -12.999s-7.66602 -5 -12.999 -5h-254z" />
    <glyph glyph-name="F" unicode="F" horiz-adv-x="425" 
d="M132 637l-0.000976562 -221.003h207c5.33301 0 9.66602 -1.66699 12.999 -5s5 -7.66602 5 -12.999v-36c0 -5.33301 -1.66699 -9.66602 -5 -12.999s-7.66602 -5 -12.999 -5h-207v-326c0 -5.33301 -1.66699 -9.66602 -5 -12.999s-7.66602 -5 -12.999 -5h-44
c-5.33301 0 -9.66602 1.66699 -12.999 5s-5 7.66602 -5 12.999v673c0 5.33301 1.66699 9.66602 5 12.999s7.66602 5 12.999 5h312c5.33301 0 9.66602 -1.66699 12.999 -5s5 -7.66602 5 -12.999v-36c0 -5.33301 -1.66699 -9.66602 -5 -12.999s-7.66602 -5 -12.999 -5h-250z
" />
    <glyph glyph-name="G" unicode="G" horiz-adv-x="504" 
d="M366 52c-15.333 -22.667 -34.1719 -40.165 -56.5049 -52.498s-48.166 -18.5 -77.499 -18.5c-22 0 -43.667 3.83301 -65 11.5s-40.166 19.5 -56.499 35.5s-29.5 36.167 -39.5 60.5s-15 53.166 -15 86.499v360c0 29.333 5 56 15 80s23.833 44.5 41.5 61.5
s38.5 30.167 62.5 39.5s49.667 14 77 14s53 -4.66699 77 -14s44.833 -22.5 62.5 -39.5s31.5 -37.5 41.5 -61.5s15 -50.667 15 -80v-11c0 -5.33301 -1.66699 -9.66602 -5 -12.999s-7.66602 -5 -12.999 -5h-46c-5.33301 0 -9.66602 1.66699 -12.999 5s-5 7.66602 -5 12.999v11
c0 36 -10.333 65.167 -31 87.5s-48.334 33.5 -83.001 33.5s-62.334 -11.167 -83.001 -33.5s-31 -51.5 -31 -87.5v-360c0 -36 10.333 -65 31 -87s48.334 -33 83.001 -33s62.334 11 83.001 33s31 51 31 87v145h-85c-5.33301 0 -9.66602 1.66699 -12.999 5
s-5 7.66602 -5 12.999v43c0 5.33301 1.66699 9.66602 5 12.999s7.66602 5 12.999 5h149c5.33301 0 9.66602 -1.66699 12.999 -5s5 -7.66602 5 -12.999v-363c0 -5.33301 -1.66699 -9.66602 -5 -12.999s-7.66602 -5 -12.999 -5h-46c-5.33301 0 -9.66602 1.66699 -12.999 5
s-5 7.66602 -5 12.999v34z" />
    <glyph glyph-name="H" unicode="H" horiz-adv-x="531" 
d="M386 406v285c0 5.33301 1.66699 9.66602 5 12.999s7.66602 5 12.999 5h44c5.33301 0 9.66602 -1.66699 12.999 -5s5 -7.66602 5 -12.999v-673c0 -5.33301 -1.66699 -9.66602 -5 -12.999s-7.66602 -5 -12.999 -5h-44c-5.33301 0 -9.66602 1.66699 -12.999 5
s-5 7.66602 -5 12.999v317h-241v-317c0 -5.33301 -1.66699 -9.66602 -5 -12.999s-7.66602 -5 -12.999 -5h-44c-5.33301 0 -9.66602 1.66699 -12.999 5s-5 7.66602 -5 12.999v673c0 5.33301 1.66699 9.66602 5 12.999s7.66602 5 12.999 5h44
c5.33301 0 9.66602 -1.66699 12.999 -5s5 -7.66602 5 -12.999v-285h241z" />
    <glyph glyph-name="I" unicode="I" horiz-adv-x="212" 
d="M146 18c0 -5.33301 -1.66699 -9.66602 -5 -12.999s-7.66602 -5 -12.999 -5h-44c-5.33301 0 -9.66602 1.66699 -12.999 5s-5 7.66602 -5 12.999v673c0 5.33301 1.66699 9.66602 5 12.999s7.66602 5 12.999 5h44c5.33301 0 9.66602 -1.66699 12.999 -5
s5 -7.66602 5 -12.999v-673z" />
    <glyph glyph-name="J" unicode="J" horiz-adv-x="460" 
d="M115 175c0 -36 8.83496 -65 26.502 -87s44.834 -33 81.501 -33s63.834 11 81.501 33s26.5 51 26.5 87v516c0 5.33301 1.66699 9.66602 5 12.999s7.66602 5 12.999 5h44c5.33301 0 9.66602 -1.66699 12.999 -5s5 -7.66602 5 -12.999v-516c0 -29.333 -4.66699 -56 -14 -80
s-22.333 -44.5 -39 -61.5s-36.5 -30 -59.5 -39s-48.167 -13.5 -75.5 -13.5s-52.5 4.5 -75.5 13.5s-42.833 22 -59.5 39s-29.667 37.5 -39 61.5s-14 50.667 -14 80v20c0 5.33301 1.66699 9.66602 5 12.999s7.66602 5 12.999 5h44c5.33301 0 9.66602 -1.66699 12.999 -5
s5 -7.66602 5 -12.999v-20z" />
    <glyph glyph-name="K" unicode="K" horiz-adv-x="478" 
d="M141 18c0 -5.33301 -1.66699 -9.66699 -5 -13s-7.66602 -5 -12.999 -5h-44c-5.33301 0 -9.66602 1.66699 -12.999 5s-5 7.66602 -5 12.999v673c0 5.33301 1.66699 9.66602 5 12.999s7.66602 5 12.999 5h44c5.33301 0 9.66602 -1.66699 12.999 -5s5 -7.66602 5 -12.999
v-291l199 288c4 6 8.16699 11 12.5 15s10.5 6 18.5 6h32c15.333 0 23 -5 23 -15c0 -3.33301 -1.66699 -7.66602 -5 -12.999l-203 -293l223 -359c1.33301 -2.66699 2 -6.66699 2 -12c0 -11.333 -7.33301 -17 -22 -17h-37c-6 -0 -11 2.33301 -15 7s-7.66699 9.66699 -11 15
l-217 347v-351z" />
    <glyph glyph-name="L" unicode="L" horiz-adv-x="413" 
d="M370 72c5.33301 0 9.66699 -1.66797 13 -5.00098s5 -7.66602 5 -12.999v-36c0 -5.33301 -1.66699 -9.66602 -5 -12.999s-7.66602 -5 -12.999 -5h-291c-5.33301 0 -9.66602 1.66699 -12.999 5s-5 7.66602 -5 12.999v673c0 5.33301 1.66699 9.66602 5 12.999
s7.66602 5 12.999 5h44c5.33301 0 9.66602 -1.66699 12.999 -5s5 -7.66602 5 -12.999v-619h229z" />
    <glyph glyph-name="M" unicode="M" horiz-adv-x="644" 
d="M504 640l-142.002 -618c-1.33301 -6 -3.83301 -11.167 -7.5 -15.5s-8.5 -6.5 -14.5 -6.5h-36c-6 0 -10.833 2.16699 -14.5 6.5s-6.16699 9.5 -7.5 15.5l-142 618v-622c0 -5.33301 -1.66699 -9.66602 -5 -12.999s-7.66602 -5 -12.999 -5h-43
c-5.33301 0 -9.66602 1.66699 -12.999 5s-5 7.66602 -5 12.999v673c0 5.33301 1.66699 9.66602 5 12.999s7.66602 5 12.999 5h100c6 0 10.833 -2.16699 14.5 -6.5s6.16699 -9.5 7.5 -15.5l121 -527l121 527c1.33301 6 3.83301 11.167 7.5 15.5s8.5 6.5 14.5 6.5h100
c5.33301 0 9.66602 -1.66699 12.999 -5s5 -7.66602 5 -12.999v-673c0 -5.33301 -1.66699 -9.66602 -5 -12.999s-7.66602 -5 -12.999 -5h-43c-5.33301 0 -9.66602 1.66699 -12.999 5s-5 7.66602 -5 12.999v622z" />
    <glyph glyph-name="N" unicode="N" horiz-adv-x="545" 
d="M57 691c0 5.33301 1.66699 9.66602 5 12.999s7.66602 5 12.999 5h53c10 0 17.667 -5.66699 23 -17l257 -542v541c0 5.33301 1.66699 9.66602 5 12.999s7.66602 5 12.999 5h44c5.33301 0 9.66602 -1.66699 12.999 -5s5 -7.66602 5 -12.999v-673
c0 -5.33301 -1.66699 -9.66602 -5 -12.999s-7.66602 -5 -12.999 -5h-53c-10 0 -17.667 5.66699 -23 17l-257 542v-541c0 -5.33301 -1.66699 -9.66602 -5 -12.999s-7.66602 -5 -12.999 -5h-44c-5.33301 0 -9.66602 1.66699 -12.999 5s-5 7.66602 -5 12.999v673z" />
    <glyph glyph-name="O" unicode="O" horiz-adv-x="500" 
d="M250 55c34.667 0 62.334 11 83.001 33s31 51 31 87v360c0 36 -10.333 65.167 -31 87.5s-48.334 33.5 -83.001 33.5s-62.334 -11.167 -83.001 -33.5s-31 -51.5 -31 -87.5v-360c0 -36 10.333 -65 31 -87s48.334 -33 83.001 -33zM250 730c27.333 0 53 -4.66699 77 -14
s44.833 -22.5 62.5 -39.5s31.5 -37.5 41.5 -61.5s15 -50.667 15 -80v-360c0 -29.333 -5 -56 -15 -80s-23.833 -44.5 -41.5 -61.5s-38.5 -30 -62.5 -39s-49.667 -13.5 -77 -13.5s-53 4.5 -77 13.5s-44.833 22 -62.5 39s-31.5 37.5 -41.5 61.5s-15 50.667 -15 80v360
c0 29.333 5 56 15 80s23.833 44.5 41.5 61.5s38.5 30.167 62.5 39.5s49.667 14 77 14z" />
    <glyph glyph-name="P" unicode="P" horiz-adv-x="475" 
d="M141 18c0 -5.33301 -1.66797 -9.66504 -5.00098 -12.998s-7.66602 -5 -12.999 -5h-44c-5.33301 0 -9.66602 1.66699 -12.999 5s-5 7.66602 -5 12.999v673c0 5.33301 1.66699 9.66602 5 12.999s7.66602 5 12.999 5h228c42 0 73.667 -12.333 95 -37s32 -56.667 32 -96v-167
c0 -39.333 -10.833 -71.333 -32.5 -96s-53.5 -37 -95.5 -37h-165v-258zM355.999 556.001c0 31.333 -7.5 53.333 -22.5 66s-37.167 19 -66.5 19h-126v-297h126c30 0 52.333 6.33301 67 19s22 34.667 22 66v127z" />
    <glyph glyph-name="Q" unicode="Q" horiz-adv-x="516" 
d="M252 52c34.667 0 62.334 11 83.001 33s31 51 31 87v363c0 36 -10.333 65.167 -31 87.5s-48.334 33.5 -83.001 33.5s-62.334 -11.167 -83.001 -33.5s-31 -51.5 -31 -87.5v-363c0 -36 10.333 -65 31 -87s48.334 -33 83.001 -33zM488 50c8.66699 0 13 -4 13 -12
c0 -1.33301 -0.166992 -2.5 -0.5 -3.5l-1.5 -4.5l-16 -29c-2 -5.33301 -5.83301 -10 -11.5 -14s-11.5 -6 -17.5 -6h-202c-27.333 0 -53 4.5 -77 13.5s-44.833 22 -62.5 39s-31.5 37.5 -41.5 61.5s-15 50.667 -15 80v360c0 29.333 5 56 15 80s23.833 44.5 41.5 61.5
s38.5 30.167 62.5 39.5s49.667 14 77 14s53 -4.66699 77 -14s44.833 -22.5 62.5 -39.5s31.5 -37.5 41.5 -61.5s15 -50.667 15 -80v-363c0 -48 -13 -88.667 -39 -122h79z" />
    <glyph glyph-name="R" unicode="R" horiz-adv-x="495" 
d="M139 641v-248h130c32.667 0 56.5 7.66699 71.5 23s22.5 39.333 22.5 72v68c0 29.333 -7.5 50.833 -22.5 64.5s-36.5 20.5 -64.5 20.5h-137zM445 18c0 -5.33301 -1.66797 -9.66602 -5.00098 -12.999s-7.66602 -5 -12.999 -5h-44c-5.33301 0 -9.66602 1.66699 -12.999 5
s-5 7.66602 -5 12.999v227c0 30 -8 50.833 -24 62.5s-39.333 17.5 -70 17.5h-131v-307c0 -5.33301 -1.66699 -9.66602 -5 -12.999s-7.66602 -5 -12.999 -5h-44c-5.33301 0 -9.66602 1.66699 -12.999 5s-5 7.66602 -5 12.999v673c0 5.33301 1.66699 9.66602 5 12.999
s7.66602 5 12.999 5h223c43.333 0 76.666 -11.5 99.999 -34.5s35 -55.5 35 -97.5v-102c0 -30 -5.5 -54.667 -16.5 -74s-29.5 -33.666 -55.5 -42.999c31.333 -11.333 52.666 -27 63.999 -47s17 -47.333 17 -82v-211z" />
    <glyph glyph-name="S" unicode="S" horiz-adv-x="466" 
d="M116 175c0 -17.333 2.8291 -33.166 8.49609 -47.499s13.834 -26.833 24.501 -37.5s23 -19 37 -25s29.667 -9 47 -9c18 0 34.167 3 48.5 9s26.5 14.333 36.5 25s17.667 22.667 23 36s8 27.666 8 42.999v18c0 11.333 -1 21.166 -3 29.499s-5.66699 16 -11 23
s-12.5 14 -21.5 21s-20.5 15.167 -34.5 24.5l-157 102c-30 19.333 -51.5 41.333 -64.5 66s-19.5 53 -19.5 85c0 26.667 4.33301 51.667 13 75s21.334 43.666 38.001 60.999s37.334 31 62.001 41s52.667 15 84 15s59.166 -5 83.499 -15s44.833 -23.667 61.5 -41
s29.334 -37.666 38.001 -60.999s13 -48.333 13 -75v-8c0 -5.33301 -1.66699 -9.66602 -5 -12.999s-7.66602 -5 -12.999 -5h-45c-5.33301 0 -9.66602 1.66699 -12.999 5s-5 7.66602 -5 12.999v15c0 30 -9.66699 56 -29 78s-48 33 -86 33c-40 0 -69.5 -11 -88.5 -33
s-28.5 -48 -28.5 -78v-18c0 -22 7.5 -39.667 22.5 -53s34.833 -27.666 59.5 -42.999l146 -92c32 -20.667 54 -43.5 66 -68.5s18 -55.5 18 -91.5c0 -27.333 -4.83301 -53 -14.5 -77s-23.167 -45 -40.5 -63s-38.166 -32.167 -62.499 -42.5s-50.833 -15.5 -79.5 -15.5
c-28 0 -54 5 -78 15s-45 23.333 -63 40s-32 36.167 -42 58.5s-15 45.5 -15 69.5v42c0 5.33301 1.66699 9.66602 5 12.999s7.66602 5 12.999 5h45c5.33301 0 9.66602 -1.66699 12.999 -5s5 -7.66602 5 -12.999v-31z" />
    <glyph glyph-name="T" unicode="T" horiz-adv-x="447" 
d="M406 709c5.33301 0 9.66406 -1.66699 12.9971 -5s5 -7.66602 5 -12.999v-36c0 -5.33301 -1.66699 -9.66602 -5 -12.999s-7.66602 -5 -12.999 -5h-143v-619c0 -5.33301 -1.66699 -9.66602 -5 -12.999s-7.66602 -5 -12.999 -5h-44c-5.33301 0 -9.66602 1.66699 -12.999 5
s-5 7.66602 -5 12.999v619h-142c-5.33301 0 -9.66602 1.66699 -12.999 5s-5 7.66602 -5 12.999v36c0 5.33301 1.66699 9.66602 5 12.999s7.66602 5 12.999 5h365z" />
    <glyph glyph-name="U" unicode="U" horiz-adv-x="504" 
d="M56 691c0 5.33301 1.66895 9.66602 5.00195 12.999s7.66602 5 12.999 5h46c5.33301 0 9.66602 -1.66699 12.999 -5s5 -7.66602 5 -12.999v-516c0 -36 10.333 -65 31 -87s48.334 -33 83.001 -33s62.334 11 83.001 33s31 51 31 87v516c0 5.33301 1.66699 9.66602 5 12.999
s7.66602 5 12.999 5h46c5.33301 0 9.66602 -1.66699 12.999 -5s5 -7.66602 5 -12.999v-516c0 -29.333 -5 -56 -15 -80s-23.833 -44.5 -41.5 -61.5s-38.5 -30 -62.5 -39s-49.667 -13.5 -77 -13.5s-53 4.5 -77 13.5s-44.833 22 -62.5 39s-31.5 37.5 -41.5 61.5
s-15 50.667 -15 80v516z" />
    <glyph glyph-name="V" unicode="V" horiz-adv-x="492" 
d="M188 0c-5.33301 0 -9.33301 1.66797 -12 5.00098s-4.66699 7.66602 -6 12.999l-145 669c-0.666992 0 -1 0.666992 -1 2v1c0 5.33301 1.83301 9.83301 5.5 13.5s8.16699 5.5 13.5 5.5h37c6 0 11.5 -2.16699 16.5 -6.5s8.16699 -9.5 9.5 -15.5l140 -646l140 646
c1.33301 6 4.5 11.167 9.5 15.5s10.5 6.5 16.5 6.5h37c5.33301 0 9.83301 -1.83301 13.5 -5.5s5.5 -8.16699 5.5 -13.5v-1c0 -0.666992 -0.333008 -1.33398 -1 -2.00098l-145 -669c-1.33301 -5.33301 -3.33301 -9.66602 -6 -12.999s-6.66699 -5 -12 -5h-116z" />
    <glyph glyph-name="W" unicode="W" horiz-adv-x="788" 
d="M394 621l-115.004 -604c-1.33301 -4.66699 -3.16602 -8.66699 -5.49902 -12s-5.83301 -5 -10.5 -5h-94c-6.66699 0 -11.667 2.16699 -15 6.5s-5.66602 9.5 -6.99902 15.5l-120 655c-0.666992 2 -1.16699 4.5 -1.5 7.5s-0.5 4.83301 -0.5 5.5
c0 5.33301 1.33301 9.83301 4 13.5s6.66699 5.5 12 5.5h43c6 0 11.333 -2.16699 16 -6.5s7.66699 -9.5 9 -15.5l107 -626l115 631c1.33301 4.66699 3.33301 8.66699 6 12s6.66699 5 12 5h90c5.33301 0 9.33301 -1.66699 12 -5s4.66699 -7.33301 6 -12l115 -631l107 626
c1.33301 6 4.33301 11.167 9 15.5s10 6.5 16 6.5h43c5.33301 0 9.33301 -1.83301 12 -5.5s4 -8.16699 4 -13.5c0 -0.666992 -0.166992 -2.5 -0.5 -5.5s-0.833008 -5.5 -1.5 -7.5l-120 -655c-1.33301 -6 -3.66602 -11.167 -6.99902 -15.5s-8.33301 -6.5 -15 -6.5h-94
c-4.66699 0 -8.16699 1.66699 -10.5 5s-4.16602 7.33301 -5.49902 12z" />
    <glyph glyph-name="X" unicode="X" horiz-adv-x="550" 
d="M407 686c5.33301 9.33301 9.33105 15.5 11.998 18.5s7.33398 4.5 14.001 4.5h46c5.33301 0 9.5 -1.66699 12.5 -5s4.5 -7.33301 4.5 -12c0 -2.66699 -0.666992 -5.33398 -2 -8.00098l-160 -315l184 -342c0.666992 -2 1.16699 -3.66699 1.5 -5s0.5 -2.66602 0.5 -3.99902
c0 -4.66699 -1.5 -8.83398 -4.5 -12.501s-7.16699 -5.5 -12.5 -5.5h-50c-5.33301 0 -10 1.66699 -14 5s-8.66699 9.66602 -14 18.999l-150 284l-150 -284c-5.33301 -9.33301 -10 -15.666 -14 -18.999s-8.66699 -5 -14 -5h-50c-5.33301 0 -9.5 1.83301 -12.5 5.5
s-4.5 7.83398 -4.5 12.501c0 1.33301 0.166992 2.66602 0.5 3.99902s0.833008 3 1.5 5l184 342l-160 315c-1.33301 2.66699 -2 5.33398 -2 8.00098c0 4.66699 1.5 8.66699 4.5 12s7.16699 5 12.5 5h46c6.66699 0 11.334 -1.5 14.001 -4.5s6.66699 -9.16699 12 -18.5
l132 -255z" />
    <glyph glyph-name="Y" unicode="Y" horiz-adv-x="520" 
d="M220 331l-187 355c-1.33301 2.66699 -2 5 -2 7c0 10.667 5.66699 16 17 16h41c6 0 10.667 -1.33301 14 -4s7.66602 -9 12.999 -19l144 -265l144 265c5.33301 10 9.66602 16.333 12.999 19s8 4 14 4h41c11.333 0 17 -5.33301 17 -16c0 -2 -0.666992 -4.33301 -2 -7
l-187 -355v-313c0 -5.33301 -1.66699 -9.66602 -5 -12.999s-7.66602 -5 -12.999 -5h-44c-5.33301 0 -9.66602 1.66699 -12.999 5s-5 7.66602 -5 12.999v313z" />
    <glyph glyph-name="Z" unicode="Z" horiz-adv-x="501" 
d="M440 709c5.33301 0 9.66602 -1.66699 12.999 -5s5 -7.66602 5 -12.999v-34c0 -8 -0.166992 -15.167 -0.5 -21.5s-1.83301 -11.5 -4.5 -15.5l-333 -548h328c5.33301 0 9.66602 -1.66699 12.999 -5s5 -7.66602 5 -12.999v-36c0 -5.33301 -1.66699 -9.66602 -5 -12.999
s-7.66602 -5 -12.999 -5h-395c-5.33301 0 -9.66602 1.66699 -12.999 5s-5 7.66602 -5 12.999v34c0 8 0.166992 15.167 0.5 21.5s1.83301 11.5 4.5 15.5l333 548h-296c-5.33301 0 -9.66602 1.66699 -12.999 5s-5 7.66602 -5 12.999v36c0 5.33301 1.66699 9.66602 5 12.999
s7.66602 5 12.999 5h363z" />
    <glyph glyph-name="bracketleft" unicode="[" horiz-adv-x="277" 
d="M209 -147c5.33301 0 9.66602 -1.66895 12.999 -5.00195s5 -7.66602 5 -12.999v-31c0 -5.33301 -1.66699 -9.66602 -5 -12.999s-7.66602 -5 -12.999 -5h-36c-34 0 -60.5 11.167 -79.5 33.5s-28.5 50.166 -28.5 83.499v708c0 33.333 9.5 61.166 28.5 83.499
s45.5 33.5 79.5 33.5h36c5.33301 0 9.66602 -1.66699 12.999 -5s5 -7.66602 5 -12.999v-31c0 -5.33301 -1.66699 -9.66602 -5 -12.999s-7.66602 -5 -12.999 -5h-27c-16.667 0 -28.334 -4 -35.001 -12s-10 -18.333 -10 -31v-722c0 -12.667 3.33301 -23 10 -31
s18.334 -12 35.001 -12h27z" />
    <glyph glyph-name="backslash" unicode="\" horiz-adv-x="392" 
d="M20 696c0 8.66699 4.33301 13 13 13h30c5.33301 0 10 -1 14 -3s7.66699 -7.66699 11 -17l282 -737c1.33301 -4 2 -6.66699 2 -8c0 -9.33301 -4.66699 -14 -14 -14h-30c-5.33301 0 -9.83301 1 -13.5 3s-7.16699 8 -10.5 18l-282 737c-1.33301 4 -2 6.66699 -2 8z" />
    <glyph glyph-name="bracketright" unicode="]" horiz-adv-x="277" 
d="M95 -147c16.667 0 28.334 4.00195 35.001 12.002s10 18.333 10 31v722c0 12.667 -3.33301 23 -10 31s-18.334 12 -35.001 12h-27c-5.33301 0 -9.66602 1.66699 -12.999 5s-5 7.66602 -5 12.999v31c0 5.33301 1.66699 9.66602 5 12.999s7.66602 5 12.999 5h36
c34 0 60.5 -11.167 79.5 -33.5s28.5 -50.166 28.5 -83.499v-708c0 -33.333 -9.5 -61.166 -28.5 -83.499s-45.5 -33.5 -79.5 -33.5h-36c-5.33301 0 -9.66602 1.66699 -12.999 5s-5 7.66602 -5 12.999v31c0 5.33301 1.66699 9.66602 5 12.999s7.66602 5 12.999 5h27z" />
    <glyph glyph-name="asciicircum" unicode="^" 
d="M307 729c8 0 13.667 -3.66699 17 -11l149 -267c2 -3.33301 3 -6.66602 3 -9.99902c0 -7.33301 -3.33301 -13.333 -10 -18l-30 -15c-3.33301 -2 -6.33301 -3 -9 -3c-8 0 -14 3.33301 -18 10l-123 222l-123 -222c-4 -6.66699 -10 -10 -18 -10c-3.33301 0 -6.33301 1 -9 3
l-30 15c-6.66699 4.66699 -10 10.667 -10 18c0 3.33301 1 6.66602 3 9.99902l149 267c3.33301 7.33301 9 11 17 11h42z" />
    <glyph glyph-name="underscore" unicode="_" horiz-adv-x="529" 
d="M476 -85c5.33301 0 9.66602 -1.66699 12.999 -5s5 -7.66602 5 -12.999v-36c0 -5.33301 -1.66699 -9.66602 -5 -12.999s-7.66602 -5 -12.999 -5h-423c-5.33301 0 -9.66602 1.66699 -12.999 5s-5 7.66602 -5 12.999v36c0 5.33301 1.66699 9.66602 5 12.999
s7.66602 5 12.999 5h423z" />
    <glyph glyph-name="grave" unicode="`" horiz-adv-x="313" 
d="M95 719c-1.33301 2.66699 -2.00195 4.66602 -2.00195 5.99902c0 4 1.66699 7.5 5 10.5s7.33301 4.5 12 4.5h49c6 0 11.333 -2.16699 16 -6.5s8.33398 -9.16602 11.001 -14.499l31 -70c2 -3.33301 3 -7 3 -11c0 -10.667 -6 -16 -18 -16h-24
c-7.33301 0 -12.666 1.16699 -15.999 3.5s-7.33301 6.5 -12 12.5z" />
    <glyph glyph-name="a" unicode="a" horiz-adv-x="445" 
d="M166 213c-22.667 -12 -37.5 -24.667 -44.5 -38s-10.5 -28 -10.5 -44c0 -26.667 8.16699 -46.5 24.5 -59.5s36.166 -19.5 59.499 -19.5c14.667 0 29.334 2.16699 44.001 6.5s28 11 40 20s21.833 20 29.5 33s11.5 28.167 11.5 45.5v133zM266 332
c19.333 9.33301 33 18.833 41 28.5s12 21.167 12 34.5c0 25.333 -7.33301 46.333 -22 63s-39 25 -73 25c-29.333 0 -52 -8.33301 -68 -25s-24 -39 -24 -67v-4c0 -5.33301 -1.66699 -9.66602 -5 -12.999s-7.66602 -5 -12.999 -5h-38c-5.33301 0 -9.66602 1.66699 -12.999 5
s-5 7.66602 -5 12.999v11c0 21.333 4.16699 41.333 12.5 60s20.166 34.834 35.499 48.501s33.666 24.334 54.999 32.001s44.666 11.5 69.999 11.5c28 0 52.167 -4.16699 72.5 -12.5s37.166 -19.833 50.499 -34.5s23.333 -31.834 30 -51.501s10 -40.834 10 -63.501v-370
c0 -5.33301 -1.66699 -9.66602 -5 -12.999s-7.66602 -5 -12.999 -5h-38c-5.33301 0 -9.66602 1.66699 -12.999 5s-5 7.66602 -5 12.999v48c-13.333 -22 -32.833 -40.333 -58.5 -55s-54.167 -22 -85.5 -22c-17.333 0 -34.5 2.83301 -51.5 8.5s-32.167 14.167 -45.5 25.5
s-24.166 25.5 -32.499 42.5s-12.5 36.5 -12.5 58.5c0 30 7.16699 57.333 21.5 82s38.166 44.667 71.499 60z" />
    <glyph glyph-name="b" unicode="b" horiz-adv-x="444" 
d="M399 152c0 -27.333 -4 -51.5 -12 -72.5s-18.5 -38.5 -31.5 -52.5s-27.833 -24.667 -44.5 -32s-33.334 -11 -50.001 -11c-33.333 0 -60.833 8 -82.5 24s-38.167 35 -49.5 57v-47c0 -5.33301 -1.66699 -9.66602 -5 -12.999s-7.66602 -5 -12.999 -5h-38
c-5.33301 0 -9.66602 1.66699 -12.999 5s-5 7.66602 -5 12.999v673c0 5.33301 1.66699 9.66602 5 12.999s7.66602 5 12.999 5h38c5.33301 0 9.66602 -1.66699 12.999 -5s5 -7.66602 5 -12.999v-221c11.333 22 27.833 41 49.5 57s49.167 24 82.5 24
c16.667 0 33.334 -3.66699 50.001 -11s31.5 -18 44.5 -32s23.5 -31.5 31.5 -52.5s12 -45.167 12 -72.5v-231zM129 175c0 -10.667 1.33301 -23.165 4 -37.498s7.66699 -27.833 15 -40.5s17.5 -23.334 30.5 -32.001s29.833 -13 50.5 -13c20 0 36.167 3.83301 48.5 11.5
s22 17.5 29 29.5s11.667 25.167 14 39.5s3.5 28.5 3.5 42.5v185c0 14 -1.16699 28.167 -3.5 42.5s-7 27.5 -14 39.5s-16.667 21.833 -29 29.5s-28.5 11.5 -48.5 11.5c-20.667 0 -37.5 -4.33301 -50.5 -13s-23.167 -19.334 -30.5 -32.001s-12.333 -26.167 -15 -40.5
s-4 -26.833 -4 -37.5v-185z" />
    <glyph glyph-name="c" unicode="c" horiz-adv-x="443" 
d="M48 378c0 22.667 4.33301 44.334 13 65.001s20.834 39 36.501 55s34.334 28.667 56.001 38s45.5 14 71.5 14s49.833 -4.66699 71.5 -14s40.5 -22 56.5 -38s28.333 -34.333 37 -55s13 -42.334 13 -65.001v-5c0 -5.33301 -1.66699 -9.66602 -5 -12.999
s-7.66602 -5 -12.999 -5h-39c-5.33301 0 -9.66602 1.66699 -12.999 5s-5 7.66602 -5 12.999v5c0 14 -2.66699 27.5 -8 40.5s-12.5 24.167 -21.5 33.5s-19.833 16.833 -32.5 22.5s-26.334 8.5 -41.001 8.5s-28.167 -2.83301 -40.5 -8.5s-23 -13.167 -32 -22.5
s-16.167 -20.5 -21.5 -33.5s-8 -26.5 -8 -40.5v-221c0 -14 2.66699 -27.5 8 -40.5s12.5 -24.167 21.5 -33.5s19.667 -16.833 32 -22.5s25.833 -8.5 40.5 -8.5s28.334 2.83301 41.001 8.5s23.5 13.167 32.5 22.5s16.167 20.5 21.5 33.5s8 26.5 8 40.5v10
c0 5.33301 1.66699 9.66602 5 12.999s7.66602 5 12.999 5h39c5.33301 0 9.66602 -1.66699 12.999 -5s5 -7.66602 5 -12.999v-10c0 -22.667 -4.33301 -44.334 -13 -65.001s-21 -39 -37 -55s-34.833 -28.667 -56.5 -38s-45.5 -14 -71.5 -14s-49.833 4.66699 -71.5 14
s-40.334 22 -56.001 38s-27.834 34.333 -36.501 55s-13 42.334 -13 65.001v221z" />
    <glyph glyph-name="d" unicode="d" horiz-adv-x="444" 
d="M45 383c0 27.333 4 51.5 12 72.5s18.5 38.5 31.5 52.5s27.667 24.667 44 32s33.166 11 50.499 11c33.333 0 60.833 -8 82.5 -24s38.167 -35 49.5 -57v221c0 5.33301 1.66699 9.66602 5 12.999s7.66602 5 12.999 5h38c5.33301 0 9.66602 -1.66699 12.999 -5
s5 -7.66602 5 -12.999v-673c0 -5.33301 -1.66699 -9.66602 -5 -12.999s-7.66602 -5 -12.999 -5h-38c-5.33301 0 -9.66602 1.66699 -12.999 5s-5 7.66602 -5 12.999v47c-11.333 -22 -27.833 -41 -49.5 -57s-49.167 -24 -82.5 -24c-17.333 0 -34.166 3.66699 -50.499 11
s-31 18 -44 32s-23.5 31.5 -31.5 52.5s-12 45.167 -12 72.5v231zM315 360c0 10.667 -1.33301 23.165 -4 37.498s-7.66699 27.833 -15 40.5s-17.5 23.334 -30.5 32.001s-29.833 13 -50.5 13c-20 0 -36.167 -3.83301 -48.5 -11.5s-22 -17.5 -29 -29.5
s-11.667 -25.167 -14 -39.5s-3.5 -28.5 -3.5 -42.5v-185c0 -14 1.16699 -28.167 3.5 -42.5s7 -27.5 14 -39.5s16.667 -21.833 29 -29.5s28.5 -11.5 48.5 -11.5c20.667 0 37.5 4.33301 50.5 13s23.167 19.334 30.5 32.001s12.333 26.167 15 40.5s4 26.833 4 37.5v185z" />
    <glyph glyph-name="e" unicode="e" horiz-adv-x="446" 
d="M333 314l0.00390625 64c0 14 -2.83301 27.5 -8.5 40.5s-13.334 24.167 -23.001 33.5s-20.834 16.833 -33.501 22.5s-26.334 8.5 -41.001 8.5c-15.333 0 -29.333 -2.83301 -42 -8.5s-23.834 -13.167 -33.501 -22.5s-17.167 -20.5 -22.5 -33.5s-8 -26.5 -8 -40.5v-64h212z
M121.004 252l-0.000976562 -95.002c0 -14 2.66699 -27.5 8 -40.5s12.833 -24.167 22.5 -33.5s20.834 -16.833 33.501 -22.5s26.667 -8.5 42 -8.5c14 0 27.167 2.5 39.5 7.5s23.333 12 33 21s17.334 19.333 23.001 31s8.5 24.167 8.5 37.5v8
c0 5.33301 1.66699 9.66602 5 12.999s7.66602 5 12.999 5h39c5.33301 0 9.66602 -1.66699 12.999 -5s5 -7.66602 5 -12.999v-8c0 -22 -4.66699 -43 -14 -63s-22 -37.5 -38 -52.5s-35 -26.833 -57 -35.5s-45.333 -13 -70 -13c-26 0 -49.833 4.66699 -71.5 14
s-40.5 22 -56.5 38s-28.5 34.333 -37.5 55s-13.5 42.334 -13.5 65.001v221c0 22.667 4.5 44.334 13.5 65.001s21.5 39 37.5 55s34.833 28.667 56.5 38s45.5 14 71.5 14s49.833 -4.66699 71.5 -14s40.5 -22 56.5 -38s28.5 -34.333 37.5 -55s13.5 -42.334 13.5 -65.001v-108
c0 -5.33301 -1.66699 -9.66602 -5 -12.999s-7.66602 -5 -12.999 -5h-267z" />
    <glyph glyph-name="f" unicode="f" horiz-adv-x="281" 
d="M53 590c0 35.333 11.165 63.9961 33.498 85.9961s54.5 33 96.5 33h55c5.33301 0 9.66602 -1.66699 12.999 -5s5 -7.66602 5 -12.999v-34c0 -5.33301 -1.66699 -9.66602 -5 -12.999s-7.66602 -5 -12.999 -5h-43c-28.667 0 -47.167 -5.5 -55.5 -16.5
s-12.5 -29.167 -12.5 -54.5v-58h111c5.33301 0 9.66602 -1.66699 12.999 -5s5 -7.66602 5 -12.999v-34c0 -5.33301 -1.66699 -9.66602 -5 -12.999s-7.66602 -5 -12.999 -5h-111v-422c0 -5.33301 -1.66699 -9.66602 -5 -12.999s-7.66602 -5 -12.999 -5h-38
c-5.33301 0 -9.66602 1.66699 -12.999 5s-5 7.66602 -5 12.999v572z" />
    <glyph glyph-name="g" unicode="g" horiz-adv-x="446" 
d="M315 82c-11.333 -22 -27.8291 -40.999 -49.4961 -56.999s-49.167 -24 -82.5 -24c-17.333 0 -34.166 3.66699 -50.499 11s-31 18 -44 32s-23.5 31.5 -31.5 52.5s-12 45.167 -12 72.5v214c0 27.333 4 51.5 12 72.5s18.5 38.5 31.5 52.5s27.667 24.667 44 32
s33.166 11 50.499 11c33.333 0 60.833 -8 82.5 -24s38.167 -35 49.5 -57v47c0 5.33301 1.66699 9.66602 5 12.999s7.66602 5 12.999 5h38c5.33301 0 9.66602 -1.66699 12.999 -5s5 -7.66602 5 -12.999v-581c0 -24.667 -3.66699 -47.834 -11 -69.501
s-18.666 -40.5 -33.999 -56.5s-33.5 -28.333 -54.5 -37s-43.833 -13 -68.5 -13c-23.333 0 -45.333 4.33301 -66 13s-38.667 20.5 -54 35.5s-27.5 32.667 -36.5 53s-13.5 42.5 -13.5 66.5v7c0 5.33301 1.66699 9.66602 5 12.999s7.66602 5 12.999 5h36
c5.33301 0 9.66602 -1.66699 12.999 -5s5 -7.66602 5 -12.999v-7c0 -30 8.16699 -54.333 24.5 -73s39.5 -28 69.5 -28c15.333 0 29.666 2.33301 42.999 7s24 11.667 32 21c9.33301 10.667 15.5 23 18.5 37s4.5 28.667 4.5 44v146zM315.004 360.001
c0 10.667 -1.33301 23.165 -4 37.498s-7.66699 27.833 -15 40.5s-17.5 23.334 -30.5 32.001s-29.833 13 -50.5 13c-20 0 -36.167 -3.83301 -48.5 -11.5s-22 -17.5 -29 -29.5s-11.667 -25.167 -14 -39.5s-3.5 -28.5 -3.5 -42.5v-168c0 -14 1.16699 -28.167 3.5 -42.5
s7 -27.5 14 -39.5s16.667 -21.833 29 -29.5s28.5 -11.5 48.5 -11.5c20.667 0 37.5 4.33301 50.5 13s23.167 19.334 30.5 32.001s12.333 26.167 15 40.5s4 26.833 4 37.5v168z" />
    <glyph glyph-name="h" unicode="h" horiz-adv-x="452" 
d="M131 18c0 -5.33301 -1.66992 -9.66504 -5.00293 -12.998s-7.66602 -5 -12.999 -5h-38c-5.33301 0 -9.66602 1.66699 -12.999 5s-5 7.66602 -5 12.999v673c0 5.33301 1.66699 9.66602 5 12.999s7.66602 5 12.999 5h38c5.33301 0 9.66602 -1.66699 12.999 -5
s5 -7.66602 5 -12.999v-221c11.333 22 27.833 41 49.5 57s49.167 24 82.5 24c16.667 0 33.334 -3.66699 50.001 -11s31.5 -18 44.5 -32s23.5 -31.5 31.5 -52.5s12 -45.167 12 -72.5v-365c0 -5.33301 -1.66699 -9.66602 -5 -12.999s-7.66602 -5 -12.999 -5h-39
c-5.33301 0 -9.66602 1.66699 -12.999 5s-5 7.66602 -5 12.999v342c0 14 -1.16699 28.167 -3.5 42.5s-7 27.5 -14 39.5s-16.667 21.833 -29 29.5s-28.5 11.5 -48.5 11.5c-20.667 0 -37.5 -4.33301 -50.5 -13s-23.167 -19.334 -30.5 -32.001s-12.333 -26.167 -15 -40.5
s-4 -26.833 -4 -37.5v-342z" />
    <glyph glyph-name="i" unicode="i" horiz-adv-x="208" 
d="M67 517c0 5.33301 1.66699 9.66602 5 12.999s7.66602 5 12.999 5h38c5.33301 0 9.66602 -1.66699 12.999 -5s5 -7.66602 5 -12.999v-499c0 -5.33301 -1.66699 -9.66602 -5 -12.999s-7.66602 -5 -12.999 -5h-38c-5.33301 0 -9.66602 1.66699 -12.999 5
s-5 7.66602 -5 12.999v499zM61 691c0 5.33301 1.66699 9.66602 5 12.999s7.66602 5 12.999 5h50c5.33301 0 9.66602 -1.66699 12.999 -5s5 -7.66602 5 -12.999v-48c0 -5.33301 -1.66699 -9.66602 -5 -12.999s-7.66602 -5 -12.999 -5h-50
c-5.33301 0 -9.66602 1.66699 -12.999 5s-5 7.66602 -5 12.999v48z" />
    <glyph glyph-name="j" unicode="j" horiz-adv-x="193" 
d="M-12 -114c17.333 0 31.002 2.00195 41.002 6.00195s17.5 10 22.5 18s8 18 9 30s1.5 25.667 1.5 41v536c0 5.33301 1.66699 9.66602 5 12.999s7.66602 5 12.999 5h38c5.33301 0 9.66602 -1.66699 12.999 -5s5 -7.66602 5 -12.999v-576c0 -18 -3.5 -34.667 -10.5 -50
s-16.167 -28.5 -27.5 -39.5s-24.333 -19.667 -39 -26s-29.667 -9.5 -45 -9.5h-36c-5.33301 0 -9.66602 1.66699 -12.999 5s-5 7.66602 -5 12.999v34c0 5.33301 1.66699 9.66602 5 12.999s7.66602 5 12.999 5h10zM56.002 691.002c0 5.33301 1.66699 9.66602 5 12.999
s7.66602 5 12.999 5h50c5.33301 0 9.66602 -1.66699 12.999 -5s5 -7.66602 5 -12.999v-48c0 -5.33301 -1.66699 -9.66602 -5 -12.999s-7.66602 -5 -12.999 -5h-50c-5.33301 0 -9.66602 1.66699 -12.999 5s-5 7.66602 -5 12.999v48z" />
    <glyph glyph-name="k" unicode="k" horiz-adv-x="430" 
d="M53 691c0 5.33301 1.66797 9.66504 5.00098 12.998s7.66602 5 12.999 5h38c5.33301 0 9.66602 -1.66699 12.999 -5s5 -7.66602 5 -12.999v-376l179 190c4 5.33301 7.66699 9.33301 11 12s8 4 14 4h41c5.33301 0 10 -1.16699 14 -3.5s6 -5.83301 6 -10.5
c0 -2 -0.333008 -4.33301 -1 -7s-1.66699 -5 -3 -7l-187 -200l212 -262c3.33301 -4.66699 5 -8.66699 5 -12c0 -5.33301 -2.33301 -9.83301 -7 -13.5s-10.334 -5.5 -17.001 -5.5h-40c-6 0 -11.333 2.33301 -16 7s-8.66699 9.33398 -12 14.001l-199 250v-253
c0 -5.33301 -1.66699 -9.66602 -5 -12.999s-7.66602 -5 -12.999 -5h-38c-5.33301 0 -9.66602 1.66699 -12.999 5s-5 7.66602 -5 12.999v673z" />
    <glyph glyph-name="l" unicode="l" horiz-adv-x="196" 
d="M135 18c0 -5.33301 -1.66699 -9.66602 -5 -12.999s-7.66602 -5 -12.999 -5h-38c-5.33301 0 -9.66602 1.66699 -12.999 5s-5 7.66602 -5 12.999v673c0 5.33301 1.66699 9.66602 5 12.999s7.66602 5 12.999 5h38c5.33301 0 9.66602 -1.66699 12.999 -5
s5 -7.66602 5 -12.999v-673z" />
    <glyph glyph-name="m" unicode="m" horiz-adv-x="706" 
d="M131 470c11.333 22 27.3271 41.0029 47.9941 57.0029s47.667 24 81 24c23.333 0 46.333 -6.83301 69 -20.5s40.667 -33.834 54 -60.501c11.333 22 28.333 41 51 57s50.667 24 84 24c16.667 0 33.334 -3.66699 50.001 -11s31.334 -18 44.001 -32s23 -31.5 31 -52.5
s12 -45.167 12 -72.5v-365c0 -5.33301 -1.66699 -9.66602 -5 -12.999s-7.66602 -5 -12.999 -5h-39c-5.33301 0 -9.66602 1.66699 -12.999 5s-5 7.66602 -5 12.999v342c0 14 -1 28.167 -3 42.5s-6.16699 27.5 -12.5 39.5s-15.5 21.833 -27.5 29.5s-28 11.5 -48 11.5
c-20.667 0 -37.167 -4.33301 -49.5 -13s-21.666 -19.334 -27.999 -32.001s-10.333 -26.167 -12 -40.5s-2.5 -26.833 -2.5 -37.5v-342c0 -5.33301 -1.66699 -9.66602 -5 -12.999s-7.66602 -5 -12.999 -5h-39c-5.33301 0 -9.66602 1.66699 -12.999 5s-5 7.66602 -5 12.999v342
c0 14 -1.16699 28.167 -3.5 42.5s-6.83301 27.5 -13.5 39.5s-16.167 21.833 -28.5 29.5s-28.5 11.5 -48.5 11.5c-20.667 0 -37.334 -4.33301 -50.001 -13s-22.5 -19.334 -29.5 -32.001s-11.667 -26.167 -14 -40.5s-3.5 -26.833 -3.5 -37.5v-342
c0 -5.33301 -1.66699 -9.66602 -5 -12.999s-7.66602 -5 -12.999 -5h-38c-5.33301 0 -9.66602 1.66699 -12.999 5s-5 7.66602 -5 12.999v499c0 5.33301 1.66699 9.66602 5 12.999s7.66602 5 12.999 5h38c5.33301 0 9.66602 -1.66699 12.999 -5s5 -7.66602 5 -12.999v-47z" />
    <glyph glyph-name="n" unicode="n" horiz-adv-x="452" 
d="M131 18c0 -5.33301 -1.66992 -9.66504 -5.00293 -12.998s-7.66602 -5 -12.999 -5h-38c-5.33301 0 -9.66602 1.66699 -12.999 5s-5 7.66602 -5 12.999v499c0 5.33301 1.66699 9.66602 5 12.999s7.66602 5 12.999 5h38c5.33301 0 9.66602 -1.66699 12.999 -5
s5 -7.66602 5 -12.999v-47c11.333 22 27.833 41 49.5 57s49.167 24 82.5 24c16.667 0 33.334 -3.66699 50.001 -11s31.5 -18 44.5 -32s23.5 -31.5 31.5 -52.5s12 -45.167 12 -72.5v-365c0 -5.33301 -1.66699 -9.66602 -5 -12.999s-7.66602 -5 -12.999 -5h-39
c-5.33301 0 -9.66602 1.66699 -12.999 5s-5 7.66602 -5 12.999v342c0 14 -1.16699 28.167 -3.5 42.5s-7 27.5 -14 39.5s-16.667 21.833 -29 29.5s-28.5 11.5 -48.5 11.5c-20.667 0 -37.5 -4.33301 -50.5 -13s-23.167 -19.334 -30.5 -32.001s-12.333 -26.167 -15 -40.5
s-4 -26.833 -4 -37.5v-342z" />
    <glyph glyph-name="o" unicode="o" horiz-adv-x="454" 
d="M227 -15c-26 0 -49.833 4.66699 -71.5 14s-40.5 22 -56.5 38s-28.5 34.333 -37.5 55s-13.5 42.334 -13.5 65.001v221c0 22.667 4.5 44.334 13.5 65.001s21.5 39 37.5 55s34.833 28.667 56.5 38s45.5 14 71.5 14s49.833 -4.66699 71.5 -14s40.5 -22 56.5 -38
s28.5 -34.333 37.5 -55s13.5 -42.334 13.5 -65.001v-221c0 -22.667 -4.5 -44.334 -13.5 -65.001s-21.5 -39 -37.5 -55s-34.833 -28.667 -56.5 -38s-45.5 -14 -71.5 -14zM227 483c-14.667 0 -28.334 -2.83301 -41.001 -8.5s-23.667 -13.167 -33 -22.5
s-16.666 -20.5 -21.999 -33.5s-8 -26.5 -8 -40.5v-221c0 -14 2.66699 -27.5 8 -40.5s12.666 -24.167 21.999 -33.5s20.333 -16.833 33 -22.5s26.334 -8.5 41.001 -8.5s28.334 2.83301 41.001 8.5s23.667 13.167 33 22.5s16.666 20.5 21.999 33.5s8 26.5 8 40.5v221
c0 14 -2.66699 27.5 -8 40.5s-12.666 24.167 -21.999 33.5s-20.333 16.833 -33 22.5s-26.334 8.5 -41.001 8.5z" />
    <glyph glyph-name="p" unicode="p" horiz-adv-x="449" 
d="M399 152c0 -27.333 -4 -51.5 -12 -72.5s-18.5 -38.5 -31.5 -52.5s-27.833 -24.667 -44.5 -32s-33.334 -11 -50.001 -11c-33.333 0 -60.833 8 -82.5 24s-38.167 35 -49.5 57v-231c0 -5.33301 -1.66699 -9.66602 -5 -12.999s-7.66602 -5 -12.999 -5h-38
c-5.33301 0 -9.66602 1.66699 -12.999 5s-5 7.66602 -5 12.999v683c0 5.33301 1.66699 9.66602 5 12.999s7.66602 5 12.999 5h38c5.33301 0 9.66602 -1.66699 12.999 -5s5 -7.66602 5 -12.999v-47c11.333 22 27.833 41 49.5 57s49.167 24 82.5 24
c16.667 0 33.334 -3.66699 50.001 -11s31.5 -18 44.5 -32s23.5 -31.5 31.5 -52.5s12 -45.167 12 -72.5v-231zM129 175c0 -10.667 1.33301 -23.165 4 -37.498s7.66699 -27.833 15 -40.5s17.5 -23.334 30.5 -32.001s29.833 -13 50.5 -13c20 0 36.167 3.83301 48.5 11.5
s22 17.5 29 29.5s11.667 25.167 14 39.5s3.5 28.5 3.5 42.5v185c0 14 -1.16699 28.167 -3.5 42.5s-7 27.5 -14 39.5s-16.667 21.833 -29 29.5s-28.5 11.5 -48.5 11.5c-20.667 0 -37.5 -4.33301 -50.5 -13s-23.167 -19.334 -30.5 -32.001s-12.333 -26.167 -15 -40.5
s-4 -26.833 -4 -37.5v-185z" />
    <glyph glyph-name="q" unicode="q" horiz-adv-x="444" 
d="M45 383c0 27.333 4 51.5 12 72.5s18.5 38.5 31.5 52.5s27.667 24.667 44 32s33.166 11 50.499 11c33.333 0 60.833 -8 82.5 -24s38.167 -35 49.5 -57v47c0 5.33301 1.66699 9.66602 5 12.999s7.66602 5 12.999 5h38c5.33301 0 9.66602 -1.66699 12.999 -5
s5 -7.66602 5 -12.999v-683c0 -5.33301 -1.66699 -9.66602 -5 -12.999s-7.66602 -5 -12.999 -5h-38c-5.33301 0 -9.66602 1.66699 -12.999 5s-5 7.66602 -5 12.999v231c-11.333 -22 -27.833 -41 -49.5 -57s-49.167 -24 -82.5 -24c-17.333 0 -34.166 3.66699 -50.499 11
s-31 18 -44 32s-23.5 31.5 -31.5 52.5s-12 45.167 -12 72.5v231zM315 360c0 10.667 -1.33301 23.165 -4 37.498s-7.66699 27.833 -15 40.5s-17.5 23.334 -30.5 32.001s-29.833 13 -50.5 13c-20 0 -36.167 -3.83301 -48.5 -11.5s-22 -17.5 -29 -29.5
s-11.667 -25.167 -14 -39.5s-3.5 -28.5 -3.5 -42.5v-185c0 -14 1.16699 -28.167 3.5 -42.5s7 -27.5 14 -39.5s16.667 -21.833 29 -29.5s28.5 -11.5 48.5 -11.5c20.667 0 37.5 4.33301 50.5 13s23.167 19.334 30.5 32.001s12.333 26.167 15 40.5s4 26.833 4 37.5v185z" />
    <glyph glyph-name="r" unicode="r" horiz-adv-x="385" 
d="M368 386c0 -5.33301 -1.66895 -9.66602 -5.00195 -12.999s-7.66602 -5 -12.999 -5h-38c-5.33301 0 -9.66602 1.66699 -12.999 5s-5 7.66602 -5 12.999v10c0 25.333 -5.5 46.166 -16.5 62.499s-31.5 24.5 -61.5 24.5s-52 -8.66699 -66 -26s-21 -37.666 -21 -60.999v-378
c0 -5.33301 -1.66699 -9.66602 -5 -12.999s-7.66602 -5 -12.999 -5h-38c-5.33301 0 -9.66602 1.66699 -12.999 5s-5 7.66602 -5 12.999v499c0 5.33301 1.66699 9.66602 5 12.999s7.66602 5 12.999 5h38c5.33301 0 9.66602 -1.66699 12.999 -5s5 -7.66602 5 -12.999v-40
c15.333 22.667 33.5 40.667 54.5 54s46.5 20 76.5 20c16 0 30.5 -3.16699 43.5 -9.5s24.333 -15 34 -26s17.167 -23.5 22.5 -37.5s8 -29 8 -45v-47z" />
    <glyph glyph-name="s" unicode="s" horiz-adv-x="426" 
d="M316 262c20.667 -10.667 37.833 -25.165 51.5 -43.498s20.5 -43.5 20.5 -75.5c0 -20 -3.83301 -39.5 -11.5 -58.5s-18.834 -35.833 -33.501 -50.5s-32.834 -26.5 -54.501 -35.5s-46.5 -13.5 -74.5 -13.5s-53 4.5 -75 13.5s-40.667 21 -56 36s-27 32.667 -35 53
s-12 41.833 -12 64.5v6c0 5.33301 1.66699 9.66602 5 12.999s7.66602 5 12.999 5h36c5.33301 0 9.66602 -1.66699 12.999 -5s5 -7.66602 5 -12.999v-4c0 -32 9.33301 -57 28 -75s44.667 -27 78 -27c18.667 0 34.667 2.66699 48 8s24.333 12.166 33 20.499
s15 17.666 19 27.999s6 20.5 6 30.5c0 14.667 -3.33301 27 -10 37s-19.667 19.667 -39 29l-147 74c-53.333 26.667 -80 67.667 -80 123c0 46 15.333 82.167 46 108.5s70.334 39.5 119.001 39.5c22.667 0 44.334 -3.16699 65.001 -9.5s39 -15.5 55 -27.5s28.833 -27 38.5 -45
s15.167 -38.333 16.5 -61v-10.5c0 -3.66699 -0.666992 -7.16699 -2 -10.5c-1.33301 -4 -3 -8 -5 -12s-5.66699 -6 -11 -6h-34c-5.33301 0 -9.66602 1.66699 -12.999 5s-5 7.66602 -5 12.999v4c0 19.333 -3.33301 35 -10 47s-15 21.5 -25 28.5s-21.167 11.667 -33.5 14
s-24.166 3.5 -35.499 3.5c-12.667 0 -25 -1.5 -37 -4.5s-22.5 -7.5 -31.5 -13.5s-16.333 -13.833 -22 -23.5s-8.5 -21.167 -8.5 -34.5c0 -15.333 3.83301 -28.166 11.5 -38.499s19.5 -19.5 35.5 -27.5z" />
    <glyph glyph-name="t" unicode="t" horiz-adv-x="275" 
d="M240 69c5.33301 0 9.66797 -1.66992 13.001 -5.00293s5 -7.66602 5 -12.999v-33c0 -5.33301 -1.66699 -9.66602 -5 -12.999s-7.66602 -5 -12.999 -5h-56c-39.333 0 -70.833 11.5 -94.5 34.5s-35.5 54.167 -35.5 93.5v563c0 5.33301 1.66699 9.66602 5 12.999
s7.66602 5 12.999 5h38c5.33301 0 9.66602 -1.66699 12.999 -5s5 -7.66602 5 -12.999v-174h112c5.33301 0 9.66602 -1.66699 12.999 -5s5 -7.66602 5 -12.999v-33c0 -5.33301 -1.66699 -9.66602 -5 -12.999s-7.66602 -5 -12.999 -5h-112v-287c0 -16 0.5 -29.833 1.5 -41.5
s4.16699 -21.334 9.5 -29.001s13.333 -13.167 24 -16.5s25.667 -5 45 -5h32z" />
    <glyph glyph-name="u" unicode="u" horiz-adv-x="452" 
d="M321 517c0 5.33301 1.66699 9.66504 5 12.998s7.66602 5 12.999 5h38c5.33301 0 9.66602 -1.66699 12.999 -5s5 -7.66602 5 -12.999v-499c0 -5.33301 -1.66699 -9.66602 -5 -12.999s-7.66602 -5 -12.999 -5h-38c-5.33301 0 -9.66602 1.66699 -12.999 5
s-5 7.66602 -5 12.999v47c-11.333 -22 -26 -41 -44 -57s-42.667 -24 -74 -24c-19.333 0 -38.166 3.66699 -56.499 11s-34.5 18 -48.5 32s-25.333 31.5 -34 52.5s-13 45.167 -13 72.5v365c0 5.33301 1.66699 9.66602 5 12.999s7.66602 5 12.999 5h39
c5.33301 0 9.66602 -1.66699 12.999 -5s5 -7.66602 5 -12.999v-342c0 -14 1.16699 -28.167 3.5 -42.5s6.83301 -27.5 13.5 -39.5s16.334 -21.833 29.001 -29.5s29 -11.5 49 -11.5c20.667 0 37.5 4.33301 50.5 13s23.167 19.334 30.5 32.001s12.333 26.167 15 40.5
s4 26.833 4 37.5v342z" />
    <glyph glyph-name="v" unicode="v" horiz-adv-x="435" 
d="M188 0c-12.667 0 -21.334 7.33301 -26.001 22l-141 491c-0.666992 2 -1 4.33301 -1 7c0 10 5.33301 15 16 15h35c10.667 0 17.334 -5.33301 20.001 -16l127 -445l126 445c2.66699 10.667 9.33398 16 20.001 16h35c10.667 0 16 -5 16 -15c0 -2.66699 -0.333008 -5 -1 -7
l-140 -491c-4.66699 -14.667 -13.334 -22 -26.001 -22h-60z" />
    <glyph glyph-name="w" unicode="w" horiz-adv-x="720" 
d="M394 535c10.667 0 17.6689 -7.33301 21.002 -22l100 -456l109 456c3.33301 14.667 9.66602 22 18.999 22h33c4.66699 0 9 -1.33301 13 -4s6 -6.66699 6 -12c0 -2.66699 -0.333008 -5 -1 -7l-117 -490c-3.33301 -14.667 -10.333 -22 -21 -22h-77
c-12 -0 -19 7.33301 -21 22l-98 449l-98 -449c-2 -14.667 -9 -22 -21 -22h-77c-10.667 -0 -17.667 7.33301 -21 22l-117 490c-0.666992 2 -1 4.33301 -1 7c0 5.33301 2 9.33301 6 12s8.33301 4 13 4h33c9.33301 0 15.666 -7.33301 18.999 -22l109 -456l100 456
c3.33301 14.667 10.333 22 21 22h68z" />
    <glyph glyph-name="x" unicode="x" horiz-adv-x="414" 
d="M92 16c-3.33301 -6 -6.17188 -10.167 -8.50488 -12.5s-6.16602 -3.5 -11.499 -3.5h-42c-4.66699 0 -8.66699 1.66699 -12 5s-5 7.33301 -5 12c0 1.33301 0.166992 2.5 0.5 3.5s0.5 1.83301 0.5 2.5l140 261l-116 228c-1.33301 1.33301 -2 3.33301 -2 6
c0 5.33301 1.66699 9.5 5 12.5s7.33301 4.5 12 4.5h38c5.33301 0 9.33301 -1.16699 12 -3.5s5.33398 -6.16602 8.00098 -11.499l96 -185l96 185c2.66699 5.33301 5.33398 9.16602 8.00098 11.499s6.66699 3.5 12 3.5h38c4.66699 0 8.66699 -1.5 12 -4.5s5 -7.16699 5 -12.5
c0 -2.66699 -0.666992 -4.66699 -2 -6l-116 -228l140 -261c0 -0.666992 0.166992 -1.5 0.5 -2.5s0.5 -2.16699 0.5 -3.5c0 -4.66699 -1.66699 -8.66699 -5 -12s-7.33301 -5 -12 -5h-42c-5.33301 0 -9.16602 1.16699 -11.499 3.5s-5.16602 6.5 -8.49902 12.5l-115 214z" />
    <glyph glyph-name="y" unicode="y" horiz-adv-x="461" 
d="M104 -184c-5.33301 0 -9.66797 1.67188 -13.001 5.00488s-5 7.66602 -5 12.999v33c0 5.33301 1.66699 9.66602 5 12.999s7.66602 5 12.999 5h45c19.333 0 33 3.16699 41 9.5s12 15.166 12 26.499c0 5.33301 -0.666992 11.166 -2 17.499s-3 13.166 -5 20.499l-168 554
c-0.666992 2 -1 4 -1 6c0 10.667 5 16 15 16h42c10 0 16.333 -5.33301 19 -16l135 -470l123 470c2.66699 10.667 9 16 19 16h41c10 0 15 -5.33301 15 -16c0 -2 -0.333008 -4 -1 -6l-166 -607c-5.33301 -20 -12.166 -36 -20.499 -48s-17.833 -21.167 -28.5 -27.5
s-22.167 -10.333 -34.5 -12s-25.166 -2.5 -38.499 -2.5h-42z" />
    <glyph glyph-name="z" unicode="z" horiz-adv-x="426" 
d="M370 535c5.33301 0 9.66602 -1.66699 12.999 -5s5 -7.66602 5 -12.999v-30c0 -11.333 -0.333008 -19.333 -1 -24s-3.33398 -9.66699 -8.00098 -15l-264 -379h260c5.33301 0 9.66602 -1.66699 12.999 -5s5 -7.66602 5 -12.999v-33
c0 -5.33301 -1.66699 -9.66602 -5 -12.999s-7.66602 -5 -12.999 -5h-324c-5.33301 0 -9.66602 1.66699 -12.999 5s-5 7.66602 -5 12.999v30c0 11.333 0.333008 19.333 1 24s3.33398 9.66699 8.00098 15l264 379h-237c-5.33301 0 -9.66602 1.66699 -12.999 5
s-5 7.66602 -5 12.999v33c0 5.33301 1.66699 9.66602 5 12.999s7.66602 5 12.999 5h301z" />
    <glyph glyph-name="braceleft" unicode="{" horiz-adv-x="386" 
d="M316 665c-31.333 0 -52.166 -5.83105 -62.499 -17.498s-15.5 -33.5 -15.5 -65.5v-194c0 -16.667 -1.16699 -32.334 -3.5 -47.001s-6.5 -27.834 -12.5 -39.501s-14 -21.334 -24 -29.001s-23 -12.834 -39 -15.501c16 -2.66699 29 -7.83398 39 -15.501s18 -17.5 24 -29.5
s10.167 -25.333 12.5 -40s3.5 -30.334 3.5 -47.001v-192c0 -32 5.16699 -53.833 15.5 -65.5s31.166 -17.5 62.499 -17.5c5.33301 0 9.66602 -1.66699 12.999 -5s5 -7.66602 5 -12.999v-29c0 -5.33301 -1.66699 -9.66602 -5 -12.999s-7.66602 -5 -12.999 -5h-25
c-17.333 0 -33.166 3 -47.499 9s-27 14.333 -38 25s-19.5 23.334 -25.5 38.001s-9 30.667 -9 48v232c0 17.333 -1.66699 31 -5 41s-8.16602 17.5 -14.499 22.5s-14 8.16699 -23 9.5s-19.167 2 -30.5 2h-18c-5.33301 0 -9.66602 1.66699 -12.999 5s-5 7.66602 -5 12.999v54
c0 5.33301 1.66699 9.66602 5 12.999s7.66602 5 12.999 5h18c11.333 0 21.5 0.666992 30.5 2s16.667 4.5 23 9.5s11.166 12.5 14.499 22.5s5 23.667 5 41v233c0 17.333 3 33.333 9 48s14.5 27.334 25.5 38.001s23.667 19 38 25s30.166 9 47.499 9h25
c5.33301 0 9.66602 -1.66699 12.999 -5s5 -7.66602 5 -12.999v-29c0 -5.33301 -1.66699 -9.66602 -5 -12.999s-7.66602 -5 -12.999 -5z" />
    <glyph glyph-name="bar" unicode="|" horiz-adv-x="184" 
d="M129 -58c0 -5.33301 -1.66699 -9.66602 -5 -12.999s-7.66602 -5 -12.999 -5h-38c-5.33301 0 -9.66602 1.66699 -12.999 5s-5 7.66602 -5 12.999v749c0 5.33301 1.66699 9.66602 5 12.999s7.66602 5 12.999 5h38c5.33301 0 9.66602 -1.66699 12.999 -5
s5 -7.66602 5 -12.999v-749z" />
    <glyph glyph-name="braceright" unicode="}" horiz-adv-x="386" 
d="M70 665c-5.33301 0 -9.66602 1.66504 -12.999 4.99805s-5 7.66602 -5 12.999v29c0 5.33301 1.66699 9.66602 5 12.999s7.66602 5 12.999 5h25c16.667 0 32.334 -3 47.001 -9s27.5 -14.333 38.5 -25s19.5 -23.334 25.5 -38.001s9 -30.667 9 -48v-233
c0 -17.333 1.66699 -31 5 -41s8.16602 -17.5 14.499 -22.5s14 -8.16699 23 -9.5s19.167 -2 30.5 -2h18c5.33301 0 9.66602 -1.66699 12.999 -5s5 -7.66602 5 -12.999v-54c0 -5.33301 -1.66699 -9.66602 -5 -12.999s-7.66602 -5 -12.999 -5h-18
c-11.333 0 -21.5 -0.666992 -30.5 -2s-16.667 -4.5 -23 -9.5s-11.166 -12.5 -14.499 -22.5s-5 -23.667 -5 -41v-232c0 -17.333 -3 -33.333 -9 -48s-14.5 -27.334 -25.5 -38.001s-23.833 -19 -38.5 -25s-30.334 -9 -47.001 -9h-25c-5.33301 0 -9.66602 1.66699 -12.999 5
s-5 7.66602 -5 12.999v29c0 5.33301 1.66699 9.66602 5 12.999s7.66602 5 12.999 5c31.333 0 52.166 5.83301 62.499 17.5s15.5 33.5 15.5 65.5v192c0 16.667 1.16699 32.334 3.5 47.001s6.5 28 12.5 40s14 21.833 24 29.5s23 12.834 39 15.501
c-16 2.66699 -29 7.83398 -39 15.501s-18 17.334 -24 29.001s-10.167 24.834 -12.5 39.501s-3.5 30.334 -3.5 47.001v194c0 32 -5.16699 53.833 -15.5 65.5s-31.166 17.5 -62.499 17.5z" />
    <glyph glyph-name="asciitilde" unicode="~" 
d="M420 312c1.33301 0 3.82324 -1.99805 7.49023 -5.99805s7.33398 -8.5 11.001 -13.5s6.83398 -9.83301 9.50098 -14.5s4 -7.33398 4 -8.00098c0 -4 -2.66699 -8.66699 -8 -14c-3.33301 -2.66699 -8.33301 -6.33398 -15 -11.001s-14.5 -9.16699 -23.5 -13.5
s-18.833 -8 -29.5 -11s-21.334 -4.5 -32.001 -4.5c-12.667 0 -23.5 2 -32.5 6s-17.667 8.16699 -26 12.5s-16.833 8.5 -25.5 12.5s-19 6 -31 6c-13.333 0 -26.666 -3.5 -39.999 -10.5s-22.666 -12.167 -27.999 -15.5c-3.33301 -2.66699 -6.33301 -4 -9 -4
c-3.33301 0 -6.66602 2 -9.99902 6s-8.66602 11.667 -15.999 23c-3.33301 5.33301 -5 9.66602 -5 12.999c0 4.66699 2.66699 9.66699 8 15c3.33301 2.66699 8.33301 6.33398 15 11.001s14.334 9.16699 23.001 13.5s18.334 8 29.001 11s21.667 4.5 33 4.5
c12.667 0 23.5 -2 32.5 -6s17.5 -8.16699 25.5 -12.5s16.333 -8.5 25 -12.5s19.334 -6 32.001 -6c6.66699 0 13.334 1 20.001 3s13.167 4.5 19.5 7.5s12 5.83301 17 8.5s8.83301 5 11.5 7s5.33398 3 8.00098 3z" />
    <glyph glyph-name="uni00A0" unicode="&#xa0;" horiz-adv-x="178" 
 />
    <glyph glyph-name="exclamdown" unicode="&#xa1;" horiz-adv-x="261" 
d="M175 18c0 -5.33301 -1.66895 -9.66602 -5.00195 -12.999s-7.66602 -5 -12.999 -5h-52c-5.33301 0 -9.66602 1.66699 -12.999 5s-5 7.66602 -5 12.999v167c0 8.66699 0.333008 19.834 1 33.501s1.5 28.5 2.5 44.5s2.33301 32.667 4 50s3.16699 34.666 4.5 51.999
c3.33301 40 7.33301 82.333 12 127c1.33301 12 8 18 20 18s18.667 -6 20 -18c4.66699 -44.667 8.66699 -87 12 -127c1.33301 -17.333 2.83301 -34.666 4.5 -51.999s3 -34 4 -50s1.83301 -30.833 2.5 -44.5s1 -24.834 1 -33.501v-167zM84.998 692
c0 5.33301 1.66699 9.66602 5 12.999s7.66602 5 12.999 5h55c5.33301 0 9.66602 -1.66699 12.999 -5s5 -7.66602 5 -12.999v-46c0 -5.33301 -1.66699 -9.66602 -5 -12.999s-7.66602 -5 -12.999 -5h-55c-5.33301 0 -9.66602 1.66699 -12.999 5s-5 7.66602 -5 12.999v46z" />
    <glyph glyph-name="cent" unicode="&#xa2;" horiz-adv-x="556" 
d="M100 378c0 22.667 4.33203 44.3359 12.999 65.0029s20.834 39 36.501 55s34.334 28.667 56.001 38s45.5 14 71.5 14c15.333 0 28.666 -1.33301 39.999 -4l20 74c2 7.33301 7 11.666 15 12.999c4 0 7.33301 -0.333008 10 -1l17 -4
c9.33301 -2.66699 14 -7.33398 14 -14.001c0 -2 -0.333008 -4.33301 -1 -7l-22 -82c26 -15.333 46.667 -36.166 62 -62.499s23 -54.5 23 -84.5v-5c0 -5.33301 -1.66699 -9.66602 -5 -12.999s-7.66602 -5 -12.999 -5h-39c-5.33301 0 -9.66602 1.66699 -12.999 5
s-5 7.66602 -5 12.999v5c0 29.333 -10 54 -30 74l-105 -395c5.33301 -2 10.666 -3.33301 15.999 -4s10.666 -1 15.999 -1c14.667 0 28.334 2.83301 41.001 8.5s23.5 13.167 32.5 22.5s16.167 20.5 21.5 33.5s8 26.5 8 40.5v10c0 5.33301 1.66699 9.66602 5 12.999
s7.66602 5 12.999 5h39c5.33301 0 9.66602 -1.66699 12.999 -5s5 -7.66602 5 -12.999v-10c0 -22.667 -4.33301 -44.334 -13 -65.001s-21 -39 -37 -55s-34.833 -28.667 -56.5 -38s-45.5 -14 -71.5 -14c-18.667 0 -35.334 2.33301 -50.001 7l-21 -82
c-2.66699 -8.66699 -7.33398 -13 -14.001 -13c-1.33301 0 -4.66602 0.666992 -9.99902 2l-17 4c-4 1.33301 -7.5 3.16602 -10.5 5.49902s-4.5 5.5 -4.5 9.5c0 1.33301 0.333008 3.5 1 6.5s1.33398 5.5 2.00098 7.5l22 83c-23.333 16 -41.666 36.5 -54.999 61.5
s-20 51.833 -20 80.5v221zM276.999 483.002c-14.667 0 -28.167 -2.83301 -40.5 -8.5s-23 -13.167 -32 -22.5s-16.167 -20.5 -21.5 -33.5s-8 -26.5 -8 -40.5v-221c0 -25.333 7 -47 21 -65l104 388c-8 2 -15.667 3 -23 3z" />
    <glyph glyph-name="sterling" unicode="&#xa3;" horiz-adv-x="556" 
d="M420 550c0 34 -9.00195 60.165 -27.002 78.498s-44 27.5 -78 27.5c-34.667 0 -61.5 -9.16699 -80.5 -27.5s-28.5 -46.5 -28.5 -84.5v-151h168c5.33301 0 9.66602 -1.66699 12.999 -5s5 -7.66602 5 -12.999v-36c0 -5.33301 -1.66699 -9.66602 -5 -12.999
s-7.66602 -5 -12.999 -5h-168v-249h284c5.33301 0 9.66602 -1.66699 12.999 -5s5 -7.66602 5 -12.999v-36c0 -5.33301 -1.66699 -9.66602 -5 -12.999s-7.66602 -5 -12.999 -5h-424c-5.33301 0 -9.66602 1.66699 -12.999 5s-5 7.66602 -5 12.999v36
c0 5.33301 1.66699 9.66602 5 12.999s7.66602 5 12.999 5c15.333 0 27.166 1.5 35.499 4.5s14.5 7.83301 18.5 14.5s6.33301 15.5 7 26.5s1 24.167 1 39.5v164h-62c-5.33301 0 -9.66602 1.66699 -12.999 5s-5 7.66602 -5 12.999v36c0 5.33301 1.66699 9.66602 5 12.999
s7.66602 5 12.999 5h62v151c0 28.667 4.5 54.5 13.5 77.5s21.833 42.5 38.5 58.5s36.5 28.333 59.5 37s48.167 13 75.5 13c26.667 0 51.334 -4.16699 74.001 -12.5s42 -20.166 58 -35.499s28.5 -34.166 37.5 -56.499s13.5 -47.5 13.5 -75.5v-4
c0 -5.33301 -1.66699 -9.66602 -5 -12.999s-7.66602 -5 -12.999 -5h-42c-5.33301 0 -9.66602 1.66699 -12.999 5s-5 7.66602 -5 12.999v4z" />
    <glyph glyph-name="currency" unicode="&#xa4;" horiz-adv-x="656" 
d="M328 547c-27.333 0 -53 -5 -77 -15s-44.833 -23.667 -62.5 -41s-31.667 -37.833 -42 -61.5s-15.5 -49.167 -15.5 -76.5s5.16699 -52.833 15.5 -76.5s24.333 -44.334 42 -62.001s38.5 -31.5 62.5 -41.5s49.667 -15 77 -15s53 5 77 15s44.833 23.833 62.5 41.5
s31.667 38.334 42 62.001s15.5 49.167 15.5 76.5s-5.16699 52.833 -15.5 76.5s-24.333 44.167 -42 61.5s-38.5 31 -62.5 41s-49.667 15 -77 15zM328 624c53.333 0 108.668 -18 166.001 -54l61 60c4 4 8.33301 6 13 6c6.66699 0 12 -2 16 -6l29 -27c4.66699 -6 7 -11 7 -15
c0 -4.66699 -2.33301 -9.33398 -7 -14.001l-61 -62c15.333 -25.333 27.5 -51.333 36.5 -78s13.5 -53.667 13.5 -81c0 -28 -4.83301 -55.667 -14.5 -83s-22.5 -54.333 -38.5 -81l59 -60c4.66699 -4.66699 7 -9.33398 7 -14.001c0 -4 -2.33301 -9 -7 -15l-29 -27
c-4 -4 -9.33301 -6 -16 -6c-4.66699 0 -9 2 -13 6l-61 60c-54 -34.667 -107.667 -52 -161 -52s-107 17.333 -161 52l-61 -60c-4 -4 -8.33301 -6 -13 -6c-6.66699 0 -12 2 -16 6l-29 27c-4.66699 6 -7 11 -7 15c0 4.66699 2.33301 9.33398 7 14.001l59 60
c-16 26.667 -28.833 53.667 -38.5 81s-14.5 55 -14.5 83c0 27.333 4.5 54.333 13.5 81s21.167 52.667 36.5 78l-61 62c-4.66699 4.66699 -7 9.33398 -7 14.001c0 4 2.33301 9 7 15l29 27c4 4 9.33301 6 16 6c4.66699 0 9 -2 13 -6l61 -60c57.333 36 112.666 54 165.999 54z
" />
    <glyph glyph-name="yen" unicode="&#xa5;" horiz-adv-x="556" 
d="M318 259v-241c0 -5.33301 -1.66699 -9.66602 -5 -12.999s-7.66602 -5 -12.999 -5h-44c-5.33301 0 -9.66602 1.66699 -12.999 5s-5 7.66602 -5 12.999v241h-129c-5.33301 0 -9.66602 1.66699 -12.999 5s-5 7.66602 -5 12.999v36c0 5.33301 1.66699 9.66602 5 12.999
s7.66602 5 12.999 5h129l-27 50h-102c-5.33301 0 -9.66602 1.66699 -12.999 5s-5 7.66602 -5 12.999v36c0 5.33301 1.66699 9.66602 5 12.999s7.66602 5 12.999 5h64l-124 233c-1.33301 2.66699 -2 5 -2 7c0 10.667 5.66699 16 17 16h41c6 0 10.667 -1.33301 14 -4
s7.66602 -9 12.999 -19l146 -265l146 265c5.33301 10 9.66602 16.333 12.999 19s8 4 14 4h41c11.333 0 17 -5.33301 17 -16c0 -2 -0.666992 -4.33301 -2 -7l-124 -233h65c5.33301 0 9.66602 -1.66699 12.999 -5s5 -7.66602 5 -12.999v-36
c0 -5.33301 -1.66699 -9.66602 -5 -12.999s-7.66602 -5 -12.999 -5h-104l-26 -50h130c5.33301 0 9.66602 -1.66699 12.999 -5s5 -7.66602 5 -12.999v-36c0 -5.33301 -1.66699 -9.66602 -5 -12.999s-7.66602 -5 -12.999 -5h-130z" />
    <glyph glyph-name="brokenbar" unicode="&#xa6;" horiz-adv-x="277" 
d="M92 691c0 5.33301 1.66699 9.66699 5 13s7.66602 5 12.999 5h57c5.33301 0 9.66602 -1.66699 12.999 -5s5 -7.66602 5 -12.999v-244c0 -5.33301 -1.66699 -9.83301 -5 -13.5s-7.66602 -5.5 -12.999 -5.5h-57c-5.33301 0 -9.66602 1.66699 -12.999 5s-5 7.66602 -5 12.999
v245zM92 263.001c0 5.33301 1.66699 9.66699 5 13s7.66602 5 12.999 5h57c5.33301 0 9.66602 -1.66699 12.999 -5s5 -7.66602 5 -12.999v-244c0 -5.33301 -1.66699 -9.83301 -5 -13.5s-7.66602 -5.5 -12.999 -5.5h-57c-5.33301 0 -9.66602 1.66699 -12.999 5
s-5 7.66602 -5 12.999v245z" />
    <glyph glyph-name="section" unicode="&#xa7;" horiz-adv-x="483" 
d="M344 114c20.667 -19.333 35.334 -38.334 44.001 -57.001s13 -39.334 13 -62.001c0 -20 -3.83301 -38.833 -11.5 -56.5s-18.834 -33 -33.501 -46s-32.667 -23.333 -54 -31s-45.333 -11.5 -72 -11.5c-24 0 -46.5 3.5 -67.5 10.5s-39 16.833 -54 29.5
s-26.833 27.667 -35.5 45s-13 36.333 -13 57v3c0 7.33301 3.66699 11 11 11h50c3.33301 0 6 -1.16699 8 -3.5s3 -4.83301 3 -7.5c1.33301 -24 11.5 -41.833 30.5 -53.5s41.5 -17.5 67.5 -17.5c31.333 0 55.833 5.83301 73.5 17.5s26.5 29.167 26.5 52.5
c0 12.667 -2.83301 24.334 -8.5 35.001s-13.834 21 -24.501 31s-23.834 20.5 -39.501 31.5l-53.5 38.5l-19.5 13.5l-20.5 14.5l-18 13l-12 9c-26 21.333 -44.833 41.666 -56.5 60.999s-17.5 41.333 -17.5 66c0 32 6.16699 60 18.5 84s32.166 49 59.499 75
c-20.667 19.333 -35.167 38.333 -43.5 57s-12.5 39.334 -12.5 62.001c0 20 3.83301 38.833 11.5 56.5s18.834 33 33.501 46s32.667 23.333 54 31s45.333 11.5 72 11.5c24 0 46.5 -3.5 67.5 -10.5s39 -16.833 54 -29.5s26.833 -27.667 35.5 -45s13 -36.333 13 -57v-3
c0 -7.33301 -3.66699 -11 -11 -11h-50c-3.33301 0 -6 1.16699 -8 3.5s-3 4.83301 -3 7.5c-1.33301 24 -11.5 41.833 -30.5 53.5s-41.5 17.5 -67.5 17.5c-31.333 0 -55.833 -5.83301 -73.5 -17.5s-26.5 -29.167 -26.5 -52.5c0 -13.333 2.83301 -25.166 8.5 -35.499
s13.834 -20.5 24.501 -30.5s23.834 -20.5 39.501 -31.5l53.5 -38.5l70 -50c28.667 -19.333 48.167 -39.5 58.5 -60.5s15.5 -42.5 15.5 -64.5c0 -32 -6.33301 -60.5 -19 -85.5s-32.667 -50.167 -60 -75.5zM288 156.999c7.33301 6 14.333 12.5 21 19.5s12.667 14.167 18 21.5
c11.333 15.333 18.5 28.5 21.5 39.5s4.5 20.833 4.5 29.5c0 14.667 -3.66699 28 -11 40s-20 24.667 -38 38l-109 78c-7.33301 -6 -14.333 -12.5 -21 -19.5s-12.667 -14.167 -18 -21.5c-11.333 -15.333 -18.5 -28.5 -21.5 -39.5s-4.5 -20.833 -4.5 -29.5
c0 -14.667 3.66699 -28 11 -40s20 -24.667 38 -38z" />
    <glyph glyph-name="dieresis" unicode="&#xa8;" horiz-adv-x="503" 
d="M220 642c0 -5.33301 -1.66699 -9.66602 -5 -12.999s-7.66602 -5 -12.999 -5h-60c-5.33301 0 -9.66602 1.66699 -12.999 5s-5 7.66602 -5 12.999v49c0 5.33301 1.66699 9.66602 5 12.999s7.66602 5 12.999 5h60c5.33301 0 9.66602 -1.66699 12.999 -5
s5 -7.66602 5 -12.999v-49zM379 642c0 -5.33301 -1.66699 -9.66602 -5 -12.999s-7.66602 -5 -12.999 -5h-60c-5.33301 0 -9.66602 1.66699 -12.999 5s-5 7.66602 -5 12.999v49c0 5.33301 1.66699 9.66602 5 12.999s7.66602 5 12.999 5h60
c5.33301 0 9.66602 -1.66699 12.999 -5s5 -7.66602 5 -12.999v-49z" />
    <glyph glyph-name="copyright" unicode="&#xa9;" horiz-adv-x="859" 
d="M581 232c0 -20 -4.16699 -38.001 -12.5 -54.001s-19.5 -29.667 -33.5 -41s-29.833 -20 -47.5 -26s-35.834 -9 -54.501 -9s-36.834 3.33301 -54.501 10s-33.334 15.834 -47.001 27.501s-24.667 25.667 -33 42s-12.5 34.5 -12.5 54.5v238c0 20 4.16699 38.167 12.5 54.5
s19.333 30.5 33 42.5s29.334 21.333 47.001 28s35.834 10 54.501 10s36.834 -3.16699 54.501 -9.5s33.5 -15.166 47.5 -26.499s25.167 -25 33.5 -41s12.5 -34 12.5 -54v-5c0 -5.33301 -1.83301 -10 -5.5 -14s-8.5 -6 -14.5 -6h-25c-5.33301 0 -10 2 -14 6s-6 8.66699 -6 14
v5c0 10.667 -2.5 20.334 -7.5 29.001s-11.333 16 -19 22s-16.5 10.667 -26.5 14s-20 5 -30 5s-19.833 -1.83301 -29.5 -5.5s-18.5 -8.83398 -26.5 -15.501s-14.333 -14.5 -19 -23.5s-7 -18.833 -7 -29.5v-238c0 -10 2.33301 -19.5 7 -28.5s11 -16.833 19 -23.5
s16.833 -11.834 26.5 -15.501s19.5 -5.5 29.5 -5.5s20 1.66699 30 5s18.833 8 26.5 14s14 13.333 19 22s7.5 18 7.5 28v6c0 5.33301 2 10.166 6 14.499s8.66699 6.5 14 6.5h25c6 0 10.833 -2.16699 14.5 -6.5s5.5 -9.16602 5.5 -14.499v-6zM799 352.999
c0 -51.333 -9.66699 -99.333 -29 -144s-45.666 -83.834 -78.999 -117.501s-72.333 -60.167 -117 -79.5s-92.334 -29 -143.001 -29c-51.333 0 -99.5 9.66699 -144.5 29s-84.333 45.833 -118 79.5s-60.167 72.834 -79.5 117.501s-29 92.667 -29 144
c0 50.667 9.66699 98.334 29 143.001s45.833 83.834 79.5 117.501s73 60.167 118 79.5s93.167 29 144.5 29c50.667 0 98.334 -9.66699 143.001 -29s83.667 -45.833 117 -79.5s59.666 -72.834 78.999 -117.501s29 -92.334 29 -143.001zM760 352.999c0 46 -8.66699 89 -26 129
s-40.833 74.833 -70.5 104.5s-64.5 53 -104.5 70s-82.667 25.5 -128 25.5c-46 0 -89.167 -8.5 -129.5 -25.5s-75.333 -40.333 -105 -70s-53.167 -64.5 -70.5 -104.5s-26 -83 -26 -129s8.66699 -89 26 -129s40.833 -75 70.5 -105s64.667 -53.5 105 -70.5
s83.5 -25.5 129.5 -25.5c45.333 0 88 8.5 128 25.5s74.833 40.5 104.5 70.5s53.167 65 70.5 105s26 83 26 129z" />
    <glyph glyph-name="ordfeminine" unicode="&#xaa;" horiz-adv-x="323" 
d="M223 541l-65.0029 -28.002c-16.667 -7.33301 -29.5 -14 -38.5 -20s-15 -12.167 -18 -18.5s-4.5 -14.166 -4.5 -23.499c0 -6 0.666992 -11.833 2 -17.5s3.83301 -11 7.5 -16s8.83398 -9 15.501 -12s15.334 -4.5 26.001 -4.5c18.667 0 35.834 7.33301 51.501 22
s23.5 33.334 23.5 56.001v62zM284.997 375.998c0 -2 -1.1709 -5.49805 -3.50391 -10.498s-7.16602 -7.5 -14.499 -7.5h-27c-4.66699 0 -8.66699 1.66699 -12 5s-5 7.66602 -5 12.999v24c-9.33301 -15.333 -20.666 -27.5 -33.999 -36.5s-31.666 -13.5 -54.999 -13.5
c-36.667 0 -62.834 9.66699 -78.501 29s-23.5 43.333 -23.5 72c0 27.333 8.16699 48.5 24.5 63.5s39.833 29.167 70.5 42.5l34 14.5l36 16.5c9.33301 4.66699 16 8.66699 20 12s6 9.33301 6 18c0 19.333 -5 33 -15 41s-25 12 -45 12c-12.667 0 -22.667 -2.33301 -30 -7
s-12.666 -10 -15.999 -16s-5.5 -11.833 -6.5 -17.5s-1.5 -9.83398 -1.5 -12.501c0 -2 -1.16699 -5.5 -3.5 -10.5s-7.16602 -7.5 -14.499 -7.5h-27c-4.66699 0 -8.66699 1.66699 -12 5s-5 7.66602 -5 12.999c0 14.667 2.5 28.834 7.5 42.501s12.5 25.667 22.5 36
s22.167 18.5 36.5 24.5s30.833 9 49.5 9c38 0 67.833 -10 89.5 -30s32.5 -47.333 32.5 -82v-242z" />
    <glyph glyph-name="guillemotleft" unicode="&#xab;" horiz-adv-x="540" 
d="M127 261l122 -111.998l14 -14c4 -4 6 -9.33301 6 -16v-41c0 -4.66699 -1.83301 -8.66699 -5.5 -12s-7.5 -5 -11.5 -5c-2 0 -4.66699 0.5 -8 1.5s-6.33301 2.5 -9 4.5l-166 156c-3.33301 3.33301 -6.5 6.66602 -9.5 9.99902s-4.5 8 -4.5 14v28c0 6 1.5 10.667 4.5 14
s6.16699 6.66602 9.5 9.99902l166 156c2.66699 2 5.66699 3.5 9 4.5s6 1.5 8 1.5c4 0 7.83301 -1.66699 11.5 -5s5.5 -7.33301 5.5 -12v-41c0 -6.66699 -2 -12 -6 -16l-14 -14zM328 261.002l122 -111.998l14 -14c4 -4 6 -9.33301 6 -16v-41
c0 -4.66699 -1.83301 -8.66699 -5.5 -12s-7.5 -5 -11.5 -5c-2 0 -4.66699 0.5 -8 1.5s-6.33301 2.5 -9 4.5l-166 156c-3.33301 3.33301 -6.5 6.66602 -9.5 9.99902s-4.5 8 -4.5 14v28c0 6 1.5 10.667 4.5 14s6.16699 6.66602 9.5 9.99902l166 156
c2.66699 2 5.66699 3.5 9 4.5s6 1.5 8 1.5c4 0 7.83301 -1.66699 11.5 -5s5.5 -7.33301 5.5 -12v-41c0 -6.66699 -2 -12 -6 -16l-14 -14z" />
    <glyph glyph-name="logicalnot" unicode="&#xac;" 
d="M417 291l-321.001 0.000976562c-5.33301 0 -9.66602 1.66699 -12.999 5s-5 7.66602 -5 12.999v36c0 5.33301 1.66699 9.66602 5 12.999s7.66602 5 12.999 5h381c5.33301 0 9.66602 -1.66699 12.999 -5s5 -7.66602 5 -12.999v-163
c0 -5.33301 -1.66699 -9.66602 -5 -12.999s-7.66602 -5 -12.999 -5h-42c-5.33301 0 -9.66602 1.66699 -12.999 5s-5 7.66602 -5 12.999v109z" />
    <glyph glyph-name="registered" unicode="&#xae;" horiz-adv-x="859" 
d="M358 547l-0.000976562 -157.999h96c21.333 0 36.833 5 46.5 15s14.5 25.667 14.5 47v42c0 19.333 -4.66699 33.166 -14 41.499s-23.666 12.5 -42.999 12.5h-100zM481.999 607.001c28.667 0 51.999 -9.33301 69.999 -28s27 -41.667 27 -69v-71
c0 -19.333 -2.66699 -35.833 -8 -49.5s-15.666 -24.5 -30.999 -32.5c19.333 -8.66699 31.166 -20.667 35.499 -36s6.5 -33 6.5 -53v-145c0 -5.33301 -2 -10 -6 -14s-8.66699 -6 -14 -6h-26c-5.33301 0 -10.166 2 -14.499 6s-6.5 8.66699 -6.5 14v153
c0 18.667 -4.66699 31.667 -14 39s-24 11 -44 11h-99v-203c0 -5.33301 -1.83301 -10 -5.5 -14s-8.16699 -6 -13.5 -6h-29c-6 0 -10.833 2 -14.5 6s-5.5 8.66699 -5.5 14v464c0 5.33301 1.83301 10 5.5 14s8.5 6 14.5 6h172zM798.998 353.001
c0 -51.333 -9.66699 -99.333 -29 -144s-45.666 -83.834 -78.999 -117.501s-72.333 -60.167 -117 -79.5s-92.334 -29 -143.001 -29c-51.333 0 -99.5 9.66699 -144.5 29s-84.333 45.833 -118 79.5s-60.167 72.834 -79.5 117.501s-29 92.667 -29 144
c0 50.667 9.66699 98.334 29 143.001s45.833 83.834 79.5 117.501s73 60.167 118 79.5s93.167 29 144.5 29c50.667 0 98.334 -9.66699 143.001 -29s83.667 -45.833 117 -79.5s59.666 -72.834 78.999 -117.501s29 -92.334 29 -143.001zM759.998 353.001
c0 46 -8.66699 89 -26 129s-40.833 74.833 -70.5 104.5s-64.5 53 -104.5 70s-82.667 25.5 -128 25.5c-46 0 -89.167 -8.5 -129.5 -25.5s-75.333 -40.333 -105 -70s-53.167 -64.5 -70.5 -104.5s-26 -83 -26 -129s8.66699 -89 26 -129s40.833 -75 70.5 -105
s64.667 -53.5 105 -70.5s83.5 -25.5 129.5 -25.5c45.333 0 88 8.5 128 25.5s74.833 40.5 104.5 70.5s53.167 65 70.5 105s26 83 26 129z" />
    <glyph glyph-name="macron" unicode="&#xaf;" horiz-adv-x="435" 
d="M357 695c5.33301 0 9.66602 -1.66699 12.999 -5s5 -7.66602 5 -12.999v-27c0 -5.33301 -1.66699 -9.66602 -5 -12.999s-7.66602 -5 -12.999 -5h-279c-5.33301 0 -9.66602 1.66699 -12.999 5s-5 7.66602 -5 12.999v27c0 5.33301 1.66699 9.66602 5 12.999
s7.66602 5 12.999 5h279z" />
    <glyph glyph-name="degree" unicode="&#xb0;" horiz-adv-x="368" 
d="M323 589c0 -19.333 -3.66699 -37.333 -11 -54s-17.333 -31.167 -30 -43.5s-27.5 -22 -44.5 -29s-34.833 -10.5 -53.5 -10.5c-19.333 0 -37.333 3.5 -54 10.5s-31.334 16.667 -44.001 29s-22.667 26.833 -30 43.5s-11 34.667 -11 54s3.66699 37.5 11 54.5
s17.333 31.667 30 44s27.334 22.166 44.001 29.499s34.667 11 54 11c18.667 0 36.5 -3.66699 53.5 -11s31.833 -17.166 44.5 -29.499s22.667 -27 30 -44s11 -35.167 11 -54.5zM276 589c0 12.667 -2.5 24.5 -7.5 35.5s-11.667 20.667 -20 29s-18 14.833 -29 19.5
s-22.833 7 -35.5 7c-12 0 -23.5 -2.33301 -34.5 -7s-20.5 -11.167 -28.5 -19.5s-14.333 -18 -19 -29s-7 -22.833 -7 -35.5c0 -25.333 8.66699 -46.666 26 -63.999s38.333 -26 63 -26c25.333 0 47 8.66699 65 26s27 38.666 27 63.999z" />
    <glyph glyph-name="plusminus" unicode="&#xb1;" 
d="M315 72h184.002c5.33301 0 9.66602 -1.66699 12.999 -5s5 -7.66602 5 -12.999v-36c0 -5.33301 -1.66699 -9.66602 -5 -12.999s-7.66602 -5 -12.999 -5h-436c-5.33301 0 -9.66602 1.66699 -12.999 5s-5 7.66602 -5 12.999v36c0 5.33301 1.66699 9.66602 5 12.999
s7.66602 5 12.999 5h176v198h-176c-5.33301 0 -9.66602 1.66699 -12.999 5s-5 7.66602 -5 12.999v36c0 5.33301 1.66699 9.66602 5 12.999s7.66602 5 12.999 5h176v210c0 5.33301 1.66699 9.66602 5 12.999s7.66602 5 12.999 5h40c5.33301 0 9.66602 -1.66699 12.999 -5
s5 -7.66602 5 -12.999v-210h184c5.33301 0 9.66602 -1.66699 12.999 -5s5 -7.66602 5 -12.999v-36c0 -5.33301 -1.66699 -9.66602 -5 -12.999s-7.66602 -5 -12.999 -5h-184v-198z" />
    <glyph glyph-name="twosuperior" unicode="&#xb2;" horiz-adv-x="333" 
d="M206 559c14.667 18.667 22 34.002 22 46.002c0 17.333 -5.33301 31.5 -16 42.5s-25.334 16.5 -44.001 16.5c-16.667 0 -29.667 -5.5 -39 -16.5s-14.333 -25.167 -15 -42.5c0 -5.33301 -1.83301 -10 -5.5 -14s-8.16699 -6 -13.5 -6h-23c-12 0 -18 7.33301 -18 22
c0 14 2.5 27.833 7.5 41.5s12.333 25.667 22 36s21.5 18.666 35.5 24.999s30.333 9.5 49 9.5c34.667 0 63.167 -10.167 85.5 -30.5s33.5 -49.5 33.5 -87.5c0 -11.333 -2.33301 -23 -7 -35s-11 -23 -19 -33l-144 -178h154c12.667 0 19 -6.33301 19 -19v-16
c0 -12.667 -6.33301 -19 -19 -19h-205c-12.667 0 -19 6.33301 -19 19v20c0 8.66699 0.833008 15.167 2.5 19.5s3.83398 8.16602 6.50098 11.499z" />
    <glyph glyph-name="threesuperior" unicode="&#xb3;" horiz-adv-x="338" 
d="M45 418c0 4.66699 1.66504 8.83008 4.99805 12.4971s7.33301 5.5 12 5.5h24c4.66699 0 8.5 -1.83301 11.5 -5.5s4.5 -7.83398 4.5 -12.501v-4c0 -19.333 6.16699 -35.333 18.5 -48s28.5 -19 48.5 -19s36 5.5 48 16.5s18 26.5 18 46.5v22c0 33.333 -15.333 50 -46 50h-22
c-5.33301 0 -9.66602 1.66699 -12.999 5s-5 7.33301 -5 12v25c0 5.33301 1.66699 9.83301 5 13.5s7.66602 5.5 12.999 5.5h19c14.667 0 25.167 4.16699 31.5 12.5s9.5 19.833 9.5 34.5v6c0 21.333 -4 37.666 -12 48.999s-23.333 17 -46 17c-40.667 0 -61 -21 -61 -63
c0 -5.33301 -1.66699 -9.16602 -5 -11.499s-7.33301 -3.5 -12 -3.5h-19c-5.33301 0 -9.83301 1.83301 -13.5 5.5s-5.5 7.83398 -5.5 12.501c0 36 10 64.5 30 85.5s48.667 31.5 86 31.5c38.667 0 67.834 -10.5 87.501 -31.5s29.5 -51.5 29.5 -91.5
c0 -17.333 -1.66699 -32.166 -5 -44.499s-12.333 -25.166 -27 -38.499c18.667 -11.333 29.834 -25.5 33.501 -42.5s5.5 -34.833 5.5 -53.5v-9c0 -19.333 -3.33301 -36.166 -10 -50.499s-15.667 -26.5 -27 -36.5s-24.5 -17.5 -39.5 -22.5s-30.833 -7.5 -47.5 -7.5
s-32.5 2.83301 -47.5 8.5s-28.167 13.667 -39.5 24s-20.333 23 -27 38s-10 31.833 -10 50.5v6z" />
    <glyph glyph-name="acute" unicode="&#xb4;" horiz-adv-x="313" 
d="M163 638c-4.66699 -6 -8.66895 -10.166 -12.002 -12.499s-8.66602 -3.5 -15.999 -3.5h-24c-12 0 -18 5.33301 -18 16c0 4 1 7.66699 3 11l31 70c2.66699 5.33301 6.33398 10.166 11.001 14.499s10 6.5 16 6.5h49c4.66699 0 8.66699 -1.5 12 -4.5s5 -6.5 5 -10.5
c0 -1.33301 -0.666992 -3.33301 -2 -6z" />
    <glyph glyph-name="mu" unicode="&#xb5;" horiz-adv-x="481" 
d="M338 58c-10 -20 -25.5 -37.334 -46.5 -52.001s-45.5 -22 -73.5 -22c-24.667 0 -49.667 7.33301 -75 22v-172c0 -5.33301 -1.66699 -9.66602 -5 -12.999s-7.66602 -5 -12.999 -5h-36c-5.33301 0 -9.66602 1.66699 -12.999 5s-5 7.66602 -5 12.999v683
c0 5.33301 1.66699 9.66602 5 12.999s7.66602 5 12.999 5h36c5.33301 0 9.66602 -1.66699 12.999 -5s5 -7.66602 5 -12.999v-363c0 -30 9 -54.5 27 -73.5s42 -28.5 72 -28.5c14 0 27 2.83301 39 8.5s22.167 13.334 30.5 23.001s14.833 20.5 19.5 32.5s7 24.667 7 38v363
c0 5.33301 1.66699 9.66602 5 12.999s7.66602 5 12.999 5h36c5.33301 0 9.66602 -1.66699 12.999 -5s5 -7.66602 5 -12.999v-499c0 -5.33301 -1.66699 -9.66602 -5 -12.999s-7.66602 -5 -12.999 -5h-36c-5.33301 0 -9.66602 1.66699 -12.999 5s-5 7.66602 -5 12.999v40z" />
    <glyph glyph-name="paragraph" unicode="&#xb6;" horiz-adv-x="518" 
d="M435 709c5.33301 0 9.66309 -1.66699 12.9961 -5s5 -7.66602 5 -12.999v-743c0 -5.33301 -1.66699 -9.66602 -5 -12.999s-7.66602 -5 -12.999 -5h-38c-5.33301 0 -9.66602 1.66699 -12.999 5s-5 7.66602 -5 12.999v673h-63v-673c0 -5.33301 -1.66699 -9.66602 -5 -12.999
s-7.66602 -5 -12.999 -5h-38c-5.33301 0 -9.66602 1.66699 -12.999 5s-5 7.66602 -5 12.999v412h-48c-17.333 0 -34 3.16699 -50 9.5s-30.333 15.333 -43 27s-22.667 25.5 -30 41.5s-11 33.667 -11 53v88c0 19.333 3.66699 37 11 53s17.333 29.667 30 41
s27 20.166 43 26.499s32.667 9.5 50 9.5h241z" />
    <glyph glyph-name="periodcentered" unicode="&#xb7;" horiz-adv-x="197" 
d="M152 243c0 -5.33301 -2.16699 -10.166 -6.5 -14.499s-9.5 -6.5 -15.5 -6.5h-63c-6 0 -11.167 2.16699 -15.5 6.5s-6.5 9.16602 -6.5 14.499v51c0 6 2.16699 11 6.5 15s9.5 6 15.5 6h63c6 0 11.167 -2 15.5 -6s6.5 -9 6.5 -15v-51z" />
    <glyph glyph-name="cedilla" unicode="&#xb8;" horiz-adv-x="313" 
d="M150 -174c12.667 0 21.665 4.33398 26.998 13.001s8 18.334 8 29.001c0 17.333 -4.33301 28.5 -13 33.5s-16.667 7.5 -24 7.5c-3.33301 0 -6 -0.333008 -8 -1c-7.33301 -2.66699 -12 -5.5 -14 -8.5s-6 -4.5 -12 -4.5h-3.5c-1.66699 0 -4.16699 0.666992 -7.5 2l-15 4
c-6.66699 2 -10 6.33301 -10 13v3.5c0 1 0.666992 3.16699 2 6.5l30 99c2 6.66699 7 10 15 10c2 0 3.66699 -0.333008 5 -1l14 -5c3.33301 -0.666992 6 -2.33398 8 -5.00098s3 -5.66699 3 -9c0 -2 -0.333008 -3.66699 -1 -5l-18 -60
c6.66699 2.66699 11.5 4.33398 14.5 5.00098s7.83301 1 14.5 1s14.834 -1.5 24.501 -4.5s18.834 -7.83301 27.501 -14.5s16 -15.5 22 -26.5s9 -24.5 9 -40.5c0 -10 -1.66699 -20.5 -5 -31.5s-9 -21.167 -17 -30.5s-18.5 -17 -31.5 -23s-28.833 -9 -47.5 -9
c-12 0 -24.667 2.66699 -38 8s-24.666 11.666 -33.999 18.999c-2.66699 1.33301 -5 3.33301 -7 6s-3 5 -3 7c0 1.33301 0.166992 3.16602 0.5 5.49902s1.83301 4.83301 4.5 7.5l13 13c4.66699 4.66699 8.66699 7 12 7c2 0 5 -1.33301 9 -4
c15.333 -11.333 30.666 -17 45.999 -17z" />
    <glyph glyph-name="onesuperior" unicode="&#xb9;" horiz-adv-x="215" 
d="M62 607c-5.33301 0 -9.5 1.66797 -12.5 5.00098s-4.5 7.33301 -4.5 12v23c0 10.667 5.66699 16 17 16h4c14 1.33301 24 4.66602 30 9.99902s10.667 14.333 14 27c2.66699 7.33301 8 11 16 11h28c4.66699 0 8.5 -1.66699 11.5 -5s4.5 -7.33301 4.5 -12v-377
c0 -4.66699 -1.5 -8.66699 -4.5 -12s-6.83301 -5 -11.5 -5h-25c-4.66699 0 -8.5 1.66699 -11.5 5s-4.5 7.33301 -4.5 12v290h-51z" />
    <glyph glyph-name="ordmasculine" unicode="&#xba;" horiz-adv-x="317" 
d="M279 455c0 -15.333 -3.16699 -29.833 -9.5 -43.5s-14.833 -25.834 -25.5 -36.501s-23.334 -19.167 -38.001 -25.5s-30.334 -9.5 -47.001 -9.5s-32.334 3.16699 -47.001 9.5s-27.5 14.833 -38.5 25.5s-19.667 22.834 -26 36.501s-9.5 28.167 -9.5 43.5v161
c0 14.667 3.16699 29 9.5 43s15 26.333 26 37s23.833 19.167 38.5 25.5s30.334 9.5 47.001 9.5s32.334 -3.16699 47.001 -9.5s27.334 -14.833 38.001 -25.5s19.167 -23 25.5 -37s9.5 -28.333 9.5 -43v-161zM218 610c0 15.333 -6 29 -18 41s-25.667 18 -41 18
c-16 0 -29.833 -6 -41.5 -18s-17.5 -25.667 -17.5 -41v-149c0 -16 5.83301 -29.833 17.5 -41.5s25.5 -17.5 41.5 -17.5c15.333 0 29 5.83301 41 17.5s18 25.5 18 41.5v149z" />
    <glyph glyph-name="guillemotright" unicode="&#xbb;" horiz-adv-x="540" 
d="M291 373l-14 13.998c-4 4 -6 9.33301 -6 16v41c0 4.66699 1.83301 8.66699 5.5 12s7.5 5 11.5 5c2 0 4.66699 -0.5 8 -1.5s6.33301 -2.5 9 -4.5l166 -156c3.33301 -3.33301 6.5 -6.66602 9.5 -9.99902s4.5 -8 4.5 -14v-28c0 -6 -1.5 -10.667 -4.5 -14
s-6.16699 -6.66602 -9.5 -9.99902l-166 -156c-2.66699 -2 -5.66699 -3.5 -9 -4.5s-6 -1.5 -8 -1.5c-4 0 -7.83301 1.66699 -11.5 5s-5.5 7.33301 -5.5 12v41c0 6.66699 2 12 6 16l14 14l122 112zM90 372.998l-14 13.998c-4 4 -6 9.33301 -6 16v41
c0 4.66699 1.83301 8.66699 5.5 12s7.5 5 11.5 5c2 0 4.66699 -0.5 8 -1.5s6.33301 -2.5 9 -4.5l166 -156c3.33301 -3.33301 6.5 -6.66602 9.5 -9.99902s4.5 -8 4.5 -14v-28c0 -6 -1.5 -10.667 -4.5 -14s-6.16699 -6.66602 -9.5 -9.99902l-166 -156
c-2.66699 -2 -5.66699 -3.5 -9 -4.5s-6 -1.5 -8 -1.5c-4 0 -7.83301 1.66699 -11.5 5s-5.5 7.33301 -5.5 12v41c0 6.66699 2 12 6 16l14 14l122 112z" />
    <glyph glyph-name="onequarter" unicode="&#xbc;" horiz-adv-x="702" 
d="M72 607c-5.33301 0 -9.5 1.66797 -12.5 5.00098s-4.5 7.33301 -4.5 12v23c0 10.667 5.66699 16 17 16h4c14 1.33301 24 4.66602 30 9.99902s10.667 14.333 14 27c2.66699 7.33301 8 11 16 11h28c4.66699 0 8.5 -1.66699 11.5 -5s4.5 -7.33301 4.5 -12v-377
c0 -4.66699 -1.5 -8.66699 -4.5 -12s-6.83301 -5 -11.5 -5h-25c-4.66699 0 -8.5 1.66699 -11.5 5s-4.5 7.33301 -4.5 12v290h-51zM500 718.001c0 -1.33301 -0.666992 -4 -2 -8l-270 -704c-3.33301 -10 -6.83301 -16 -10.5 -18s-8.16699 -3 -13.5 -3h-30
c-9.33301 0 -14 4.66699 -14 14c0 1.33301 0.666992 4 2 8l270 704c3.33301 9.33301 7 15 11 17s8.66699 3 14 3h30c8.66699 0 13 -4.33301 13 -13zM517 398.001c3.33301 7.33301 10.333 11 21 11h65c4.66699 0 8.5 -1.66699 11.5 -5s4.5 -7.33301 4.5 -12v-235h26
c4.66699 0 8.66699 -1.5 12 -4.5s5 -6.83301 5 -11.5v-22c0 -4.66699 -1.66699 -8.5 -5 -11.5s-7.33301 -4.5 -12 -4.5h-26v-86c0 -4.66699 -1.5 -8.66699 -4.5 -12s-6.83301 -5 -11.5 -5h-25c-4.66699 0 -8.5 1.66699 -11.5 5s-4.5 7.33301 -4.5 12v86h-144
c-8 0 -12 4.33301 -12 13v24c0 5.33301 1.66699 12.333 5 21zM469 157.001h93v214z" />
    <glyph glyph-name="onehalf" unicode="&#xbd;" horiz-adv-x="724" 
d="M72 606c-5.33301 0 -9.5 1.66797 -12.5 5.00098s-4.5 7.33301 -4.5 12v23c0 10.667 5.66699 16 17 16h4c14 1.33301 24 4.66602 30 9.99902s10.667 14.333 14 27c2.66699 7.33301 8 11 16 11h28c4.66699 0 8.5 -1.66699 11.5 -5s4.5 -7.33301 4.5 -12v-375
c0 -4.66699 -1.5 -8.66699 -4.5 -12s-6.83301 -5 -11.5 -5h-25c-4.66699 0 -8.5 1.66699 -11.5 5s-4.5 7.33301 -4.5 12v288h-51zM505 718.001c0 -1.33301 -0.666992 -4 -2 -8l-270 -704c-3.33301 -10 -6.83301 -16 -10.5 -18s-8.16699 -3 -13.5 -3h-30
c-9.33301 0 -14 4.66699 -14 14c0 1.33301 0.666992 4 2 8l270 704c3.33301 9.33301 7 15 11 17s8.66699 3 14 3h30c8.66699 0 13 -4.33301 13 -13zM595 259.001c14.667 18.667 22 34.002 22 46.002c0 17.333 -5.33301 31.5 -16 42.5s-25.334 16.5 -44.001 16.5
c-16.667 0 -29.667 -5.5 -39 -16.5s-14.333 -25.167 -15 -42.5c0 -5.33301 -1.83301 -10 -5.5 -14s-8.16699 -6 -13.5 -6h-23c-12 0 -18 7.33301 -18 22c0 14 2.5 27.833 7.5 41.5s12.333 25.667 22 36s21.5 18.666 35.5 24.999s30.333 9.5 49 9.5
c34.667 0 63.167 -10.167 85.5 -30.5s33.5 -49.5 33.5 -87.5c0 -11.333 -2.33301 -23 -7 -35s-11 -23 -19 -33l-144 -178h154c12.667 0 19 -6.33301 19 -19v-16c0 -12.667 -6.33301 -19 -19 -19h-205c-12.667 0 -19 6.33301 -19 19v20c0 8.66699 0.833008 15.167 2.5 19.5
s3.83398 8.16602 6.50098 11.499z" />
    <glyph glyph-name="threequarters" unicode="&#xbe;" horiz-adv-x="761" 
d="M580 718c0 -1.33301 -0.666992 -4 -2 -8l-270 -704c-3.33301 -10 -6.83301 -16 -10.5 -18s-8.16699 -3 -13.5 -3h-30c-9.33301 0 -14 4.66699 -14 14c0 1.33301 0.666992 4 2 8l270 704c3.33301 9.33301 7 15 11 17s8.66699 3 14 3h30c8.66699 0 13 -4.33301 13 -13z
M53 418c0 4.66699 1.66504 8.83008 4.99805 12.4971s7.33301 5.5 12 5.5h24c4.66699 0 8.5 -1.83301 11.5 -5.5s4.5 -7.83398 4.5 -12.501v-4c0 -19.333 6.16699 -35.333 18.5 -48s28.5 -19 48.5 -19s36 5.5 48 16.5s18 26.5 18 46.5v22c0 33.333 -15.333 50 -46 50h-22
c-5.33301 0 -9.66602 1.66699 -12.999 5s-5 7.33301 -5 12v25c0 5.33301 1.66699 9.83301 5 13.5s7.66602 5.5 12.999 5.5h19c14.667 0 25.167 4.16699 31.5 12.5s9.5 19.833 9.5 34.5v6c0 21.333 -4 37.666 -12 48.999s-23.333 17 -46 17c-40.667 0 -61 -21 -61 -63
c0 -5.33301 -1.66699 -9.16602 -5 -11.499s-7.33301 -3.5 -12 -3.5h-19c-5.33301 0 -9.83301 1.83301 -13.5 5.5s-5.5 7.83398 -5.5 12.501c0 36 10 64.5 30 85.5s48.667 31.5 86 31.5c38.667 0 67.834 -10.5 87.501 -31.5s29.5 -51.5 29.5 -91.5
c0 -17.333 -1.66699 -32.166 -5 -44.499s-12.333 -25.166 -27 -38.499c18.667 -11.333 29.834 -25.5 33.501 -42.5s5.5 -34.833 5.5 -53.5v-9c0 -19.333 -3.33301 -36.166 -10 -50.499s-15.667 -26.5 -27 -36.5s-24.5 -17.5 -39.5 -22.5s-30.833 -7.5 -47.5 -7.5
s-32.5 2.83301 -47.5 8.5s-28.167 13.667 -39.5 24s-20.333 23 -27 38s-10 31.833 -10 50.5v6zM575.998 397.996c3.33301 7.33301 10.333 11 21 11h65c4.66699 0 8.5 -1.66699 11.5 -5s4.5 -7.33301 4.5 -12v-235h26c4.66699 0 8.66699 -1.5 12 -4.5s5 -6.83301 5 -11.5v-22
c0 -4.66699 -1.66699 -8.5 -5 -11.5s-7.33301 -4.5 -12 -4.5h-26v-86c0 -4.66699 -1.5 -8.66699 -4.5 -12s-6.83301 -5 -11.5 -5h-25c-4.66699 0 -8.5 1.66699 -11.5 5s-4.5 7.33301 -4.5 12v86h-144c-8 0 -12 4.33301 -12 13v24c0 5.33301 1.66699 12.333 5 21z
M527.998 156.996h93v214z" />
    <glyph glyph-name="questiondown" unicode="&#xbf;" horiz-adv-x="478" 
d="M303 479c0 -15.333 -1.66309 -30.3311 -4.99609 -44.998s-13.333 -31.334 -30 -50.001l-107 -121c-7.33301 -8.66699 -14.166 -18 -20.499 -28s-9.5 -23.667 -9.5 -41c0 -40 8.33301 -70 25 -90s44 -30 82 -30c36.667 0 64 10.667 82 32s27 49 27 83v4
c0 5.33301 1.66699 9.66602 5 12.999s7.66602 5 12.999 5h43c5.33301 0 9.66602 -1.66699 12.999 -5s5 -7.66602 5 -12.999v-12c0 -26.667 -4.66699 -51 -14 -73s-22.333 -41 -39 -57s-36.5 -28.5 -59.5 -37.5s-47.833 -13.5 -74.5 -13.5c-25.333 0 -49.333 4 -72 12
s-42.5 19.667 -59.5 35s-30.5 34.666 -40.5 57.999s-15 50.333 -15 81c0 6 0.333008 13.167 1 21.5s2 17.333 4 27s5.16699 19.5 9.5 29.5s10.166 19 17.499 27l106 115c6.66699 7.33301 12 13.666 16 18.999s7 11 9 17s3.33301 12.833 4 20.5s1 17.834 1 30.501v24
c0 5.33301 1.66699 9.66602 5 12.999s7.66602 5 12.999 5h47c5.33301 0 9.66602 -1.66699 12.999 -5s5 -7.66602 5 -12.999v-38zM215.004 712.002c0 5.33301 1.66699 9.66602 5 12.999s7.66602 5 12.999 5h57c5.33301 0 9.66602 -1.66699 12.999 -5s5 -7.66602 5 -12.999
v-57c0 -5.33301 -1.66699 -9.66602 -5 -12.999s-7.66602 -5 -12.999 -5h-57c-5.33301 0 -9.66602 1.66699 -12.999 5s-5 7.66602 -5 12.999v57z" />
    <glyph glyph-name="Agrave" unicode="&#xc0;" horiz-adv-x="528" 
d="M306 709c8 0 13.3311 -4.66797 15.998 -14.001l180 -672c0.666992 -3.33301 1 -5.66602 1 -6.99902c0 -4.66699 -2 -8.5 -6 -11.5s-8.66699 -4.5 -14 -4.5h-41c-4.66699 0 -8.16699 1.66699 -10.5 5s-4.16602 7.33301 -5.49902 12l-40 151h-244l-40 -151
c-1.33301 -4.66699 -3.16602 -8.66699 -5.49902 -12s-5.83301 -5 -10.5 -5h-41c-5.33301 0 -10 1.5 -14 4.5s-6 6.83301 -6 11.5c0 2 0.333008 4.33301 1 7l180 672c2 9.33301 7.33301 14 16 14h84zM263.998 630.999l-103 -389h206zM187.998 871.999
c-1.33301 2.66699 -2.00195 4.66602 -2.00195 5.99902c0 4 1.66699 7.5 5 10.5s7.33301 4.5 12 4.5h49c6 0 11.333 -2.16699 16 -6.5s8.33398 -9.16602 11.001 -14.499l31 -70c2 -3.33301 3 -7 3 -11c0 -10.667 -6 -16 -18 -16h-24c-7.33301 0 -12.666 1.16699 -15.999 3.5
s-7.33301 6.5 -12 12.5z" />
    <glyph glyph-name="Aacute" unicode="&#xc1;" horiz-adv-x="528" 
d="M306 709c8 0 13.3311 -4.66797 15.998 -14.001l180 -672c0.666992 -3.33301 1 -5.66602 1 -6.99902c0 -4.66699 -2 -8.5 -6 -11.5s-8.66699 -4.5 -14 -4.5h-41c-4.66699 0 -8.16699 1.66699 -10.5 5s-4.16602 7.33301 -5.49902 12l-40 151h-244l-40 -151
c-1.33301 -4.66699 -3.16602 -8.66699 -5.49902 -12s-5.83301 -5 -10.5 -5h-41c-5.33301 0 -10 1.5 -14 4.5s-6 6.83301 -6 11.5c0 2 0.333008 4.33301 1 7l180 672c2 9.33301 7.33301 14 16 14h84zM263.998 630.999l-103 -389h206zM272.998 792.999
c-4.66699 -6 -8.66895 -10.166 -12.002 -12.499s-8.66602 -3.5 -15.999 -3.5h-24c-12 0 -18 5.33301 -18 16c0 4 1 7.66699 3 11l31 70c2.66699 5.33301 6.33398 10.166 11.001 14.499s10 6.5 16 6.5h49c4.66699 0 8.66699 -1.5 12 -4.5s5 -6.5 5 -10.5
c0 -1.33301 -0.666992 -3.33301 -2 -6z" />
    <glyph glyph-name="Acircumflex" unicode="&#xc2;" horiz-adv-x="528" 
d="M306 709c8 0 13.3311 -4.66797 15.998 -14.001l180 -672c0.666992 -3.33301 1 -5.66602 1 -6.99902c0 -4.66699 -2 -8.5 -6 -11.5s-8.66699 -4.5 -14 -4.5h-41c-4.66699 0 -8.16699 1.66699 -10.5 5s-4.16602 7.33301 -5.49902 12l-40 151h-244l-40 -151
c-1.33301 -4.66699 -3.16602 -8.66699 -5.49902 -12s-5.83301 -5 -10.5 -5h-41c-5.33301 0 -10 1.5 -14 4.5s-6 6.83301 -6 11.5c0 2 0.333008 4.33301 1 7l180 672c2 9.33301 7.33301 14 16 14h84zM263.998 630.999l-103 -389h206zM286.998 894.999
c6.66699 0 11.332 -1.66797 13.999 -5.00098l9 -11l62 -93c2 -3.33301 3 -6.33301 3 -9c0 -4.66699 -4 -7 -12 -7h-42c-5.33301 0 -10.333 3 -15 9l-42 53l-42 -53c-2.66699 -3.33301 -5 -5.66602 -7 -6.99902s-4.66699 -2 -8 -2h-42c-8 0 -12 2.33301 -12 7
c0 2.66699 1 5.66699 3 9l62 93l9 11c2.66699 3.33301 7.33398 5 14.001 5h46z" />
    <glyph glyph-name="Atilde" unicode="&#xc3;" horiz-adv-x="528" 
d="M306 709c8 0 13.3311 -4.66797 15.998 -14.001l180 -672c0.666992 -3.33301 1 -5.66602 1 -6.99902c0 -4.66699 -2 -8.5 -6 -11.5s-8.66699 -4.5 -14 -4.5h-41c-4.66699 0 -8.16699 1.66699 -10.5 5s-4.16602 7.33301 -5.49902 12l-40 151h-244l-40 -151
c-1.33301 -4.66699 -3.16602 -8.66699 -5.49902 -12s-5.83301 -5 -10.5 -5h-41c-5.33301 0 -10 1.5 -14 4.5s-6 6.83301 -6 11.5c0 2 0.333008 4.33301 1 7l180 672c2 9.33301 7.33301 14 16 14h84zM263.998 630.999l-103 -389h206zM258.998 800.999
c-6.66699 3.33301 -13.668 6.50293 -21.001 9.50293s-16.333 4.5 -27 4.5c-11.333 0 -21.666 -3 -30.999 -9s-16 -10 -20 -12c-2 -2 -5 -3 -9 -3c-2.66699 0 -5.83398 1.66699 -9.50098 5s-10.834 13.666 -21.501 30.999c-2.66699 4 -4 7 -4 9c0 3.33301 3.66699 7 11 11
c2.66699 2 6.83398 4.66699 12.501 8s12.167 6.66602 19.5 9.99902s15.5 6.16602 24.5 8.49902s18.167 3.5 27.5 3.5c10.667 0 19.834 -1.5 27.501 -4.5s15.167 -6.16699 22.5 -9.5s14.833 -6.5 22.5 -9.5s16.834 -4.5 27.501 -4.5s20.834 3.16699 30.501 9.5l20.5 13.5
c1.33301 0.666992 2.83301 1.33398 4.5 2.00098s3.16699 1 4.5 1c2.66699 0 5.66699 -1.83301 9 -5.5s10.666 -13.834 21.999 -30.501c2 -2.66699 3 -5.66699 3 -9c0 -2.66699 -0.833008 -4.5 -2.5 -5.5s-4.16699 -3.16699 -7.5 -6.5c-2 -2 -5.83301 -4.66699 -11.5 -8
s-12.334 -6.83301 -20.001 -10.5s-16 -6.66699 -25 -9s-18.167 -3.5 -27.5 -3.5c-11.333 0 -21 1.5 -29 4.5s-15.667 6.16699 -23 9.5z" />
    <glyph glyph-name="Adieresis" unicode="&#xc4;" horiz-adv-x="528" 
d="M306 709c8 0 13.3311 -4.66797 15.998 -14.001l180 -672c0.666992 -3.33301 1 -5.66602 1 -6.99902c0 -4.66699 -2 -8.5 -6 -11.5s-8.66699 -4.5 -14 -4.5h-41c-4.66699 0 -8.16699 1.66699 -10.5 5s-4.16602 7.33301 -5.49902 12l-40 151h-244l-40 -151
c-1.33301 -4.66699 -3.16602 -8.66699 -5.49902 -12s-5.83301 -5 -10.5 -5h-41c-5.33301 0 -10 1.5 -14 4.5s-6 6.83301 -6 11.5c0 2 0.333008 4.33301 1 7l180 672c2 9.33301 7.33301 14 16 14h84zM263.998 630.999l-103 -389h206zM233.998 808.999
c0 -5.33301 -1.66699 -9.66602 -5 -12.999s-7.66602 -5 -12.999 -5h-60c-5.33301 0 -9.66602 1.66699 -12.999 5s-5 7.66602 -5 12.999v49c0 5.33301 1.66699 9.66602 5 12.999s7.66602 5 12.999 5h60c5.33301 0 9.66602 -1.66699 12.999 -5s5 -7.66602 5 -12.999v-49z
M392.998 808.999c0 -5.33301 -1.66699 -9.66602 -5 -12.999s-7.66602 -5 -12.999 -5h-60c-5.33301 0 -9.66602 1.66699 -12.999 5s-5 7.66602 -5 12.999v49c0 5.33301 1.66699 9.66602 5 12.999s7.66602 5 12.999 5h60c5.33301 0 9.66602 -1.66699 12.999 -5
s5 -7.66602 5 -12.999v-49z" />
    <glyph glyph-name="Aring" unicode="&#xc5;" horiz-adv-x="528" 
d="M25 16c0 2 0.333008 4.33203 1 6.99902l179 669c-13.333 9.33301 -24 21.333 -32 36s-12 30.667 -12 48c0 13.333 2.83301 26.166 8.5 38.499s13.167 23.166 22.5 32.499s20.166 16.666 32.499 21.999s25.166 8 38.499 8c14 0 27.167 -2.66699 39.5 -8
s23.333 -12.666 33 -21.999s17.167 -20.166 22.5 -32.499s8 -25.166 8 -38.499c0 -17.333 -4 -33.333 -12 -48s-18.333 -26.667 -31 -36l179 -669c0.666992 -3.33301 1 -5.66602 1 -6.99902c0 -4.66699 -2 -8.5 -6 -11.5s-8.66699 -4.5 -14 -4.5h-41
c-4.66699 0 -8.16699 1.66699 -10.5 5s-4.16602 7.33301 -5.49902 12l-40 151h-244l-40 -151c-1.33301 -4.66699 -3.16602 -8.66699 -5.49902 -12s-5.83301 -5 -10.5 -5h-41c-5.33301 0 -10 1.5 -14 4.5s-6 6.83301 -6 11.5zM264 630.999l-103 -389h206zM326 775.999
c0 14 -5.66797 27.833 -17.001 41.5s-26.666 20.5 -45.999 20.5s-34.333 -6.83301 -45 -20.5s-16 -27.5 -16 -41.5c0 -14.667 5.33301 -29 16 -43s25.667 -21 45 -21c10 0 18.833 2 26.5 6s14.167 9 19.5 15s9.5 12.833 12.5 20.5s4.5 15.167 4.5 22.5z" />
    <glyph glyph-name="AE" unicode="&#xc6;" horiz-adv-x="728" 
d="M347 637l-155 -396h155v396zM675 72c5.33301 0 9.66504 -1.67285 12.998 -5.00586s5 -7.66602 5 -12.999v-36c0 -5.33301 -1.66699 -9.66602 -5 -12.999s-7.66602 -5 -12.999 -5h-306c-6 0 -11.167 2.16699 -15.5 6.5s-6.5 9.5 -6.5 15.5v145h-184l-57 -146
c-5.33301 -14 -13.666 -21 -24.999 -21h-38c-5.33301 0 -9.83301 1.5 -13.5 4.5s-5.5 7.16699 -5.5 12.5c0 1.33301 0.666992 3.33301 2 6l271 674c3.33301 8 9.33301 12 18 12h356c5.33301 0 9.66602 -1.66699 12.999 -5s5 -7.66602 5 -12.999v-36
c0 -5.33301 -1.66699 -9.66602 -5 -12.999s-7.66602 -5 -12.999 -5h-246v-221h204c5.33301 0 9.66602 -1.66699 12.999 -5s5 -7.66602 5 -12.999v-36c0 -5.33301 -1.66699 -9.66602 -5 -12.999s-7.66602 -5 -12.999 -5h-204v-272h250z" />
    <glyph glyph-name="Ccedilla" unicode="&#xc7;" horiz-adv-x="495" 
d="M448 524c0 -5.33301 -1.66797 -9.66699 -5.00098 -13s-7.66602 -5 -12.999 -5h-46c-5.33301 0 -9.66602 1.66699 -12.999 5s-5 7.66602 -5 12.999v11c0 36 -10.333 65.167 -31 87.5s-48.334 33.5 -83.001 33.5s-62.334 -11.167 -83.001 -33.5s-31 -51.5 -31 -87.5v-363
c0 -36 10.333 -65 31 -87s48.334 -33 83.001 -33s62.334 11 83.001 33s31 51 31 87v13c0 5.33301 1.66699 9.66602 5 12.999s7.66602 5 12.999 5h46c5.33301 0 9.66602 -1.66699 12.999 -5s5 -7.66602 5 -12.999v-13c0 -29.333 -5 -55.666 -15 -78.999
s-23.5 -43.5 -40.5 -60.5s-37.167 -30.167 -60.5 -39.5s-48.333 -14.333 -75 -15l-9 -30c6.66699 2.66699 11.5 4.33398 14.5 5.00098s7.83301 1 14.5 1s14.834 -1.5 24.501 -4.5s18.834 -7.83301 27.501 -14.5s16 -15.5 22 -26.5s9 -24.5 9 -40.5
c0 -10 -1.66699 -20.5 -5 -31.5s-9 -21.167 -17 -30.5s-18.5 -17 -31.5 -23s-28.833 -9 -47.5 -9c-12 0 -24.667 2.66699 -38 8s-24.666 11.666 -33.999 18.999c-2.66699 1.33301 -5 3.33301 -7 6s-3 5 -3 7c0 1.33301 0.166992 3.16602 0.5 5.49902
s1.83301 4.83301 4.5 7.5l13 13c4.66699 4.66699 8.66699 7 12 7c2 0 5 -1.33301 9 -4c15.333 -11.333 30.666 -17 45.999 -17c12.667 0 21.667 4.33301 27 13s8 18.334 8 29.001c0 16.667 -4.16699 27.667 -12.5 33s-16.166 8 -23.499 8
c-4.66699 0 -7.66699 -0.333008 -9 -1c-7.33301 -2 -12 -4.66699 -14 -8s-6 -5 -12 -5c-0.666992 0 -2.33398 0.166992 -5.00098 0.5s-4.66699 0.833008 -6 1.5l-15 4c-6.66699 2 -10 6.33301 -10 13c0 2 0.333008 4 1 6l18 62c-44.667 8.66699 -81.334 29.5 -110.001 62.5
s-43 75.5 -43 127.5v363c0 29.333 5 56 15 80s23.833 44.5 41.5 61.5s38.5 30.167 62.5 39.5s49.667 14 77 14s53 -4.66699 77 -14s44.833 -22.5 62.5 -39.5s31.5 -37.5 41.5 -61.5s15 -50.667 15 -80v-11z" />
    <glyph glyph-name="Egrave" unicode="&#xc8;" horiz-adv-x="452" 
d="M141 637v-221.004h212c5.33301 0 9.66602 -1.66699 12.999 -5s5 -7.66602 5 -12.999v-36c0 -5.33301 -1.66699 -9.66602 -5 -12.999s-7.66602 -5 -12.999 -5h-212v-272h258c5.33301 0 9.66602 -1.66699 12.999 -5s5 -7.66602 5 -12.999v-36
c0 -5.33301 -1.66699 -9.66602 -5 -12.999s-7.66602 -5 -12.999 -5h-320c-5.33301 0 -9.66602 1.66699 -12.999 5s-5 7.66602 -5 12.999v673c0 5.33301 1.66699 9.66602 5 12.999s7.66602 5 12.999 5h316c5.33301 0 9.66602 -1.66699 12.999 -5s5 -7.66602 5 -12.999v-36
c0 -5.33301 -1.66699 -9.66602 -5 -12.999s-7.66602 -5 -12.999 -5h-254zM161 870.996c-1.33301 2.66699 -2.00195 4.66602 -2.00195 5.99902c0 4 1.66699 7.5 5 10.5s7.33301 4.5 12 4.5h49c6 0 11.333 -2.16699 16 -6.5s8.33398 -9.16602 11.001 -14.499l31 -70
c2 -3.33301 3 -7 3 -11c0 -10.667 -6 -16 -18 -16h-24c-7.33301 0 -12.666 1.16699 -15.999 3.5s-7.33301 6.5 -12 12.5z" />
    <glyph glyph-name="Eacute" unicode="&#xc9;" horiz-adv-x="452" 
d="M141 637v-221.004h212c5.33301 0 9.66602 -1.66699 12.999 -5s5 -7.66602 5 -12.999v-36c0 -5.33301 -1.66699 -9.66602 -5 -12.999s-7.66602 -5 -12.999 -5h-212v-272h258c5.33301 0 9.66602 -1.66699 12.999 -5s5 -7.66602 5 -12.999v-36
c0 -5.33301 -1.66699 -9.66602 -5 -12.999s-7.66602 -5 -12.999 -5h-320c-5.33301 0 -9.66602 1.66699 -12.999 5s-5 7.66602 -5 12.999v673c0 5.33301 1.66699 9.66602 5 12.999s7.66602 5 12.999 5h316c5.33301 0 9.66602 -1.66699 12.999 -5s5 -7.66602 5 -12.999v-36
c0 -5.33301 -1.66699 -9.66602 -5 -12.999s-7.66602 -5 -12.999 -5h-254zM251 789.996c-4.66699 -6 -8.66895 -10.166 -12.002 -12.499s-8.66602 -3.5 -15.999 -3.5h-24c-12 0 -18 5.33301 -18 16c0 4 1 7.66699 3 11l31 70c2.66699 5.33301 6.33398 10.166 11.001 14.499
s10 6.5 16 6.5h49c4.66699 0 8.66699 -1.5 12 -4.5s5 -6.5 5 -10.5c0 -1.33301 -0.666992 -3.33301 -2 -6z" />
    <glyph glyph-name="Ecircumflex" unicode="&#xca;" horiz-adv-x="452" 
d="M141 637v-221.004h212c5.33301 0 9.66602 -1.66699 12.999 -5s5 -7.66602 5 -12.999v-36c0 -5.33301 -1.66699 -9.66602 -5 -12.999s-7.66602 -5 -12.999 -5h-212v-272h258c5.33301 0 9.66602 -1.66699 12.999 -5s5 -7.66602 5 -12.999v-36
c0 -5.33301 -1.66699 -9.66602 -5 -12.999s-7.66602 -5 -12.999 -5h-320c-5.33301 0 -9.66602 1.66699 -12.999 5s-5 7.66602 -5 12.999v673c0 5.33301 1.66699 9.66602 5 12.999s7.66602 5 12.999 5h316c5.33301 0 9.66602 -1.66699 12.999 -5s5 -7.66602 5 -12.999v-36
c0 -5.33301 -1.66699 -9.66602 -5 -12.999s-7.66602 -5 -12.999 -5h-254zM252 901.996c6.66699 0 11.332 -1.66797 13.999 -5.00098l9 -11l62 -93c2 -3.33301 3 -6.33301 3 -9c0 -4.66699 -4 -7 -12 -7h-42c-5.33301 0 -10.333 3 -15 9l-42 53l-42 -53
c-2.66699 -3.33301 -5 -5.66602 -7 -6.99902s-4.66699 -2 -8 -2h-42c-8 0 -12 2.33301 -12 7c0 2.66699 1 5.66699 3 9l62 93l9 11c2.66699 3.33301 7.33398 5 14.001 5h46z" />
    <glyph glyph-name="Edieresis" unicode="&#xcb;" horiz-adv-x="452" 
d="M141 637v-221.004h212c5.33301 0 9.66602 -1.66699 12.999 -5s5 -7.66602 5 -12.999v-36c0 -5.33301 -1.66699 -9.66602 -5 -12.999s-7.66602 -5 -12.999 -5h-212v-272h258c5.33301 0 9.66602 -1.66699 12.999 -5s5 -7.66602 5 -12.999v-36
c0 -5.33301 -1.66699 -9.66602 -5 -12.999s-7.66602 -5 -12.999 -5h-320c-5.33301 0 -9.66602 1.66699 -12.999 5s-5 7.66602 -5 12.999v673c0 5.33301 1.66699 9.66602 5 12.999s7.66602 5 12.999 5h316c5.33301 0 9.66602 -1.66699 12.999 -5s5 -7.66602 5 -12.999v-36
c0 -5.33301 -1.66699 -9.66602 -5 -12.999s-7.66602 -5 -12.999 -5h-254zM203 807.996c0 -5.33301 -1.66699 -9.66602 -5 -12.999s-7.66602 -5 -12.999 -5h-60c-5.33301 0 -9.66602 1.66699 -12.999 5s-5 7.66602 -5 12.999v49c0 5.33301 1.66699 9.66602 5 12.999
s7.66602 5 12.999 5h60c5.33301 0 9.66602 -1.66699 12.999 -5s5 -7.66602 5 -12.999v-49zM362 807.996c0 -5.33301 -1.66699 -9.66602 -5 -12.999s-7.66602 -5 -12.999 -5h-60c-5.33301 0 -9.66602 1.66699 -12.999 5s-5 7.66602 -5 12.999v49
c0 5.33301 1.66699 9.66602 5 12.999s7.66602 5 12.999 5h60c5.33301 0 9.66602 -1.66699 12.999 -5s5 -7.66602 5 -12.999v-49z" />
    <glyph glyph-name="Igrave" unicode="&#xcc;" horiz-adv-x="206" 
d="M140 18c0 -5.33301 -1.66699 -9.66602 -5 -12.999s-7.66602 -5 -12.999 -5h-44c-5.33301 0 -9.66602 1.66699 -12.999 5s-5 7.66602 -5 12.999v673c0 5.33301 1.66699 9.66602 5 12.999s7.66602 5 12.999 5h44c5.33301 0 9.66602 -1.66699 12.999 -5
s5 -7.66602 5 -12.999v-673zM12 871c-1.33301 2.66699 -2.00195 4.66602 -2.00195 5.99902c0 4 1.66699 7.5 5 10.5s7.33301 4.5 12 4.5h49c6 0 11.333 -2.16699 16 -6.5s8.33398 -9.16602 11.001 -14.499l31 -70c2 -3.33301 3 -7 3 -11c0 -10.667 -6 -16 -18 -16h-24
c-7.33301 0 -12.666 1.16699 -15.999 3.5s-7.33301 6.5 -12 12.5z" />
    <glyph glyph-name="Iacute" unicode="&#xcd;" horiz-adv-x="213" 
d="M146 18c0 -5.33301 -1.66699 -9.66602 -5 -12.999s-7.66602 -5 -12.999 -5h-44c-5.33301 0 -9.66602 1.66699 -12.999 5s-5 7.66602 -5 12.999v673c0 5.33301 1.66699 9.66602 5 12.999s7.66602 5 12.999 5h44c5.33301 0 9.66602 -1.66699 12.999 -5
s5 -7.66602 5 -12.999v-673zM146 790c-4.66699 -6 -8.66895 -10.166 -12.002 -12.499s-8.66602 -3.5 -15.999 -3.5h-24c-12 0 -18 5.33301 -18 16c0 4 1 7.66699 3 11l31 70c2.66699 5.33301 6.33398 10.166 11.001 14.499s10 6.5 16 6.5h49c4.66699 0 8.66699 -1.5 12 -4.5
s5 -6.5 5 -10.5c0 -1.33301 -0.666992 -3.33301 -2 -6z" />
    <glyph glyph-name="Icircumflex" unicode="&#xce;" horiz-adv-x="242" 
d="M164 18c0 -5.33301 -1.66699 -9.66602 -5 -12.999s-7.66602 -5 -12.999 -5h-44c-5.33301 0 -9.66602 1.66699 -12.999 5s-5 7.66602 -5 12.999v673c0 5.33301 1.66699 9.66602 5 12.999s7.66602 5 12.999 5h44c5.33301 0 9.66602 -1.66699 12.999 -5
s5 -7.66602 5 -12.999v-673zM144 894c6.66699 0 11.332 -1.66797 13.999 -5.00098l9 -11l62 -93c2 -3.33301 3 -6.33301 3 -9c0 -4.66699 -4 -7 -12 -7h-42c-5.33301 0 -10.333 3 -15 9l-42 53l-42 -53c-2.66699 -3.33301 -5 -5.66602 -7 -6.99902s-4.66699 -2 -8 -2h-42
c-8 0 -12 2.33301 -12 7c0 2.66699 1 5.66699 3 9l62 93l9 11c2.66699 3.33301 7.33398 5 14.001 5h46z" />
    <glyph glyph-name="Idieresis" unicode="&#xcf;" horiz-adv-x="249" 
d="M163 18c0 -5.33301 -1.66699 -9.66602 -5 -12.999s-7.66602 -5 -12.999 -5h-44c-5.33301 0 -9.66602 1.66699 -12.999 5s-5 7.66602 -5 12.999v673c0 5.33301 1.66699 9.66602 5 12.999s7.66602 5 12.999 5h44c5.33301 0 9.66602 -1.66699 12.999 -5
s5 -7.66602 5 -12.999v-673zM93 809c0 -5.33301 -1.66699 -9.66602 -5 -12.999s-7.66602 -5 -12.999 -5h-60c-5.33301 0 -9.66602 1.66699 -12.999 5s-5 7.66602 -5 12.999v49c0 5.33301 1.66699 9.66602 5 12.999s7.66602 5 12.999 5h60
c5.33301 0 9.66602 -1.66699 12.999 -5s5 -7.66602 5 -12.999v-49zM252 809c0 -5.33301 -1.66699 -9.66602 -5 -12.999s-7.66602 -5 -12.999 -5h-60c-5.33301 0 -9.66602 1.66699 -12.999 5s-5 7.66602 -5 12.999v49c0 5.33301 1.66699 9.66602 5 12.999s7.66602 5 12.999 5
h60c5.33301 0 9.66602 -1.66699 12.999 -5s5 -7.66602 5 -12.999v-49z" />
    <glyph glyph-name="Eth" unicode="&#xd0;" horiz-adv-x="501" 
d="M0 291c-5.33301 0 -9.66602 1.67285 -12.999 5.00586s-5 7.66602 -5 12.999v36c0 5.33301 1.66699 9.66602 5 12.999s7.66602 5 12.999 5h67v328c0 5.33301 1.66699 9.66602 5 12.999s7.66602 5 12.999 5h225c18.667 0 36.334 -3.33301 53.001 -10
s31.167 -16.334 43.5 -29.001s22 -28.167 29 -46.5s10.5 -38.833 10.5 -61.5v-415c0 -22.667 -3.5 -43.167 -10.5 -61.5s-16.667 -33.833 -29 -46.5s-26.833 -22.334 -43.5 -29.001s-34.334 -10 -53.001 -10h-225c-5.33301 0 -9.66602 1.66699 -12.999 5
s-5 7.66602 -5 12.999v273h-67zM227 363.006c5.33301 0 9.66602 -1.66895 12.999 -5.00195s5 -7.66602 5 -12.999v-36c0 -5.33301 -1.66699 -9.66602 -5 -12.999s-7.66602 -5 -12.999 -5h-80v-223h140c55.333 0 83 30.667 83 92v389c0 61.333 -27.667 92 -83 92h-140v-278
h80z" />
    <glyph glyph-name="Ntilde" unicode="&#xd1;" horiz-adv-x="545" 
d="M57 691c0 5.33301 1.66699 9.66602 5 12.999s7.66602 5 12.999 5h53c10 0 17.667 -5.66699 23 -17l257 -542v541c0 5.33301 1.66699 9.66602 5 12.999s7.66602 5 12.999 5h44c5.33301 0 9.66602 -1.66699 12.999 -5s5 -7.66602 5 -12.999v-673
c0 -5.33301 -1.66699 -9.66602 -5 -12.999s-7.66602 -5 -12.999 -5h-53c-10 0 -17.667 5.66699 -23 17l-257 542v-541c0 -5.33301 -1.66699 -9.66602 -5 -12.999s-7.66602 -5 -12.999 -5h-44c-5.33301 0 -9.66602 1.66699 -12.999 5s-5 7.66602 -5 12.999v673zM293 801
c-6.66699 3.33301 -13.668 6.50293 -21.001 9.50293s-16.333 4.5 -27 4.5c-11.333 0 -21.666 -3 -30.999 -9s-16 -10 -20 -12c-2 -2 -5 -3 -9 -3c-2.66699 0 -5.83398 1.66699 -9.50098 5s-10.834 13.666 -21.501 30.999c-2.66699 4 -4 7 -4 9c0 3.33301 3.66699 7 11 11
c2.66699 2 6.83398 4.66699 12.501 8s12.167 6.66602 19.5 9.99902s15.5 6.16602 24.5 8.49902s18.167 3.5 27.5 3.5c10.667 0 19.834 -1.5 27.501 -4.5s15.167 -6.16699 22.5 -9.5s14.833 -6.5 22.5 -9.5s16.834 -4.5 27.501 -4.5s20.834 3.16699 30.501 9.5l20.5 13.5
c1.33301 0.666992 2.83301 1.33398 4.5 2.00098s3.16699 1 4.5 1c2.66699 0 5.66699 -1.83301 9 -5.5s10.666 -13.834 21.999 -30.501c2 -2.66699 3 -5.66699 3 -9c0 -2.66699 -0.833008 -4.5 -2.5 -5.5s-4.16699 -3.16699 -7.5 -6.5c-2 -2 -5.83301 -4.66699 -11.5 -8
s-12.334 -6.83301 -20.001 -10.5s-16 -6.66699 -25 -9s-18.167 -3.5 -27.5 -3.5c-11.333 0 -21 1.5 -29 4.5s-15.667 6.16699 -23 9.5z" />
    <glyph glyph-name="Ograve" unicode="&#xd2;" horiz-adv-x="500" 
d="M250 55c34.667 0 62.334 11 83.001 33s31 51 31 87v360c0 36 -10.333 65.167 -31 87.5s-48.334 33.5 -83.001 33.5s-62.334 -11.167 -83.001 -33.5s-31 -51.5 -31 -87.5v-360c0 -36 10.333 -65 31 -87s48.334 -33 83.001 -33zM250 730c27.333 0 53 -4.66699 77 -14
s44.833 -22.5 62.5 -39.5s31.5 -37.5 41.5 -61.5s15 -50.667 15 -80v-360c0 -29.333 -5 -56 -15 -80s-23.833 -44.5 -41.5 -61.5s-38.5 -30 -62.5 -39s-49.667 -13.5 -77 -13.5s-53 4.5 -77 13.5s-44.833 22 -62.5 39s-31.5 37.5 -41.5 61.5s-15 50.667 -15 80v360
c0 29.333 5 56 15 80s23.833 44.5 41.5 61.5s38.5 30.167 62.5 39.5s49.667 14 77 14zM185 871c-1.33301 2.66699 -2.00195 4.66602 -2.00195 5.99902c0 4 1.66699 7.5 5 10.5s7.33301 4.5 12 4.5h49c6 0 11.333 -2.16699 16 -6.5s8.33398 -9.16602 11.001 -14.499l31 -70
c2 -3.33301 3 -7 3 -11c0 -10.667 -6 -16 -18 -16h-24c-7.33301 0 -12.666 1.16699 -15.999 3.5s-7.33301 6.5 -12 12.5z" />
    <glyph glyph-name="Oacute" unicode="&#xd3;" horiz-adv-x="500" 
d="M250 55c34.667 0 62.334 11 83.001 33s31 51 31 87v360c0 36 -10.333 65.167 -31 87.5s-48.334 33.5 -83.001 33.5s-62.334 -11.167 -83.001 -33.5s-31 -51.5 -31 -87.5v-360c0 -36 10.333 -65 31 -87s48.334 -33 83.001 -33zM250 730c27.333 0 53 -4.66699 77 -14
s44.833 -22.5 62.5 -39.5s31.5 -37.5 41.5 -61.5s15 -50.667 15 -80v-360c0 -29.333 -5 -56 -15 -80s-23.833 -44.5 -41.5 -61.5s-38.5 -30 -62.5 -39s-49.667 -13.5 -77 -13.5s-53 4.5 -77 13.5s-44.833 22 -62.5 39s-31.5 37.5 -41.5 61.5s-15 50.667 -15 80v360
c0 29.333 5 56 15 80s23.833 44.5 41.5 61.5s38.5 30.167 62.5 39.5s49.667 14 77 14zM273 791c-4.66699 -6 -8.66895 -10.166 -12.002 -12.499s-8.66602 -3.5 -15.999 -3.5h-24c-12 0 -18 5.33301 -18 16c0 4 1 7.66699 3 11l31 70
c2.66699 5.33301 6.33398 10.166 11.001 14.499s10 6.5 16 6.5h49c4.66699 0 8.66699 -1.5 12 -4.5s5 -6.5 5 -10.5c0 -1.33301 -0.666992 -3.33301 -2 -6z" />
    <glyph glyph-name="Ocircumflex" unicode="&#xd4;" horiz-adv-x="500" 
d="M250 730c27.333 0 53 -4.66699 77 -14s44.833 -22.5 62.5 -39.5s31.5 -37.5 41.5 -61.5s15 -50.667 15 -80v-360c0 -29.333 -5 -56 -15 -80s-23.833 -44.5 -41.5 -61.5s-38.5 -30 -62.5 -39s-49.667 -13.5 -77 -13.5s-53 4.5 -77 13.5s-44.833 22 -62.5 39
s-31.5 37.5 -41.5 61.5s-15 50.667 -15 80v360c0 29.333 5 56 15 80s23.833 44.5 41.5 61.5s38.5 30.167 62.5 39.5s49.667 14 77 14zM250 55c34.667 0 62.334 11 83.001 33s31 51 31 87v360c0 36 -10.333 65.167 -31 87.5s-48.334 33.5 -83.001 33.5
s-62.334 -11.167 -83.001 -33.5s-31 -51.5 -31 -87.5v-360c0 -36 10.333 -65 31 -87s48.334 -33 83.001 -33zM273 901c6.66699 0 11.332 -1.66797 13.999 -5.00098l9 -11l62 -93c2 -3.33301 3 -6.33301 3 -9c0 -4.66699 -4 -7 -12 -7h-42c-5.33301 0 -10.333 3 -15 9l-42 53
l-42 -53c-2.66699 -3.33301 -5 -5.66602 -7 -6.99902s-4.66699 -2 -8 -2h-42c-8 0 -12 2.33301 -12 7c0 2.66699 1 5.66699 3 9l62 93l9 11c2.66699 3.33301 7.33398 5 14.001 5h46z" />
    <glyph glyph-name="Otilde" unicode="&#xd5;" horiz-adv-x="500" 
d="M250 55c34.667 0 62.334 11 83.001 33s31 51 31 87v360c0 36 -10.333 65.167 -31 87.5s-48.334 33.5 -83.001 33.5s-62.334 -11.167 -83.001 -33.5s-31 -51.5 -31 -87.5v-360c0 -36 10.333 -65 31 -87s48.334 -33 83.001 -33zM250 730c27.333 0 53 -4.66699 77 -14
s44.833 -22.5 62.5 -39.5s31.5 -37.5 41.5 -61.5s15 -50.667 15 -80v-360c0 -29.333 -5 -56 -15 -80s-23.833 -44.5 -41.5 -61.5s-38.5 -30 -62.5 -39s-49.667 -13.5 -77 -13.5s-53 4.5 -77 13.5s-44.833 22 -62.5 39s-31.5 37.5 -41.5 61.5s-15 50.667 -15 80v360
c0 29.333 5 56 15 80s23.833 44.5 41.5 61.5s38.5 30.167 62.5 39.5s49.667 14 77 14zM247 802c-6.66699 3.33301 -13.668 6.50293 -21.001 9.50293s-16.333 4.5 -27 4.5c-11.333 0 -21.666 -3 -30.999 -9s-16 -10 -20 -12c-2 -2 -5 -3 -9 -3
c-2.66699 0 -5.83398 1.66699 -9.50098 5s-10.834 13.666 -21.501 30.999c-2.66699 4 -4 7 -4 9c0 3.33301 3.66699 7 11 11c2.66699 2 6.83398 4.66699 12.501 8s12.167 6.66602 19.5 9.99902s15.5 6.16602 24.5 8.49902s18.167 3.5 27.5 3.5
c10.667 0 19.834 -1.5 27.501 -4.5s15.167 -6.16699 22.5 -9.5s14.833 -6.5 22.5 -9.5s16.834 -4.5 27.501 -4.5s20.834 3.16699 30.501 9.5l20.5 13.5c1.33301 0.666992 2.83301 1.33398 4.5 2.00098s3.16699 1 4.5 1c2.66699 0 5.66699 -1.83301 9 -5.5
s10.666 -13.834 21.999 -30.501c2 -2.66699 3 -5.66699 3 -9c0 -2.66699 -0.833008 -4.5 -2.5 -5.5s-4.16699 -3.16699 -7.5 -6.5c-2 -2 -5.83301 -4.66699 -11.5 -8s-12.334 -6.83301 -20.001 -10.5s-16 -6.66699 -25 -9s-18.167 -3.5 -27.5 -3.5
c-11.333 0 -21 1.5 -29 4.5s-15.667 6.16699 -23 9.5z" />
    <glyph glyph-name="Odieresis" unicode="&#xd6;" horiz-adv-x="500" 
d="M250 55c34.667 0 62.334 11 83.001 33s31 51 31 87v360c0 36 -10.333 65.167 -31 87.5s-48.334 33.5 -83.001 33.5s-62.334 -11.167 -83.001 -33.5s-31 -51.5 -31 -87.5v-360c0 -36 10.333 -65 31 -87s48.334 -33 83.001 -33zM250 730c27.333 0 53 -4.66699 77 -14
s44.833 -22.5 62.5 -39.5s31.5 -37.5 41.5 -61.5s15 -50.667 15 -80v-360c0 -29.333 -5 -56 -15 -80s-23.833 -44.5 -41.5 -61.5s-38.5 -30 -62.5 -39s-49.667 -13.5 -77 -13.5s-53 4.5 -77 13.5s-44.833 22 -62.5 39s-31.5 37.5 -41.5 61.5s-15 50.667 -15 80v360
c0 29.333 5 56 15 80s23.833 44.5 41.5 61.5s38.5 30.167 62.5 39.5s49.667 14 77 14zM219 810c0 -5.33301 -1.66699 -9.66602 -5 -12.999s-7.66602 -5 -12.999 -5h-60c-5.33301 0 -9.66602 1.66699 -12.999 5s-5 7.66602 -5 12.999v49c0 5.33301 1.66699 9.66602 5 12.999
s7.66602 5 12.999 5h60c5.33301 0 9.66602 -1.66699 12.999 -5s5 -7.66602 5 -12.999v-49zM378 810c0 -5.33301 -1.66699 -9.66602 -5 -12.999s-7.66602 -5 -12.999 -5h-60c-5.33301 0 -9.66602 1.66699 -12.999 5s-5 7.66602 -5 12.999v49
c0 5.33301 1.66699 9.66602 5 12.999s7.66602 5 12.999 5h60c5.33301 0 9.66602 -1.66699 12.999 -5s5 -7.66602 5 -12.999v-49z" />
    <glyph glyph-name="multiply" unicode="&#xd7;" 
d="M116 387c-2.66699 2.66699 -4.00098 7 -4.00098 13c0 5.33301 1.33301 9.66602 4 12.999l26 26c2.66699 2.66699 6.66699 4 12 4s9.66602 -1.66699 12.999 -5l120 -119l116 116c3.33301 3.33301 8 5 14 5c4 0 8.33301 -1.66699 13 -5l25 -26
c3.33301 -3.33301 5 -7.33301 5 -12c0 -5.33301 -1.66699 -9.66602 -5 -12.999l-117 -117l119 -119c2.66699 -3.33301 4 -7.33301 4 -12c0 -5.33301 -1.66699 -9.66602 -5 -12.999l-26 -26c-3.33301 -3.33301 -7 -5 -11 -5c-5.33301 0 -9.66602 1.66699 -12.999 5l-120 119
l-118 -118c-3.33301 -3.33301 -7.66602 -5 -12.999 -5c-4 0 -8.33301 1.66699 -13 5l-25 25c-3.33301 4.66699 -5 9 -5 13c0 5.33301 1.66699 9.66602 5 12.999l119 119z" />
    <glyph glyph-name="Oslash" unicode="&#xd8;" horiz-adv-x="523" 
d="M266 728c27.333 0 52.834 -4.5 76.501 -13.5s44.167 -22.167 61.5 -39.5l28 48c3.33301 6.66699 8 10 14 10c3.33301 0 6.66602 -1 9.99902 -3l34 -19c5.33301 -2.66699 8 -7.66699 8 -15c0 -4 -0.666992 -7 -2 -9l-47 -81c4 -11.333 7.16699 -23 9.5 -35
s3.5 -24.667 3.5 -38v-360c0 -29.333 -5 -56 -15 -80s-23.833 -44.5 -41.5 -61.5s-38.5 -30 -62.5 -39s-49.667 -13.5 -77 -13.5c-28 0 -54.167 4.83301 -78.5 14.5s-45.5 23.167 -63.5 40.5l-22 -40c-3.33301 -6 -8.33301 -9 -15 -9c-4 0 -7.33301 0.666992 -10 2l-33 19
c-6 2.66699 -9 7.66699 -9 15c0 2 0.666992 5 2 9l43 76c-3.33301 10 -5.83301 20.667 -7.5 32s-2.5 23 -2.5 35v360c0 29.333 5 56 15 80s23.833 44.5 41.5 61.5s38.5 30.167 62.5 39.5s49.667 14 77 14zM266.001 55c34.667 0 62.333 10.999 83 32.999s31 51 31 87v308
l-213 -374c9.33301 -17.333 22.5 -30.666 39.5 -39.999s36.833 -14 59.5 -14zM266 655.999c-34.667 0 -62.333 -11.168 -83 -33.501s-31 -51.5 -31 -87.5v-303l211 370c-9.33301 16.667 -22.333 29.834 -39 39.501s-36 14.5 -58 14.5z" />
    <glyph glyph-name="Ugrave" unicode="&#xd9;" horiz-adv-x="504" 
d="M56 691c0 5.33301 1.66895 9.66602 5.00195 12.999s7.66602 5 12.999 5h46c5.33301 0 9.66602 -1.66699 12.999 -5s5 -7.66602 5 -12.999v-516c0 -36 10.333 -65 31 -87s48.334 -33 83.001 -33s62.334 11 83.001 33s31 51 31 87v516c0 5.33301 1.66699 9.66602 5 12.999
s7.66602 5 12.999 5h46c5.33301 0 9.66602 -1.66699 12.999 -5s5 -7.66602 5 -12.999v-516c0 -29.333 -5 -56 -15 -80s-23.833 -44.5 -41.5 -61.5s-38.5 -30 -62.5 -39s-49.667 -13.5 -77 -13.5s-53 4.5 -77 13.5s-44.833 22 -62.5 39s-31.5 37.5 -41.5 61.5
s-15 50.667 -15 80v516zM180.002 870c-1.33301 2.66699 -2.00195 4.66602 -2.00195 5.99902c0 4 1.66699 7.5 5 10.5s7.33301 4.5 12 4.5h49c6 0 11.333 -2.16699 16 -6.5s8.33398 -9.16602 11.001 -14.499l31 -70c2 -3.33301 3 -7 3 -11c0 -10.667 -6 -16 -18 -16h-24
c-7.33301 0 -12.666 1.16699 -15.999 3.5s-7.33301 6.5 -12 12.5z" />
    <glyph glyph-name="Uacute" unicode="&#xda;" horiz-adv-x="504" 
d="M56 691c0 5.33301 1.66895 9.66602 5.00195 12.999s7.66602 5 12.999 5h46c5.33301 0 9.66602 -1.66699 12.999 -5s5 -7.66602 5 -12.999v-516c0 -36 10.333 -65 31 -87s48.334 -33 83.001 -33s62.334 11 83.001 33s31 51 31 87v516c0 5.33301 1.66699 9.66602 5 12.999
s7.66602 5 12.999 5h46c5.33301 0 9.66602 -1.66699 12.999 -5s5 -7.66602 5 -12.999v-516c0 -29.333 -5 -56 -15 -80s-23.833 -44.5 -41.5 -61.5s-38.5 -30 -62.5 -39s-49.667 -13.5 -77 -13.5s-53 4.5 -77 13.5s-44.833 22 -62.5 39s-31.5 37.5 -41.5 61.5
s-15 50.667 -15 80v516zM284.002 790c-4.66699 -6 -8.66895 -10.166 -12.002 -12.499s-8.66602 -3.5 -15.999 -3.5h-24c-12 0 -18 5.33301 -18 16c0 4 1 7.66699 3 11l31 70c2.66699 5.33301 6.33398 10.166 11.001 14.499s10 6.5 16 6.5h49c4.66699 0 8.66699 -1.5 12 -4.5
s5 -6.5 5 -10.5c0 -1.33301 -0.666992 -3.33301 -2 -6z" />
    <glyph glyph-name="Ucircumflex" unicode="&#xdb;" horiz-adv-x="504" 
d="M56 691c0 5.33301 1.66895 9.66602 5.00195 12.999s7.66602 5 12.999 5h46c5.33301 0 9.66602 -1.66699 12.999 -5s5 -7.66602 5 -12.999v-516c0 -36 10.333 -65 31 -87s48.334 -33 83.001 -33s62.334 11 83.001 33s31 51 31 87v516c0 5.33301 1.66699 9.66602 5 12.999
s7.66602 5 12.999 5h46c5.33301 0 9.66602 -1.66699 12.999 -5s5 -7.66602 5 -12.999v-516c0 -29.333 -5 -56 -15 -80s-23.833 -44.5 -41.5 -61.5s-38.5 -30 -62.5 -39s-49.667 -13.5 -77 -13.5s-53 4.5 -77 13.5s-44.833 22 -62.5 39s-31.5 37.5 -41.5 61.5
s-15 50.667 -15 80v516zM275.002 892c6.66699 0 11.332 -1.66797 13.999 -5.00098l9 -11l62 -93c2 -3.33301 3 -6.33301 3 -9c0 -4.66699 -4 -7 -12 -7h-42c-5.33301 0 -10.333 3 -15 9l-42 53l-42 -53c-2.66699 -3.33301 -5 -5.66602 -7 -6.99902s-4.66699 -2 -8 -2h-42
c-8 0 -12 2.33301 -12 7c0 2.66699 1 5.66699 3 9l62 93l9 11c2.66699 3.33301 7.33398 5 14.001 5h46z" />
    <glyph glyph-name="Udieresis" unicode="&#xdc;" horiz-adv-x="504" 
d="M56 691c0 5.33301 1.66895 9.66602 5.00195 12.999s7.66602 5 12.999 5h46c5.33301 0 9.66602 -1.66699 12.999 -5s5 -7.66602 5 -12.999v-516c0 -36 10.333 -65 31 -87s48.334 -33 83.001 -33s62.334 11 83.001 33s31 51 31 87v516c0 5.33301 1.66699 9.66602 5 12.999
s7.66602 5 12.999 5h46c5.33301 0 9.66602 -1.66699 12.999 -5s5 -7.66602 5 -12.999v-516c0 -29.333 -5 -56 -15 -80s-23.833 -44.5 -41.5 -61.5s-38.5 -30 -62.5 -39s-49.667 -13.5 -77 -13.5s-53 4.5 -77 13.5s-44.833 22 -62.5 39s-31.5 37.5 -41.5 61.5
s-15 50.667 -15 80v516zM225.002 809c0 -5.33301 -1.66699 -9.66602 -5 -12.999s-7.66602 -5 -12.999 -5h-60c-5.33301 0 -9.66602 1.66699 -12.999 5s-5 7.66602 -5 12.999v49c0 5.33301 1.66699 9.66602 5 12.999s7.66602 5 12.999 5h60
c5.33301 0 9.66602 -1.66699 12.999 -5s5 -7.66602 5 -12.999v-49zM384.002 809c0 -5.33301 -1.66699 -9.66602 -5 -12.999s-7.66602 -5 -12.999 -5h-60c-5.33301 0 -9.66602 1.66699 -12.999 5s-5 7.66602 -5 12.999v49c0 5.33301 1.66699 9.66602 5 12.999
s7.66602 5 12.999 5h60c5.33301 0 9.66602 -1.66699 12.999 -5s5 -7.66602 5 -12.999v-49z" />
    <glyph glyph-name="Yacute" unicode="&#xdd;" horiz-adv-x="520" 
d="M220 331l-187 355c-1.33301 2.66699 -2 5 -2 7c0 10.667 5.66699 16 17 16h41c6 0 10.667 -1.33301 14 -4s7.66602 -9 12.999 -19l144 -265l144 265c5.33301 10 9.66602 16.333 12.999 19s8 4 14 4h41c11.333 0 17 -5.33301 17 -16c0 -2 -0.666992 -4.33301 -2 -7
l-187 -355v-313c0 -5.33301 -1.66699 -9.66602 -5 -12.999s-7.66602 -5 -12.999 -5h-44c-5.33301 0 -9.66602 1.66699 -12.999 5s-5 7.66602 -5 12.999v313zM270 791c-4.66699 -6 -8.66895 -10.166 -12.002 -12.499s-8.66602 -3.5 -15.999 -3.5h-24
c-12 0 -18 5.33301 -18 16c0 4 1 7.66699 3 11l31 70c2.66699 5.33301 6.33398 10.166 11.001 14.499s10 6.5 16 6.5h49c4.66699 0 8.66699 -1.5 12 -4.5s5 -6.5 5 -10.5c0 -1.33301 -0.666992 -3.33301 -2 -6z" />
    <glyph glyph-name="Thorn" unicode="&#xde;" horiz-adv-x="474" 
d="M146 18c0 -5.33301 -1.66699 -9.66602 -5 -12.999s-7.66602 -5 -12.999 -5h-44c-5.33301 0 -9.66602 1.66699 -12.999 5s-5 7.66602 -5 12.999v673c0 5.33301 1.66699 9.66602 5 12.999s7.66602 5 12.999 5h44c5.33301 0 9.66602 -1.66699 12.999 -5
s5 -7.66602 5 -12.999v-159h159c19.333 0 37.166 -3.33301 53.499 -10s30.5 -16 42.5 -28s21.333 -26.167 28 -42.5s10 -33.833 10 -52.5v-107c0 -18.667 -3.33301 -36.167 -10 -52.5s-16 -30.5 -28 -42.5s-26.167 -21.333 -42.5 -28s-34.166 -10 -53.499 -10h-159v-141z
M361 379c0 31.333 -7.5 53.333 -22.5 66s-37.167 19 -66.5 19h-126v-237h126c29.333 0 51.5 6.33301 66.5 19s22.5 34.667 22.5 66v67z" />
    <glyph glyph-name="germandbls" unicode="&#xdf;" horiz-adv-x="504" 
d="M305 434c7.33301 0 14.6631 1.33496 21.9961 4.00195s13.833 6.83398 19.5 12.501s10.334 13.167 14.001 22.5s5.5 20.666 5.5 33.999v30c0 41.333 -9.66699 71.5 -29 90.5s-48.666 28.5 -87.999 28.5c-77.333 0 -116 -39.667 -116 -119v-519
c0 -5.33301 -1.66699 -9.66602 -5 -12.999s-7.66602 -5 -12.999 -5h-41c-5.33301 0 -9.66602 1.66699 -12.999 5s-5 7.66602 -5 12.999v519c0 29.333 5 56 15 80s23.667 44.5 41 61.5s37.666 30 60.999 39s48.666 13.5 75.999 13.5c28.667 0 55 -4.16699 79 -12.5
s44.5 -20.833 61.5 -37.5s30.333 -37 40 -61s14.5 -51.667 14.5 -83c0 -22 -2 -40.667 -6 -56s-9.16699 -28.166 -15.5 -38.499s-13.833 -19 -22.5 -26s-17.667 -12.833 -27 -17.5c30.667 -8 53 -22.167 67 -42.5s21 -43.166 21 -68.499v-162
c0 -19.333 -3.33301 -36.833 -10 -52.5s-15.667 -29 -27 -40s-24.666 -19.333 -39.999 -25s-31.333 -8.5 -48 -8.5h-67c-5.33301 0 -9.66602 1.66699 -12.999 5s-5 7.66602 -5 12.999v33c0 5.33301 1.66699 9.66602 5 12.999s7.66602 5 12.999 5h45
c22 0 38.5 5.66699 49.5 17s16.5 30 16.5 56v126c0 20 -2.83301 36 -8.5 48s-13 21.167 -22 27.5s-19.167 10.333 -30.5 12s-22.666 2.5 -33.999 2.5h-33c-5.33301 0 -9.66602 1.66699 -12.999 5s-5 7.66602 -5 12.999v40c0 5.33301 1.66699 9.66602 5 12.999
s7.66602 5 12.999 5h53z" />
    <glyph glyph-name="agrave" unicode="&#xe0;" horiz-adv-x="445" 
d="M154 719c-1.33301 2.66699 -2.00195 4.66602 -2.00195 5.99902c0 4 1.66699 7.5 5 10.5s7.33301 4.5 12 4.5h49c6 0 11.333 -2.16699 16 -6.5s8.33398 -9.16602 11.001 -14.499l31 -70c2 -3.33301 3 -7 3 -11c0 -10.667 -6 -16 -18 -16h-24
c-7.33301 0 -12.666 1.16699 -15.999 3.5s-7.33301 6.5 -12 12.5zM165.998 212.999c-22.667 -12 -37.5 -24.667 -44.5 -38s-10.5 -28 -10.5 -44c0 -26.667 8.16699 -46.5 24.5 -59.5s36.166 -19.5 59.499 -19.5c14.667 0 29.334 2.16699 44.001 6.5s28 11 40 20
s21.833 20 29.5 33s11.5 28.167 11.5 45.5v133zM265.998 331.999c19.333 9.33301 33 18.833 41 28.5s12 21.167 12 34.5c0 25.333 -7.33301 46.333 -22 63s-39 25 -73 25c-29.333 0 -52 -8.33301 -68 -25s-24 -39 -24 -67v-4c0 -5.33301 -1.66699 -9.66602 -5 -12.999
s-7.66602 -5 -12.999 -5h-38c-5.33301 0 -9.66602 1.66699 -12.999 5s-5 7.66602 -5 12.999v11c0 21.333 4.16699 41.333 12.5 60s20.166 34.834 35.499 48.501s33.666 24.334 54.999 32.001s44.666 11.5 69.999 11.5c28 0 52.167 -4.16699 72.5 -12.5
s37.166 -19.833 50.499 -34.5s23.333 -31.834 30 -51.501s10 -40.834 10 -63.501v-370c0 -5.33301 -1.66699 -9.66602 -5 -12.999s-7.66602 -5 -12.999 -5h-38c-5.33301 0 -9.66602 1.66699 -12.999 5s-5 7.66602 -5 12.999v48c-13.333 -22 -32.833 -40.333 -58.5 -55
s-54.167 -22 -85.5 -22c-17.333 0 -34.5 2.83301 -51.5 8.5s-32.167 14.167 -45.5 25.5s-24.166 25.5 -32.499 42.5s-12.5 36.5 -12.5 58.5c0 30 7.16699 57.333 21.5 82s38.166 44.667 71.499 60z" />
    <glyph glyph-name="aacute" unicode="&#xe1;" horiz-adv-x="445" 
d="M261 638c-4.66699 -6 -8.66895 -10.166 -12.002 -12.499s-8.66602 -3.5 -15.999 -3.5h-24c-12 0 -18 5.33301 -18 16c0 4 1 7.66699 3 11l31 70c2.66699 5.33301 6.33398 10.166 11.001 14.499s10 6.5 16 6.5h49c4.66699 0 8.66699 -1.5 12 -4.5s5 -6.5 5 -10.5
c0 -1.33301 -0.666992 -3.33301 -2 -6zM165.998 213.001c-22.667 -12 -37.5 -24.667 -44.5 -38s-10.5 -28 -10.5 -44c0 -26.667 8.16699 -46.5 24.5 -59.5s36.166 -19.5 59.499 -19.5c14.667 0 29.334 2.16699 44.001 6.5s28 11 40 20s21.833 20 29.5 33
s11.5 28.167 11.5 45.5v133zM265.998 332.001c19.333 9.33301 33 18.833 41 28.5s12 21.167 12 34.5c0 25.333 -7.33301 46.333 -22 63s-39 25 -73 25c-29.333 0 -52 -8.33301 -68 -25s-24 -39 -24 -67v-4c0 -5.33301 -1.66699 -9.66602 -5 -12.999s-7.66602 -5 -12.999 -5
h-38c-5.33301 0 -9.66602 1.66699 -12.999 5s-5 7.66602 -5 12.999v11c0 21.333 4.16699 41.333 12.5 60s20.166 34.834 35.499 48.501s33.666 24.334 54.999 32.001s44.666 11.5 69.999 11.5c28 0 52.167 -4.16699 72.5 -12.5s37.166 -19.833 50.499 -34.5
s23.333 -31.834 30 -51.501s10 -40.834 10 -63.501v-370c0 -5.33301 -1.66699 -9.66602 -5 -12.999s-7.66602 -5 -12.999 -5h-38c-5.33301 0 -9.66602 1.66699 -12.999 5s-5 7.66602 -5 12.999v48c-13.333 -22 -32.833 -40.333 -58.5 -55s-54.167 -22 -85.5 -22
c-17.333 0 -34.5 2.83301 -51.5 8.5s-32.167 14.167 -45.5 25.5s-24.166 25.5 -32.499 42.5s-12.5 36.5 -12.5 58.5c0 30 7.16699 57.333 21.5 82s38.166 44.667 71.499 60z" />
    <glyph glyph-name="acircumflex" unicode="&#xe2;" horiz-adv-x="445" 
d="M266 332c19.333 9.33301 33 18.833 41 28.5s12 21.167 12 34.5c0 25.333 -7.33301 46.333 -22 63s-39 25 -73 25c-29.333 0 -52 -8.33301 -68 -25s-24 -39 -24 -67v-4c0 -5.33301 -1.66699 -9.66602 -5 -12.999s-7.66602 -5 -12.999 -5h-38
c-5.33301 0 -9.66602 1.66699 -12.999 5s-5 7.66602 -5 12.999v11c0 21.333 4.16699 41.333 12.5 60s20.166 34.834 35.499 48.501s33.666 24.334 54.999 32.001s44.666 11.5 69.999 11.5c28 0 52.167 -4.16699 72.5 -12.5s37.166 -19.833 50.499 -34.5
s23.333 -31.834 30 -51.501s10 -40.834 10 -63.501v-370c0 -5.33301 -1.66699 -9.66602 -5 -12.999s-7.66602 -5 -12.999 -5h-38c-5.33301 0 -9.66602 1.66699 -12.999 5s-5 7.66602 -5 12.999v48c-13.333 -22 -32.833 -40.333 -58.5 -55s-54.167 -22 -85.5 -22
c-17.333 0 -34.5 2.83301 -51.5 8.5s-32.167 14.167 -45.5 25.5s-24.166 25.5 -32.499 42.5s-12.5 36.5 -12.5 58.5c0 30 7.16699 57.333 21.5 82s38.166 44.667 71.499 60zM166 213c-22.667 -12 -37.5 -24.667 -44.5 -38s-10.5 -28 -10.5 -44
c0 -26.667 8.16699 -46.5 24.5 -59.5s36.166 -19.5 59.499 -19.5c14.667 0 29.334 2.16699 44.001 6.5s28 11 40 20s21.833 20 29.5 33s11.5 28.167 11.5 45.5v133zM255 726c6.66699 0 11.332 -1.66797 13.999 -5.00098l9 -11l62 -93c2 -3.33301 3 -6.33301 3 -9
c0 -4.66699 -4 -7 -12 -7h-42c-5.33301 0 -10.333 3 -15 9l-42 53l-42 -53c-2.66699 -3.33301 -5 -5.66602 -7 -6.99902s-4.66699 -2 -8 -2h-42c-8 0 -12 2.33301 -12 7c0 2.66699 1 5.66699 3 9l62 93l9 11c2.66699 3.33301 7.33398 5 14.001 5h46z" />
    <glyph glyph-name="atilde" unicode="&#xe3;" horiz-adv-x="445" 
d="M231 633c-6.66699 3.33301 -13.668 6.50293 -21.001 9.50293s-16.333 4.5 -27 4.5c-11.333 0 -21.666 -3 -30.999 -9s-16 -10 -20 -12c-2 -2 -5 -3 -9 -3c-2.66699 0 -5.83398 1.66699 -9.50098 5s-10.834 13.666 -21.501 30.999c-2.66699 4 -4 7 -4 9
c0 3.33301 3.66699 7 11 11c2.66699 2 6.83398 4.66699 12.501 8s12.167 6.66602 19.5 9.99902s15.5 6.16602 24.5 8.49902s18.167 3.5 27.5 3.5c10.667 0 19.834 -1.5 27.501 -4.5s15.167 -6.16699 22.5 -9.5s14.833 -6.5 22.5 -9.5s16.834 -4.5 27.501 -4.5
s20.834 3.16699 30.501 9.5l20.5 13.5c1.33301 0.666992 2.83301 1.33398 4.5 2.00098s3.16699 1 4.5 1c2.66699 0 5.66699 -1.83301 9 -5.5s10.666 -13.834 21.999 -30.501c2 -2.66699 3 -5.66699 3 -9c0 -2.66699 -0.833008 -4.5 -2.5 -5.5s-4.16699 -3.16699 -7.5 -6.5
c-2 -2 -5.83301 -4.66699 -11.5 -8s-12.334 -6.83301 -20.001 -10.5s-16 -6.66699 -25 -9s-18.167 -3.5 -27.5 -3.5c-11.333 0 -21 1.5 -29 4.5s-15.667 6.16699 -23 9.5zM165.999 213.003c-22.667 -12 -37.5 -24.667 -44.5 -38s-10.5 -28 -10.5 -44
c0 -26.667 8.16699 -46.5 24.5 -59.5s36.166 -19.5 59.499 -19.5c14.667 0 29.334 2.16699 44.001 6.5s28 11 40 20s21.833 20 29.5 33s11.5 28.167 11.5 45.5v133zM265.999 332.003c19.333 9.33301 33 18.833 41 28.5s12 21.167 12 34.5c0 25.333 -7.33301 46.333 -22 63
s-39 25 -73 25c-29.333 0 -52 -8.33301 -68 -25s-24 -39 -24 -67v-4c0 -5.33301 -1.66699 -9.66602 -5 -12.999s-7.66602 -5 -12.999 -5h-38c-5.33301 0 -9.66602 1.66699 -12.999 5s-5 7.66602 -5 12.999v11c0 21.333 4.16699 41.333 12.5 60s20.166 34.834 35.499 48.501
s33.666 24.334 54.999 32.001s44.666 11.5 69.999 11.5c28 0 52.167 -4.16699 72.5 -12.5s37.166 -19.833 50.499 -34.5s23.333 -31.834 30 -51.501s10 -40.834 10 -63.501v-370c0 -5.33301 -1.66699 -9.66602 -5 -12.999s-7.66602 -5 -12.999 -5h-38
c-5.33301 0 -9.66602 1.66699 -12.999 5s-5 7.66602 -5 12.999v48c-13.333 -22 -32.833 -40.333 -58.5 -55s-54.167 -22 -85.5 -22c-17.333 0 -34.5 2.83301 -51.5 8.5s-32.167 14.167 -45.5 25.5s-24.166 25.5 -32.499 42.5s-12.5 36.5 -12.5 58.5
c0 30 7.16699 57.333 21.5 82s38.166 44.667 71.499 60z" />
    <glyph glyph-name="adieresis" unicode="&#xe4;" horiz-adv-x="445" 
d="M199 639c0 -5.33301 -1.66699 -9.66602 -5 -12.999s-7.66602 -5 -12.999 -5h-60c-5.33301 0 -9.66602 1.66699 -12.999 5s-5 7.66602 -5 12.999v49c0 5.33301 1.66699 9.66602 5 12.999s7.66602 5 12.999 5h60c5.33301 0 9.66602 -1.66699 12.999 -5
s5 -7.66602 5 -12.999v-49zM358 639c0 -5.33301 -1.66699 -9.66602 -5 -12.999s-7.66602 -5 -12.999 -5h-60c-5.33301 0 -9.66602 1.66699 -12.999 5s-5 7.66602 -5 12.999v49c0 5.33301 1.66699 9.66602 5 12.999s7.66602 5 12.999 5h60
c5.33301 0 9.66602 -1.66699 12.999 -5s5 -7.66602 5 -12.999v-49zM166 213c-22.667 -12 -37.5 -24.667 -44.5 -38s-10.5 -28 -10.5 -44c0 -26.667 8.16699 -46.5 24.5 -59.5s36.166 -19.5 59.499 -19.5c14.667 0 29.334 2.16699 44.001 6.5s28 11 40 20s21.833 20 29.5 33
s11.5 28.167 11.5 45.5v133zM266 332c19.333 9.33301 33 18.833 41 28.5s12 21.167 12 34.5c0 25.333 -7.33301 46.333 -22 63s-39 25 -73 25c-29.333 0 -52 -8.33301 -68 -25s-24 -39 -24 -67v-4c0 -5.33301 -1.66699 -9.66602 -5 -12.999s-7.66602 -5 -12.999 -5h-38
c-5.33301 0 -9.66602 1.66699 -12.999 5s-5 7.66602 -5 12.999v11c0 21.333 4.16699 41.333 12.5 60s20.166 34.834 35.499 48.501s33.666 24.334 54.999 32.001s44.666 11.5 69.999 11.5c28 0 52.167 -4.16699 72.5 -12.5s37.166 -19.833 50.499 -34.5
s23.333 -31.834 30 -51.501s10 -40.834 10 -63.501v-370c0 -5.33301 -1.66699 -9.66602 -5 -12.999s-7.66602 -5 -12.999 -5h-38c-5.33301 0 -9.66602 1.66699 -12.999 5s-5 7.66602 -5 12.999v48c-13.333 -22 -32.833 -40.333 -58.5 -55s-54.167 -22 -85.5 -22
c-17.333 0 -34.5 2.83301 -51.5 8.5s-32.167 14.167 -45.5 25.5s-24.166 25.5 -32.499 42.5s-12.5 36.5 -12.5 58.5c0 30 7.16699 57.333 21.5 82s38.166 44.667 71.499 60z" />
    <glyph glyph-name="aring" unicode="&#xe5;" horiz-adv-x="445" 
d="M156 537c-12 10.667 -21.5029 23.3311 -28.5029 37.998s-10.5 30.334 -10.5 47.001c0 14.667 3 28.834 9 42.501s14.167 25.667 24.5 36s22.166 18.5 35.499 24.5s27.666 9 42.999 9s29.833 -3 43.5 -9s25.667 -14.167 36 -24.5s18.5 -22.333 24.5 -36
s9 -27.834 9 -42.501c0 -17.333 -3.5 -33.166 -10.5 -47.499s-16.5 -26.833 -28.5 -37.5c31.333 -12 54.333 -31.333 69 -58s22 -57 22 -91v-370c0 -5.33301 -1.66699 -9.66602 -5 -12.999s-7.66602 -5 -12.999 -5h-38c-5.33301 0 -9.66602 1.66699 -12.999 5
s-5 7.66602 -5 12.999v48c-13.333 -22 -32.833 -40.333 -58.5 -55s-54.167 -22 -85.5 -22c-17.333 0 -34.5 2.83301 -51.5 8.5s-32.167 14.167 -45.5 25.5s-24.166 25.5 -32.499 42.5s-12.5 36.5 -12.5 58.5c0 30 7.16699 57.333 21.5 82s38.166 44.667 71.499 60l139 66
c19.333 9.33301 33 18.833 41 28.5s12 21.167 12 34.5c0 25.333 -7.33301 46.333 -22 63s-39 25 -73 25c-29.333 0 -52 -8.33301 -68 -25s-24 -39 -24 -67v-4c0 -5.33301 -1.66699 -9.66602 -5 -12.999s-7.66602 -5 -12.999 -5h-38c-5.33301 0 -9.66602 1.66699 -12.999 5
s-5 7.66602 -5 12.999v11c0 32 8.83301 60.167 26.5 84.5s41.834 42.5 72.501 54.5h-1zM165.997 212.997c-22.667 -12 -37.5 -24.667 -44.5 -38s-10.5 -28 -10.5 -44c0 -26.667 8.16699 -46.5 24.5 -59.5s36.166 -19.5 59.499 -19.5c14.667 0 29.334 2.16699 44.001 6.5
s28 11 40 20s21.833 20 29.5 33s11.5 28.167 11.5 45.5v133zM297.997 621.997c0 8 -1.5 16 -4.5 24s-7.5 15.333 -13.5 22s-13.333 12.167 -22 16.5s-18.334 6.5 -29.001 6.5s-20.167 -2.16699 -28.5 -6.5s-15.333 -9.83301 -21 -16.5s-10 -14 -13 -22s-4.5 -16 -4.5 -24
s1.5 -16 4.5 -24s7.33301 -15.5 13 -22.5s12.667 -12.667 21 -17s17.833 -6.5 28.5 -6.5s20.334 2.16699 29.001 6.5s16 10 22 17s10.5 14.5 13.5 22.5s4.5 16 4.5 24z" />
    <glyph glyph-name="ae" unicode="&#xe6;" horiz-adv-x="719" 
d="M195 52c14.667 0 29.334 2.16699 44.001 6.5s28 11 40 20s21.833 20 29.5 33s11.5 28.167 11.5 45.5v133l-154 -77c-23.333 -11.333 -38.333 -23.833 -45 -37.5s-10 -28.5 -10 -44.5c0 -26.667 8.16699 -46.5 24.5 -59.5s36.166 -19.5 59.499 -19.5zM606 314
l0.00390625 64c0 14 -2.83301 27.5 -8.5 40.5s-13.334 24.167 -23.001 33.5s-20.834 16.833 -33.501 22.5s-26.334 8.5 -41.001 8.5c-15.333 0 -29.333 -2.83301 -42 -8.5s-23.834 -13.167 -33.501 -22.5s-17.167 -20.5 -22.5 -33.5s-8 -26.5 -8 -40.5v-64h212zM319.004 395
c0 25.333 -7.33301 46.334 -22 63.001s-39 25 -73 25c-29.333 0 -52 -8.33301 -68 -25s-24 -39 -24 -67v-4c0 -5.33301 -1.66699 -9.66602 -5 -12.999s-7.66602 -5 -12.999 -5h-38c-5.33301 0 -9.66602 1.66699 -12.999 5s-5 7.66602 -5 12.999v11
c0 21.333 4.16699 41.333 12.5 60s20.166 34.834 35.499 48.501s33.666 24.334 54.999 32.001s44.666 11.5 69.999 11.5c32 0 58.833 -5.33301 80.5 -16s39.167 -25.334 52.5 -44.001c16 18 35.667 32.5 59 43.5s49 16.5 77 16.5c26 0 49.833 -4.66699 71.5 -14
s40.5 -22 56.5 -38s28.5 -34.333 37.5 -55s13.5 -42.334 13.5 -65.001v-108c0 -5.33301 -1.66699 -9.66602 -5 -12.999s-7.66602 -5 -12.999 -5h-267v-95c0 -14 2.66699 -27.5 8 -40.5s12.833 -24.167 22.5 -33.5s20.834 -16.833 33.501 -22.5s26.667 -8.5 42 -8.5
c14 0 27.167 2.5 39.5 7.5s23.333 12 33 21s17.334 19.333 23.001 31s8.5 24.167 8.5 37.5v8c0 5.33301 1.66699 9.66602 5 12.999s7.66602 5 12.999 5h39c5.33301 0 9.66602 -1.66699 12.999 -5s5 -7.66602 5 -12.999v-8c0 -22 -4.66699 -43 -14 -63s-22 -37.5 -38 -52.5
s-35 -26.833 -57 -35.5s-45.333 -13 -70 -13c-18 0 -35 2.5 -51 7.5s-30.833 11.667 -44.5 20s-25.667 17.666 -36 27.999s-18.5 21.166 -24.5 32.499c-15.333 -24 -36.5 -45 -63.5 -63s-61.833 -27 -104.5 -27c-17.333 0 -34.5 3.16699 -51.5 9.5s-32.167 15.5 -45.5 27.5
s-24.166 26.833 -32.499 44.5s-12.5 37.5 -12.5 59.5c0 30 7.16699 57.333 21.5 82s38.166 44.667 71.499 60l139 66c19.333 9.33301 33 18.833 41 28.5s12 21.167 12 34.5z" />
    <glyph glyph-name="ccedilla" unicode="&#xe7;" horiz-adv-x="443" 
d="M48 378c0 22.667 4.32812 44.3359 12.9951 65.0029s20.834 39 36.501 55s34.334 28.667 56.001 38s45.5 14 71.5 14s49.833 -4.66699 71.5 -14s40.5 -22 56.5 -38s28.333 -34.333 37 -55s13 -42.334 13 -65.001v-5c0 -5.33301 -1.66699 -9.66602 -5 -12.999
s-7.66602 -5 -12.999 -5h-39c-5.33301 0 -9.66602 1.66699 -12.999 5s-5 7.66602 -5 12.999v5c0 14 -2.66699 27.5 -8 40.5s-12.5 24.167 -21.5 33.5s-19.833 16.833 -32.5 22.5s-26.334 8.5 -41.001 8.5s-28.167 -2.83301 -40.5 -8.5s-23 -13.167 -32 -22.5
s-16.167 -20.5 -21.5 -33.5s-8 -26.5 -8 -40.5v-221c0 -14 2.66699 -27.5 8 -40.5s12.5 -24.167 21.5 -33.5s19.667 -16.833 32 -22.5s25.833 -8.5 40.5 -8.5s28.334 2.83301 41.001 8.5s23.5 13.167 32.5 22.5s16.167 20.5 21.5 33.5s8 26.5 8 40.5v10
c0 5.33301 1.66699 9.66602 5 12.999s7.66602 5 12.999 5h39c5.33301 0 9.66602 -1.66699 12.999 -5s5 -7.66602 5 -12.999v-10c0 -22.667 -4.33301 -44.334 -13 -65.001s-20.834 -38.834 -36.501 -54.501s-34.334 -28.334 -56.001 -38.001s-45.5 -14.5 -71.5 -14.5l-11 -37
c6.66699 2.66699 11.5 4.33398 14.5 5.00098s7.83301 1 14.5 1s14.834 -1.5 24.501 -4.5s18.834 -7.83301 27.501 -14.5s16 -15.5 22 -26.5s9 -24.5 9 -40.5c0 -10 -1.66699 -20.5 -5 -31.5s-9 -21.167 -17 -30.5s-18.5 -17 -31.5 -23s-28.833 -9 -47.5 -9
c-12 0 -24.667 2.66699 -38 8s-24.666 11.666 -33.999 18.999c-2.66699 1.33301 -5 3.33301 -7 6s-3 5 -3 7c0 1.33301 0.166992 3.16602 0.5 5.49902s1.83301 4.83301 4.5 7.5l13 13c4.66699 4.66699 8.66699 7 12 7c2 0 5 -1.33301 9 -4
c15.333 -11.333 30.666 -17 45.999 -17c12.667 0 21.667 4.33301 27 13s8 18.334 8 29.001c0 17.333 -4.33301 28.5 -13 33.5s-16.667 7.5 -24 7.5c-3.33301 0 -6 -0.333008 -8 -1c-7.33301 -2.66699 -12 -5.5 -14 -8.5s-6 -4.5 -12 -4.5c-2 0 -5.66699 0.666992 -11 2
l-15 4c-6.66699 2 -10 6.33301 -10 13v2c0 1.33301 0.333008 2.66602 1 3.99902l21 71c-19.333 4.66699 -37.166 12.334 -53.499 23.001s-30.166 23.334 -41.499 38.001s-20.166 31 -26.499 49s-9.5 36.667 -9.5 56v221z" />
    <glyph glyph-name="egrave" unicode="&#xe8;" horiz-adv-x="446" 
d="M333 314l0.00390625 64c0 14 -2.83301 27.5 -8.5 40.5s-13.334 24.167 -23.001 33.5s-20.834 16.833 -33.501 22.5s-26.334 8.5 -41.001 8.5c-15.333 0 -29.333 -2.83301 -42 -8.5s-23.834 -13.167 -33.501 -22.5s-17.167 -20.5 -22.5 -33.5s-8 -26.5 -8 -40.5v-64h212z
M121.004 252l-0.000976562 -95.002c0 -14 2.66699 -27.5 8 -40.5s12.833 -24.167 22.5 -33.5s20.834 -16.833 33.501 -22.5s26.667 -8.5 42 -8.5c14 0 27.167 2.5 39.5 7.5s23.333 12 33 21s17.334 19.333 23.001 31s8.5 24.167 8.5 37.5v8
c0 5.33301 1.66699 9.66602 5 12.999s7.66602 5 12.999 5h39c5.33301 0 9.66602 -1.66699 12.999 -5s5 -7.66602 5 -12.999v-8c0 -22 -4.66699 -43 -14 -63s-22 -37.5 -38 -52.5s-35 -26.833 -57 -35.5s-45.333 -13 -70 -13c-26 0 -49.833 4.66699 -71.5 14
s-40.5 22 -56.5 38s-28.5 34.333 -37.5 55s-13.5 42.334 -13.5 65.001v221c0 22.667 4.5 44.334 13.5 65.001s21.5 39 37.5 55s34.833 28.667 56.5 38s45.5 14 71.5 14s49.833 -4.66699 71.5 -14s40.5 -22 56.5 -38s28.5 -34.333 37.5 -55s13.5 -42.334 13.5 -65.001v-108
c0 -5.33301 -1.66699 -9.66602 -5 -12.999s-7.66602 -5 -12.999 -5h-267zM144.003 700.998c-1.33301 2.66699 -2.00195 4.66602 -2.00195 5.99902c0 4 1.66699 7.5 5 10.5s7.33301 4.5 12 4.5h49c6 0 11.333 -2.16699 16 -6.5s8.33398 -9.16602 11.001 -14.499l31 -70
c2 -3.33301 3 -7 3 -11c0 -10.667 -6 -16 -18 -16h-24c-7.33301 0 -12.666 1.16699 -15.999 3.5s-7.33301 6.5 -12 12.5z" />
    <glyph glyph-name="eacute" unicode="&#xe9;" horiz-adv-x="446" 
d="M333 314l0.00390625 64c0 14 -2.83301 27.5 -8.5 40.5s-13.334 24.167 -23.001 33.5s-20.834 16.833 -33.501 22.5s-26.334 8.5 -41.001 8.5c-15.333 0 -29.333 -2.83301 -42 -8.5s-23.834 -13.167 -33.501 -22.5s-17.167 -20.5 -22.5 -33.5s-8 -26.5 -8 -40.5v-64h212z
M121.004 252l-0.000976562 -95.002c0 -14 2.66699 -27.5 8 -40.5s12.833 -24.167 22.5 -33.5s20.834 -16.833 33.501 -22.5s26.667 -8.5 42 -8.5c14 0 27.167 2.5 39.5 7.5s23.333 12 33 21s17.334 19.333 23.001 31s8.5 24.167 8.5 37.5v8
c0 5.33301 1.66699 9.66602 5 12.999s7.66602 5 12.999 5h39c5.33301 0 9.66602 -1.66699 12.999 -5s5 -7.66602 5 -12.999v-8c0 -22 -4.66699 -43 -14 -63s-22 -37.5 -38 -52.5s-35 -26.833 -57 -35.5s-45.333 -13 -70 -13c-26 0 -49.833 4.66699 -71.5 14
s-40.5 22 -56.5 38s-28.5 34.333 -37.5 55s-13.5 42.334 -13.5 65.001v221c0 22.667 4.5 44.334 13.5 65.001s21.5 39 37.5 55s34.833 28.667 56.5 38s45.5 14 71.5 14s49.833 -4.66699 71.5 -14s40.5 -22 56.5 -38s28.5 -34.333 37.5 -55s13.5 -42.334 13.5 -65.001v-108
c0 -5.33301 -1.66699 -9.66602 -5 -12.999s-7.66602 -5 -12.999 -5h-267zM262.003 620.998c-4.66699 -6 -8.66895 -10.166 -12.002 -12.499s-8.66602 -3.5 -15.999 -3.5h-24c-12 0 -18 5.33301 -18 16c0 4 1 7.66699 3 11l31 70
c2.66699 5.33301 6.33398 10.166 11.001 14.499s10 6.5 16 6.5h49c4.66699 0 8.66699 -1.5 12 -4.5s5 -6.5 5 -10.5c0 -1.33301 -0.666992 -3.33301 -2 -6z" />
    <glyph glyph-name="ecircumflex" unicode="&#xea;" horiz-adv-x="446" 
d="M121 252l-0.000976562 -95.002c0 -14 2.66699 -27.5 8 -40.5s12.833 -24.167 22.5 -33.5s20.834 -16.833 33.501 -22.5s26.667 -8.5 42 -8.5c14 0 27.167 2.5 39.5 7.5s23.333 12 33 21s17.334 19.333 23.001 31s8.5 24.167 8.5 37.5v8
c0 5.33301 1.66699 9.66602 5 12.999s7.66602 5 12.999 5h39c5.33301 0 9.66602 -1.66699 12.999 -5s5 -7.66602 5 -12.999v-8c0 -22 -4.66699 -43 -14 -63s-22 -37.5 -38 -52.5s-35 -26.833 -57 -35.5s-45.333 -13 -70 -13c-26 0 -49.833 4.66699 -71.5 14
s-40.5 22 -56.5 38s-28.5 34.333 -37.5 55s-13.5 42.334 -13.5 65.001v221c0 22.667 4.5 44.334 13.5 65.001s21.5 39 37.5 55s34.833 28.667 56.5 38s45.5 14 71.5 14s49.833 -4.66699 71.5 -14s40.5 -22 56.5 -38s28.5 -34.333 37.5 -55s13.5 -42.334 13.5 -65.001v-108
c0 -5.33301 -1.66699 -9.66602 -5 -12.999s-7.66602 -5 -12.999 -5h-267zM332.999 313.998l0.00390625 64c0 14 -2.83301 27.5 -8.5 40.5s-13.334 24.167 -23.001 33.5s-20.834 16.833 -33.501 22.5s-26.334 8.5 -41.001 8.5c-15.333 0 -29.333 -2.83301 -42 -8.5
s-23.834 -13.167 -33.501 -22.5s-17.167 -20.5 -22.5 -33.5s-8 -26.5 -8 -40.5v-64h212zM250.003 726.998c6.66699 0 11.332 -1.66797 13.999 -5.00098l9 -11l62 -93c2 -3.33301 3 -6.33301 3 -9c0 -4.66699 -4 -7 -12 -7h-42c-5.33301 0 -10.333 3 -15 9l-42 53l-42 -53
c-2.66699 -3.33301 -5 -5.66602 -7 -6.99902s-4.66699 -2 -8 -2h-42c-8 0 -12 2.33301 -12 7c0 2.66699 1 5.66699 3 9l62 93l9 11c2.66699 3.33301 7.33398 5 14.001 5h46z" />
    <glyph glyph-name="edieresis" unicode="&#xeb;" horiz-adv-x="446" 
d="M333 314l0.00390625 64c0 14 -2.83301 27.5 -8.5 40.5s-13.334 24.167 -23.001 33.5s-20.834 16.833 -33.501 22.5s-26.334 8.5 -41.001 8.5c-15.333 0 -29.333 -2.83301 -42 -8.5s-23.834 -13.167 -33.501 -22.5s-17.167 -20.5 -22.5 -33.5s-8 -26.5 -8 -40.5v-64h212z
M121.004 252l-0.000976562 -95.002c0 -14 2.66699 -27.5 8 -40.5s12.833 -24.167 22.5 -33.5s20.834 -16.833 33.501 -22.5s26.667 -8.5 42 -8.5c14 0 27.167 2.5 39.5 7.5s23.333 12 33 21s17.334 19.333 23.001 31s8.5 24.167 8.5 37.5v8
c0 5.33301 1.66699 9.66602 5 12.999s7.66602 5 12.999 5h39c5.33301 0 9.66602 -1.66699 12.999 -5s5 -7.66602 5 -12.999v-8c0 -22 -4.66699 -43 -14 -63s-22 -37.5 -38 -52.5s-35 -26.833 -57 -35.5s-45.333 -13 -70 -13c-26 0 -49.833 4.66699 -71.5 14
s-40.5 22 -56.5 38s-28.5 34.333 -37.5 55s-13.5 42.334 -13.5 65.001v221c0 22.667 4.5 44.334 13.5 65.001s21.5 39 37.5 55s34.833 28.667 56.5 38s45.5 14 71.5 14s49.833 -4.66699 71.5 -14s40.5 -22 56.5 -38s28.5 -34.333 37.5 -55s13.5 -42.334 13.5 -65.001v-108
c0 -5.33301 -1.66699 -9.66602 -5 -12.999s-7.66602 -5 -12.999 -5h-267zM189.003 639.998c0 -5.33301 -1.66699 -9.66602 -5 -12.999s-7.66602 -5 -12.999 -5h-60c-5.33301 0 -9.66602 1.66699 -12.999 5s-5 7.66602 -5 12.999v49c0 5.33301 1.66699 9.66602 5 12.999
s7.66602 5 12.999 5h60c5.33301 0 9.66602 -1.66699 12.999 -5s5 -7.66602 5 -12.999v-49zM348.003 639.998c0 -5.33301 -1.66699 -9.66602 -5 -12.999s-7.66602 -5 -12.999 -5h-60c-5.33301 0 -9.66602 1.66699 -12.999 5s-5 7.66602 -5 12.999v49
c0 5.33301 1.66699 9.66602 5 12.999s7.66602 5 12.999 5h60c5.33301 0 9.66602 -1.66699 12.999 -5s5 -7.66602 5 -12.999v-49z" />
    <glyph glyph-name="igrave" unicode="&#xec;" horiz-adv-x="218" 
d="M83 517c0 5.33301 1.66699 9.66602 5 12.999s7.66602 5 12.999 5h38c5.33301 0 9.66602 -1.66699 12.999 -5s5 -7.66602 5 -12.999v-499c0 -5.33301 -1.66699 -9.66602 -5 -12.999s-7.66602 -5 -12.999 -5h-38c-5.33301 0 -9.66602 1.66699 -12.999 5
s-5 7.66602 -5 12.999v499zM22 701c-1.33301 2.66699 -2.00195 4.66602 -2.00195 5.99902c0 4 1.66699 7.5 5 10.5s7.33301 4.5 12 4.5h49c6 0 11.333 -2.16699 16 -6.5s8.33398 -9.16602 11.001 -14.499l31 -70c2 -3.33301 3 -7 3 -11c0 -10.667 -6 -16 -18 -16h-24
c-7.33301 0 -12.666 1.16699 -15.999 3.5s-7.33301 6.5 -12 12.5z" />
    <glyph glyph-name="iacute" unicode="&#xed;" horiz-adv-x="212" 
d="M61 517c0 5.33301 1.66699 9.66602 5 12.999s7.66602 5 12.999 5h38c5.33301 0 9.66602 -1.66699 12.999 -5s5 -7.66602 5 -12.999v-499c0 -5.33301 -1.66699 -9.66602 -5 -12.999s-7.66602 -5 -12.999 -5h-38c-5.33301 0 -9.66602 1.66699 -12.999 5
s-5 7.66602 -5 12.999v499zM135 621c-4.66699 -6 -8.66895 -10.166 -12.002 -12.499s-8.66602 -3.5 -15.999 -3.5h-24c-12 0 -18 5.33301 -18 16c0 4 1 7.66699 3 11l31 70c2.66699 5.33301 6.33398 10.166 11.001 14.499s10 6.5 16 6.5h49c4.66699 0 8.66699 -1.5 12 -4.5
s5 -6.5 5 -10.5c0 -1.33301 -0.666992 -3.33301 -2 -6z" />
    <glyph glyph-name="icircumflex" unicode="&#xee;" horiz-adv-x="262" 
d="M95 517c0 5.33301 1.66699 9.66602 5 12.999s7.66602 5 12.999 5h38c5.33301 0 9.66602 -1.66699 12.999 -5s5 -7.66602 5 -12.999v-499c0 -5.33301 -1.66699 -9.66602 -5 -12.999s-7.66602 -5 -12.999 -5h-38c-5.33301 0 -9.66602 1.66699 -12.999 5
s-5 7.66602 -5 12.999v499zM154 731c6.66699 0 11.332 -1.66797 13.999 -5.00098l9 -11l62 -93c2 -3.33301 3 -6.33301 3 -9c0 -4.66699 -4 -7 -12 -7h-42c-5.33301 0 -10.333 3 -15 9l-42 53l-42 -53c-2.66699 -3.33301 -5 -5.66602 -7 -6.99902s-4.66699 -2 -8 -2h-42
c-8 0 -12 2.33301 -12 7c0 2.66699 1 5.66699 3 9l62 93l9 11c2.66699 3.33301 7.33398 5 14.001 5h46z" />
    <glyph glyph-name="idieresis" unicode="&#xef;" horiz-adv-x="285" 
d="M111 640c0 -5.33301 -1.66699 -9.66602 -5 -12.999s-7.66602 -5 -12.999 -5h-60c-5.33301 0 -9.66602 1.66699 -12.999 5s-5 7.66602 -5 12.999v49c0 5.33301 1.66699 9.66602 5 12.999s7.66602 5 12.999 5h60c5.33301 0 9.66602 -1.66699 12.999 -5
s5 -7.66602 5 -12.999v-49zM270 640c0 -5.33301 -1.66699 -9.66602 -5 -12.999s-7.66602 -5 -12.999 -5h-60c-5.33301 0 -9.66602 1.66699 -12.999 5s-5 7.66602 -5 12.999v49c0 5.33301 1.66699 9.66602 5 12.999s7.66602 5 12.999 5h60
c5.33301 0 9.66602 -1.66699 12.999 -5s5 -7.66602 5 -12.999v-49zM114 517c0 5.33301 1.66699 9.66602 5 12.999s7.66602 5 12.999 5h38c5.33301 0 9.66602 -1.66699 12.999 -5s5 -7.66602 5 -12.999v-499c0 -5.33301 -1.66699 -9.66602 -5 -12.999s-7.66602 -5 -12.999 -5
h-38c-5.33301 0 -9.66602 1.66699 -12.999 5s-5 7.66602 -5 12.999v499z" />
    <glyph glyph-name="eth" unicode="&#xf0;" horiz-adv-x="524" 
d="M133 172c0 -34 9 -62.5 27 -85.5s44.333 -34.5 79 -34.5s61 11.5 79 34.5s27 51.5 27 85.5v170c0 34 -9 62.5 -27 85.5s-44.333 34.5 -79 34.5s-61 -11.5 -79 -34.5s-27 -51.5 -27 -85.5v-170zM420 483l0.000976562 -311c0 -28.667 -4.5 -54.834 -13.5 -78.501
s-21.5 -44 -37.5 -61s-35.167 -30.333 -57.5 -40s-46.5 -14.5 -72.5 -14.5s-50.167 4.83301 -72.5 14.5s-41.5 23 -57.5 40s-28.5 37.333 -37.5 61s-13.5 49.834 -13.5 78.501v177c0 26.667 4.33301 51.5 13 74.5s20.5 43 35.5 60s32.833 30.167 53.5 39.5s43 14 67 14
c21.333 0 41.666 -3.83301 60.999 -11.5s38.333 -20.167 57 -37.5v72c0 34 -9 62 -27 84s-44.333 33 -79 33c-5.33301 0 -9.66602 1.66699 -12.999 5s-5 7.66602 -5 12.999v42c0 5.33301 1.66699 9.66602 5 12.999s7.66602 5 12.999 5c26 0 50.167 -5.16699 72.5 -15.5
s41.5 -24.5 57.5 -42.5s28.5 -39.167 37.5 -63.5s13.5 -50.5 13.5 -78.5h36c5.33301 0 9.66602 -1.66699 12.999 -5s5 -7.66602 5 -12.999v-36c0 -5.33301 -1.66699 -9.66602 -5 -12.999s-7.66602 -5 -12.999 -5h-36z" />
    <glyph glyph-name="ntilde" unicode="&#xf1;" horiz-adv-x="452" 
d="M131 18c0 -5.33301 -1.66992 -9.66504 -5.00293 -12.998s-7.66602 -5 -12.999 -5h-38c-5.33301 0 -9.66602 1.66699 -12.999 5s-5 7.66602 -5 12.999v499c0 5.33301 1.66699 9.66602 5 12.999s7.66602 5 12.999 5h38c5.33301 0 9.66602 -1.66699 12.999 -5
s5 -7.66602 5 -12.999v-47c11.333 22 27.833 41 49.5 57s49.167 24 82.5 24c16.667 0 33.334 -3.66699 50.001 -11s31.5 -18 44.5 -32s23.5 -31.5 31.5 -52.5s12 -45.167 12 -72.5v-365c0 -5.33301 -1.66699 -9.66602 -5 -12.999s-7.66602 -5 -12.999 -5h-39
c-5.33301 0 -9.66602 1.66699 -12.999 5s-5 7.66602 -5 12.999v342c0 14 -1.16699 28.167 -3.5 42.5s-7 27.5 -14 39.5s-16.667 21.833 -29 29.5s-28.5 11.5 -48.5 11.5c-20.667 0 -37.5 -4.33301 -50.5 -13s-23.167 -19.334 -30.5 -32.001s-12.333 -26.167 -15 -40.5
s-4 -26.833 -4 -37.5v-342zM240.997 634.001c-6.66699 3.33301 -13.668 6.50293 -21.001 9.50293s-16.333 4.5 -27 4.5c-11.333 0 -21.666 -3 -30.999 -9s-16 -10 -20 -12c-2 -2 -5 -3 -9 -3c-2.66699 0 -5.83398 1.66699 -9.50098 5s-10.834 13.666 -21.501 30.999
c-2.66699 4 -4 7 -4 9c0 3.33301 3.66699 7 11 11c2.66699 2 6.83398 4.66699 12.501 8s12.167 6.66602 19.5 9.99902s15.5 6.16602 24.5 8.49902s18.167 3.5 27.5 3.5c10.667 0 19.834 -1.5 27.501 -4.5s15.167 -6.16699 22.5 -9.5s14.833 -6.5 22.5 -9.5
s16.834 -4.5 27.501 -4.5s20.834 3.16699 30.501 9.5l20.5 13.5c1.33301 0.666992 2.83301 1.33398 4.5 2.00098s3.16699 1 4.5 1c2.66699 0 5.66699 -1.83301 9 -5.5s10.666 -13.834 21.999 -30.501c2 -2.66699 3 -5.66699 3 -9c0 -2.66699 -0.833008 -4.5 -2.5 -5.5
s-4.16699 -3.16699 -7.5 -6.5c-2 -2 -5.83301 -4.66699 -11.5 -8s-12.334 -6.83301 -20.001 -10.5s-16 -6.66699 -25 -9s-18.167 -3.5 -27.5 -3.5c-11.333 0 -21 1.5 -29 4.5s-15.667 6.16699 -23 9.5z" />
    <glyph glyph-name="ograve" unicode="&#xf2;" horiz-adv-x="454" 
d="M227 -15c-26 0 -49.833 4.66699 -71.5 14s-40.5 22 -56.5 38s-28.5 34.333 -37.5 55s-13.5 42.334 -13.5 65.001v221c0 22.667 4.5 44.334 13.5 65.001s21.5 39 37.5 55s34.833 28.667 56.5 38s45.5 14 71.5 14s49.833 -4.66699 71.5 -14s40.5 -22 56.5 -38
s28.5 -34.333 37.5 -55s13.5 -42.334 13.5 -65.001v-221c0 -22.667 -4.5 -44.334 -13.5 -65.001s-21.5 -39 -37.5 -55s-34.833 -28.667 -56.5 -38s-45.5 -14 -71.5 -14zM227 483c-14.667 0 -28.334 -2.83301 -41.001 -8.5s-23.667 -13.167 -33 -22.5
s-16.666 -20.5 -21.999 -33.5s-8 -26.5 -8 -40.5v-221c0 -14 2.66699 -27.5 8 -40.5s12.666 -24.167 21.999 -33.5s20.333 -16.833 33 -22.5s26.334 -8.5 41.001 -8.5s28.334 2.83301 41.001 8.5s23.667 13.167 33 22.5s16.666 20.5 21.999 33.5s8 26.5 8 40.5v221
c0 14 -2.66699 27.5 -8 40.5s-12.666 24.167 -21.999 33.5s-20.333 16.833 -33 22.5s-26.334 8.5 -41.001 8.5zM156 702c-1.33301 2.66699 -2.00195 4.66602 -2.00195 5.99902c0 4 1.66699 7.5 5 10.5s7.33301 4.5 12 4.5h49c6 0 11.333 -2.16699 16 -6.5
s8.33398 -9.16602 11.001 -14.499l31 -70c2 -3.33301 3 -7 3 -11c0 -10.667 -6 -16 -18 -16h-24c-7.33301 0 -12.666 1.16699 -15.999 3.5s-7.33301 6.5 -12 12.5z" />
    <glyph glyph-name="oacute" unicode="&#xf3;" horiz-adv-x="454" 
d="M227 -15c-26 0 -49.833 4.66699 -71.5 14s-40.5 22 -56.5 38s-28.5 34.333 -37.5 55s-13.5 42.334 -13.5 65.001v221c0 22.667 4.5 44.334 13.5 65.001s21.5 39 37.5 55s34.833 28.667 56.5 38s45.5 14 71.5 14s49.833 -4.66699 71.5 -14s40.5 -22 56.5 -38
s28.5 -34.333 37.5 -55s13.5 -42.334 13.5 -65.001v-221c0 -22.667 -4.5 -44.334 -13.5 -65.001s-21.5 -39 -37.5 -55s-34.833 -28.667 -56.5 -38s-45.5 -14 -71.5 -14zM227 483c-14.667 0 -28.334 -2.83301 -41.001 -8.5s-23.667 -13.167 -33 -22.5
s-16.666 -20.5 -21.999 -33.5s-8 -26.5 -8 -40.5v-221c0 -14 2.66699 -27.5 8 -40.5s12.666 -24.167 21.999 -33.5s20.333 -16.833 33 -22.5s26.334 -8.5 41.001 -8.5s28.334 2.83301 41.001 8.5s23.667 13.167 33 22.5s16.666 20.5 21.999 33.5s8 26.5 8 40.5v221
c0 14 -2.66699 27.5 -8 40.5s-12.666 24.167 -21.999 33.5s-20.333 16.833 -33 22.5s-26.334 8.5 -41.001 8.5zM265 623c-4.66699 -6 -8.66895 -10.166 -12.002 -12.499s-8.66602 -3.5 -15.999 -3.5h-24c-12 0 -18 5.33301 -18 16c0 4 1 7.66699 3 11l31 70
c2.66699 5.33301 6.33398 10.166 11.001 14.499s10 6.5 16 6.5h49c4.66699 0 8.66699 -1.5 12 -4.5s5 -6.5 5 -10.5c0 -1.33301 -0.666992 -3.33301 -2 -6z" />
    <glyph glyph-name="ocircumflex" unicode="&#xf4;" horiz-adv-x="454" 
d="M227 -15c-26 0 -49.833 4.66699 -71.5 14s-40.5 22 -56.5 38s-28.5 34.333 -37.5 55s-13.5 42.334 -13.5 65.001v221c0 22.667 4.5 44.334 13.5 65.001s21.5 39 37.5 55s34.833 28.667 56.5 38s45.5 14 71.5 14s49.833 -4.66699 71.5 -14s40.5 -22 56.5 -38
s28.5 -34.333 37.5 -55s13.5 -42.334 13.5 -65.001v-221c0 -22.667 -4.5 -44.334 -13.5 -65.001s-21.5 -39 -37.5 -55s-34.833 -28.667 -56.5 -38s-45.5 -14 -71.5 -14zM227 483c-14.667 0 -28.334 -2.83301 -41.001 -8.5s-23.667 -13.167 -33 -22.5
s-16.666 -20.5 -21.999 -33.5s-8 -26.5 -8 -40.5v-221c0 -14 2.66699 -27.5 8 -40.5s12.666 -24.167 21.999 -33.5s20.333 -16.833 33 -22.5s26.334 -8.5 41.001 -8.5s28.334 2.83301 41.001 8.5s23.667 13.167 33 22.5s16.666 20.5 21.999 33.5s8 26.5 8 40.5v221
c0 14 -2.66699 27.5 -8 40.5s-12.666 24.167 -21.999 33.5s-20.333 16.833 -33 22.5s-26.334 8.5 -41.001 8.5zM250 727c6.66699 0 11.332 -1.66797 13.999 -5.00098l9 -11l62 -93c2 -3.33301 3 -6.33301 3 -9c0 -4.66699 -4 -7 -12 -7h-42c-5.33301 0 -10.333 3 -15 9
l-42 53l-42 -53c-2.66699 -3.33301 -5 -5.66602 -7 -6.99902s-4.66699 -2 -8 -2h-42c-8 0 -12 2.33301 -12 7c0 2.66699 1 5.66699 3 9l62 93l9 11c2.66699 3.33301 7.33398 5 14.001 5h46z" />
    <glyph glyph-name="otilde" unicode="&#xf5;" horiz-adv-x="454" 
d="M227 -15c-26 0 -49.833 4.66699 -71.5 14s-40.5 22 -56.5 38s-28.5 34.333 -37.5 55s-13.5 42.334 -13.5 65.001v221c0 22.667 4.5 44.334 13.5 65.001s21.5 39 37.5 55s34.833 28.667 56.5 38s45.5 14 71.5 14s49.833 -4.66699 71.5 -14s40.5 -22 56.5 -38
s28.5 -34.333 37.5 -55s13.5 -42.334 13.5 -65.001v-221c0 -22.667 -4.5 -44.334 -13.5 -65.001s-21.5 -39 -37.5 -55s-34.833 -28.667 -56.5 -38s-45.5 -14 -71.5 -14zM227 483c-14.667 0 -28.334 -2.83301 -41.001 -8.5s-23.667 -13.167 -33 -22.5
s-16.666 -20.5 -21.999 -33.5s-8 -26.5 -8 -40.5v-221c0 -14 2.66699 -27.5 8 -40.5s12.666 -24.167 21.999 -33.5s20.333 -16.833 33 -22.5s26.334 -8.5 41.001 -8.5s28.334 2.83301 41.001 8.5s23.667 13.167 33 22.5s16.666 20.5 21.999 33.5s8 26.5 8 40.5v221
c0 14 -2.66699 27.5 -8 40.5s-12.666 24.167 -21.999 33.5s-20.333 16.833 -33 22.5s-26.334 8.5 -41.001 8.5zM226 635c-6.66699 3.33301 -13.668 6.50293 -21.001 9.50293s-16.333 4.5 -27 4.5c-11.333 0 -21.666 -3 -30.999 -9s-16 -10 -20 -12c-2 -2 -5 -3 -9 -3
c-2.66699 0 -5.83398 1.66699 -9.50098 5s-10.834 13.666 -21.501 30.999c-2.66699 4 -4 7 -4 9c0 3.33301 3.66699 7 11 11c2.66699 2 6.83398 4.66699 12.501 8s12.167 6.66602 19.5 9.99902s15.5 6.16602 24.5 8.49902s18.167 3.5 27.5 3.5
c10.667 0 19.834 -1.5 27.501 -4.5s15.167 -6.16699 22.5 -9.5s14.833 -6.5 22.5 -9.5s16.834 -4.5 27.501 -4.5s20.834 3.16699 30.501 9.5l20.5 13.5c1.33301 0.666992 2.83301 1.33398 4.5 2.00098s3.16699 1 4.5 1c2.66699 0 5.66699 -1.83301 9 -5.5
s10.666 -13.834 21.999 -30.501c2 -2.66699 3 -5.66699 3 -9c0 -2.66699 -0.833008 -4.5 -2.5 -5.5s-4.16699 -3.16699 -7.5 -6.5c-2 -2 -5.83301 -4.66699 -11.5 -8s-12.334 -6.83301 -20.001 -10.5s-16 -6.66699 -25 -9s-18.167 -3.5 -27.5 -3.5
c-11.333 0 -21 1.5 -29 4.5s-15.667 6.16699 -23 9.5z" />
    <glyph glyph-name="odieresis" unicode="&#xf6;" horiz-adv-x="454" 
d="M227 -15c-26 0 -49.833 4.66699 -71.5 14s-40.5 22 -56.5 38s-28.5 34.333 -37.5 55s-13.5 42.334 -13.5 65.001v221c0 22.667 4.5 44.334 13.5 65.001s21.5 39 37.5 55s34.833 28.667 56.5 38s45.5 14 71.5 14s49.833 -4.66699 71.5 -14s40.5 -22 56.5 -38
s28.5 -34.333 37.5 -55s13.5 -42.334 13.5 -65.001v-221c0 -22.667 -4.5 -44.334 -13.5 -65.001s-21.5 -39 -37.5 -55s-34.833 -28.667 -56.5 -38s-45.5 -14 -71.5 -14zM227 483c-14.667 0 -28.334 -2.83301 -41.001 -8.5s-23.667 -13.167 -33 -22.5
s-16.666 -20.5 -21.999 -33.5s-8 -26.5 -8 -40.5v-221c0 -14 2.66699 -27.5 8 -40.5s12.666 -24.167 21.999 -33.5s20.333 -16.833 33 -22.5s26.334 -8.5 41.001 -8.5s28.334 2.83301 41.001 8.5s23.667 13.167 33 22.5s16.666 20.5 21.999 33.5s8 26.5 8 40.5v221
c0 14 -2.66699 27.5 -8 40.5s-12.666 24.167 -21.999 33.5s-20.333 16.833 -33 22.5s-26.334 8.5 -41.001 8.5zM196 642c0 -5.33301 -1.66699 -9.66602 -5 -12.999s-7.66602 -5 -12.999 -5h-60c-5.33301 0 -9.66602 1.66699 -12.999 5s-5 7.66602 -5 12.999v49
c0 5.33301 1.66699 9.66602 5 12.999s7.66602 5 12.999 5h60c5.33301 0 9.66602 -1.66699 12.999 -5s5 -7.66602 5 -12.999v-49zM355 642c0 -5.33301 -1.66699 -9.66602 -5 -12.999s-7.66602 -5 -12.999 -5h-60c-5.33301 0 -9.66602 1.66699 -12.999 5s-5 7.66602 -5 12.999
v49c0 5.33301 1.66699 9.66602 5 12.999s7.66602 5 12.999 5h60c5.33301 0 9.66602 -1.66699 12.999 -5s5 -7.66602 5 -12.999v-49z" />
    <glyph glyph-name="divide" unicode="&#xf7;" 
d="M468 307c5.33301 0 9.66602 -1.66699 12.999 -5s5 -7.66602 5 -12.999v-36c0 -5.33301 -1.66699 -9.66602 -5 -12.999s-7.66602 -5 -12.999 -5h-363c-5.33301 0 -9.66602 1.66699 -12.999 5s-5 7.66602 -5 12.999v36c0 5.33301 1.66699 9.66602 5 12.999
s7.66602 5 12.999 5h363zM329 433c0 -5.33301 -1.66699 -9.66602 -5 -12.999s-7.66602 -5 -12.999 -5h-52c-5.33301 0 -9.66602 1.66699 -12.999 5s-5 7.66602 -5 12.999v43c0 5.33301 1.66699 9.66602 5 12.999s7.66602 5 12.999 5h52
c5.33301 0 9.66602 -1.66699 12.999 -5s5 -7.66602 5 -12.999v-43zM329 61c0 -5.33301 -1.66699 -9.66602 -5 -12.999s-7.66602 -5 -12.999 -5h-52c-5.33301 0 -9.66602 1.66699 -12.999 5s-5 7.66602 -5 12.999v43c0 5.33301 1.66699 9.66602 5 12.999s7.66602 5 12.999 5
h52c5.33301 0 9.66602 -1.66699 12.999 -5s5 -7.66602 5 -12.999v-43z" />
    <glyph glyph-name="oslash" unicode="&#xf8;" horiz-adv-x="444" 
d="M104 -5c-2 -6.66699 -6.66504 -9.99902 -13.998 -9.99902c-4 0 -7.33301 1 -10 3l-27 15c-6 4 -9 9 -9 15c0 4.66699 0.666992 8 2 10l24 42c-16.667 27.333 -25 56.333 -25 87v221c0 22.667 4.5 44.334 13.5 65.001s21.5 39 37.5 55s34.833 28.667 56.5 38
s45.5 14 71.5 14c37.333 0 70.666 -10 99.999 -30l18 31c1.33301 3.33301 3.5 5.66602 6.5 6.99902s6.16699 2 9.5 2c4 0 7 -0.666992 9 -2l27 -16c5.33301 -3.33301 8 -8 8 -14c0 -4.66699 -0.666992 -8 -2 -10l-26 -46c9.33301 -14 16.5 -28.833 21.5 -44.5
s7.5 -32.167 7.5 -49.5v-221c0 -22.667 -4.5 -44.334 -13.5 -65.001s-21.5 -39 -37.5 -55s-34.833 -28.667 -56.5 -38s-45.5 -14 -71.5 -14c-20.667 0 -39.834 3 -57.501 9s-34.167 14.333 -49.5 25zM224.002 52.001c14.667 0 28.335 2.83301 41.002 8.5
s23.667 13.167 33 22.5s16.666 20.5 21.999 33.5s8 26.5 8 40.5v221c0 5.33301 -0.333008 9 -1 11l-175 -308c9.33301 -9.33301 20.166 -16.5 32.499 -21.5s25.5 -7.5 39.5 -7.5zM224.003 483.001c-14.667 0 -28.334 -2.83301 -41.001 -8.5s-23.667 -13.167 -33 -22.5
s-16.666 -20.5 -21.999 -33.5s-8 -26.5 -8 -40.5v-220l170 301c-19.333 16 -41.333 24 -66 24z" />
    <glyph glyph-name="ugrave" unicode="&#xf9;" horiz-adv-x="452" 
d="M321 517c0 5.33301 1.66699 9.66504 5 12.998s7.66602 5 12.999 5h38c5.33301 0 9.66602 -1.66699 12.999 -5s5 -7.66602 5 -12.999v-499c0 -5.33301 -1.66699 -9.66602 -5 -12.999s-7.66602 -5 -12.999 -5h-38c-5.33301 0 -9.66602 1.66699 -12.999 5
s-5 7.66602 -5 12.999v47c-11.333 -22 -26 -41 -44 -57s-42.667 -24 -74 -24c-19.333 0 -38.166 3.66699 -56.499 11s-34.5 18 -48.5 32s-25.333 31.5 -34 52.5s-13 45.167 -13 72.5v365c0 5.33301 1.66699 9.66602 5 12.999s7.66602 5 12.999 5h39
c5.33301 0 9.66602 -1.66699 12.999 -5s5 -7.66602 5 -12.999v-342c0 -14 1.16699 -28.167 3.5 -42.5s6.83301 -27.5 13.5 -39.5s16.334 -21.833 29.001 -29.5s29 -11.5 49 -11.5c20.667 0 37.5 4.33301 50.5 13s23.167 19.334 30.5 32.001s12.333 26.167 15 40.5
s4 26.833 4 37.5v342zM139 703.999c-1.33301 2.66699 -2.00195 4.66602 -2.00195 5.99902c0 4 1.66699 7.5 5 10.5s7.33301 4.5 12 4.5h49c6 0 11.333 -2.16699 16 -6.5s8.33398 -9.16602 11.001 -14.499l31 -70c2 -3.33301 3 -7 3 -11c0 -10.667 -6 -16 -18 -16h-24
c-7.33301 0 -12.666 1.16699 -15.999 3.5s-7.33301 6.5 -12 12.5z" />
    <glyph glyph-name="uacute" unicode="&#xfa;" horiz-adv-x="452" 
d="M321 517c0 5.33301 1.66699 9.66504 5 12.998s7.66602 5 12.999 5h38c5.33301 0 9.66602 -1.66699 12.999 -5s5 -7.66602 5 -12.999v-499c0 -5.33301 -1.66699 -9.66602 -5 -12.999s-7.66602 -5 -12.999 -5h-38c-5.33301 0 -9.66602 1.66699 -12.999 5
s-5 7.66602 -5 12.999v47c-11.333 -22 -26 -41 -44 -57s-42.667 -24 -74 -24c-19.333 0 -38.166 3.66699 -56.499 11s-34.5 18 -48.5 32s-25.333 31.5 -34 52.5s-13 45.167 -13 72.5v365c0 5.33301 1.66699 9.66602 5 12.999s7.66602 5 12.999 5h39
c5.33301 0 9.66602 -1.66699 12.999 -5s5 -7.66602 5 -12.999v-342c0 -14 1.16699 -28.167 3.5 -42.5s6.83301 -27.5 13.5 -39.5s16.334 -21.833 29.001 -29.5s29 -11.5 49 -11.5c20.667 0 37.5 4.33301 50.5 13s23.167 19.334 30.5 32.001s12.333 26.167 15 40.5
s4 26.833 4 37.5v342zM253 622.999c-4.66699 -6 -8.66895 -10.166 -12.002 -12.499s-8.66602 -3.5 -15.999 -3.5h-24c-12 0 -18 5.33301 -18 16c0 4 1 7.66699 3 11l31 70c2.66699 5.33301 6.33398 10.166 11.001 14.499s10 6.5 16 6.5h49c4.66699 0 8.66699 -1.5 12 -4.5
s5 -6.5 5 -10.5c0 -1.33301 -0.666992 -3.33301 -2 -6z" />
    <glyph glyph-name="ucircumflex" unicode="&#xfb;" horiz-adv-x="452" 
d="M321 517c0 5.33301 1.66699 9.66504 5 12.998s7.66602 5 12.999 5h38c5.33301 0 9.66602 -1.66699 12.999 -5s5 -7.66602 5 -12.999v-499c0 -5.33301 -1.66699 -9.66602 -5 -12.999s-7.66602 -5 -12.999 -5h-38c-5.33301 0 -9.66602 1.66699 -12.999 5
s-5 7.66602 -5 12.999v47c-11.333 -22 -26 -41 -44 -57s-42.667 -24 -74 -24c-19.333 0 -38.166 3.66699 -56.499 11s-34.5 18 -48.5 32s-25.333 31.5 -34 52.5s-13 45.167 -13 72.5v365c0 5.33301 1.66699 9.66602 5 12.999s7.66602 5 12.999 5h39
c5.33301 0 9.66602 -1.66699 12.999 -5s5 -7.66602 5 -12.999v-342c0 -14 1.16699 -28.167 3.5 -42.5s6.83301 -27.5 13.5 -39.5s16.334 -21.833 29.001 -29.5s29 -11.5 49 -11.5c20.667 0 37.5 4.33301 50.5 13s23.167 19.334 30.5 32.001s12.333 26.167 15 40.5
s4 26.833 4 37.5v342zM245 731.999c6.66699 0 11.332 -1.66797 13.999 -5.00098l9 -11l62 -93c2 -3.33301 3 -6.33301 3 -9c0 -4.66699 -4 -7 -12 -7h-42c-5.33301 0 -10.333 3 -15 9l-42 53l-42 -53c-2.66699 -3.33301 -5 -5.66602 -7 -6.99902s-4.66699 -2 -8 -2h-42
c-8 0 -12 2.33301 -12 7c0 2.66699 1 5.66699 3 9l62 93l9 11c2.66699 3.33301 7.33398 5 14.001 5h46z" />
    <glyph glyph-name="udieresis" unicode="&#xfc;" horiz-adv-x="452" 
d="M321 517c0 5.33301 1.66699 9.66504 5 12.998s7.66602 5 12.999 5h38c5.33301 0 9.66602 -1.66699 12.999 -5s5 -7.66602 5 -12.999v-499c0 -5.33301 -1.66699 -9.66602 -5 -12.999s-7.66602 -5 -12.999 -5h-38c-5.33301 0 -9.66602 1.66699 -12.999 5
s-5 7.66602 -5 12.999v47c-11.333 -22 -26 -41 -44 -57s-42.667 -24 -74 -24c-19.333 0 -38.166 3.66699 -56.499 11s-34.5 18 -48.5 32s-25.333 31.5 -34 52.5s-13 45.167 -13 72.5v365c0 5.33301 1.66699 9.66602 5 12.999s7.66602 5 12.999 5h39
c5.33301 0 9.66602 -1.66699 12.999 -5s5 -7.66602 5 -12.999v-342c0 -14 1.16699 -28.167 3.5 -42.5s6.83301 -27.5 13.5 -39.5s16.334 -21.833 29.001 -29.5s29 -11.5 49 -11.5c20.667 0 37.5 4.33301 50.5 13s23.167 19.334 30.5 32.001s12.333 26.167 15 40.5
s4 26.833 4 37.5v342zM195 639.999c0 -5.33301 -1.66699 -9.66602 -5 -12.999s-7.66602 -5 -12.999 -5h-60c-5.33301 0 -9.66602 1.66699 -12.999 5s-5 7.66602 -5 12.999v49c0 5.33301 1.66699 9.66602 5 12.999s7.66602 5 12.999 5h60
c5.33301 0 9.66602 -1.66699 12.999 -5s5 -7.66602 5 -12.999v-49zM354 639.999c0 -5.33301 -1.66699 -9.66602 -5 -12.999s-7.66602 -5 -12.999 -5h-60c-5.33301 0 -9.66602 1.66699 -12.999 5s-5 7.66602 -5 12.999v49c0 5.33301 1.66699 9.66602 5 12.999
s7.66602 5 12.999 5h60c5.33301 0 9.66602 -1.66699 12.999 -5s5 -7.66602 5 -12.999v-49z" />
    <glyph glyph-name="yacute" unicode="&#xfd;" horiz-adv-x="461" 
d="M104 -184c-5.33301 0 -9.66797 1.67188 -13.001 5.00488s-5 7.66602 -5 12.999v33c0 5.33301 1.66699 9.66602 5 12.999s7.66602 5 12.999 5h45c19.333 0 33 3.16699 41 9.5s12 15.166 12 26.499c0 5.33301 -0.666992 11.166 -2 17.499s-3 13.166 -5 20.499l-168 554
c-0.666992 2 -1 4 -1 6c0 10.667 5 16 15 16h42c10 0 16.333 -5.33301 19 -16l135 -470l123 470c2.66699 10.667 9 16 19 16h41c10 0 15 -5.33301 15 -16c0 -2 -0.333008 -4 -1 -6l-166 -607c-5.33301 -20 -12.166 -36 -20.499 -48s-17.833 -21.167 -28.5 -27.5
s-22.167 -10.333 -34.5 -12s-25.166 -2.5 -38.499 -2.5h-42zM245.998 621.005c-4.66699 -6 -8.66895 -10.166 -12.002 -12.499s-8.66602 -3.5 -15.999 -3.5h-24c-12 0 -18 5.33301 -18 16c0 4 1 7.66699 3 11l31 70c2.66699 5.33301 6.33398 10.166 11.001 14.499
s10 6.5 16 6.5h49c4.66699 0 8.66699 -1.5 12 -4.5s5 -6.5 5 -10.5c0 -1.33301 -0.666992 -3.33301 -2 -6z" />
    <glyph glyph-name="thorn" unicode="&#xfe;" horiz-adv-x="453" 
d="M328 381c0 30 -9 54.502 -27 73.502s-42 28.5 -72 28.5c-14 0 -27 -2.83301 -39 -8.5s-22.167 -13.334 -30.5 -23.001s-14.833 -20.667 -19.5 -33s-7 -24.833 -7 -37.5v-227c0 -13.333 2.33301 -26 7 -38s11.167 -22.833 19.5 -32.5s18.5 -17.334 30.5 -23.001
s25 -8.5 39 -8.5c30 0 54 9.5 72 28.5s27 43.5 27 73.5v227zM55 691.002c0 5.33301 1.66699 9.66699 5 13s7.66602 5 12.999 5h42c5.33301 0 9.66602 -1.66699 12.999 -5s5 -7.66602 5 -12.999v-215c10 20 25.5 37.333 46.5 52s45.5 22 73.5 22
c17.333 0 34.833 -3.5 52.5 -10.5s33.834 -17.167 48.501 -30.5s26.5 -30 35.5 -50s13.5 -43.333 13.5 -70v-244c0 -26.667 -4.5 -50 -13.5 -70s-20.833 -36.833 -35.5 -50.5s-30.834 -23.834 -48.501 -30.501s-35.167 -10 -52.5 -10c-28 0 -52.5 7.33301 -73.5 22
s-36.5 32 -46.5 52v-224c0 -5.33301 -1.66699 -9.66602 -5 -12.999s-7.66602 -5 -12.999 -5h-42c-5.33301 0 -9.66602 1.66699 -12.999 5s-5 7.66602 -5 12.999v857z" />
    <glyph glyph-name="ydieresis" unicode="&#xff;" horiz-adv-x="461" 
d="M104 -184c-5.33301 0 -9.66797 1.67188 -13.001 5.00488s-5 7.66602 -5 12.999v33c0 5.33301 1.66699 9.66602 5 12.999s7.66602 5 12.999 5h45c19.333 0 33 3.16699 41 9.5s12 15.166 12 26.499c0 5.33301 -0.666992 11.166 -2 17.499s-3 13.166 -5 20.499l-168 554
c-0.666992 2 -1 4 -1 6c0 10.667 5 16 15 16h42c10 0 16.333 -5.33301 19 -16l135 -470l123 470c2.66699 10.667 9 16 19 16h41c10 0 15 -5.33301 15 -16c0 -2 -0.333008 -4 -1 -6l-166 -607c-5.33301 -20 -12.166 -36 -20.499 -48s-17.833 -21.167 -28.5 -27.5
s-22.167 -10.333 -34.5 -12s-25.166 -2.5 -38.499 -2.5h-42zM199.998 640.005c0 -5.33301 -1.66699 -9.66602 -5 -12.999s-7.66602 -5 -12.999 -5h-60c-5.33301 0 -9.66602 1.66699 -12.999 5s-5 7.66602 -5 12.999v49c0 5.33301 1.66699 9.66602 5 12.999
s7.66602 5 12.999 5h60c5.33301 0 9.66602 -1.66699 12.999 -5s5 -7.66602 5 -12.999v-49zM358.998 640.005c0 -5.33301 -1.66699 -9.66602 -5 -12.999s-7.66602 -5 -12.999 -5h-60c-5.33301 0 -9.66602 1.66699 -12.999 5s-5 7.66602 -5 12.999v49
c0 5.33301 1.66699 9.66602 5 12.999s7.66602 5 12.999 5h60c5.33301 0 9.66602 -1.66699 12.999 -5s5 -7.66602 5 -12.999v-49z" />
    <glyph glyph-name="dotlessi" unicode="&#x131;" horiz-adv-x="196" 
d="M61 517c0 5.33301 1.66699 9.66602 5 12.999s7.66602 5 12.999 5h38c5.33301 0 9.66602 -1.66699 12.999 -5s5 -7.66602 5 -12.999v-499c0 -5.33301 -1.66699 -9.66602 -5 -12.999s-7.66602 -5 -12.999 -5h-38c-5.33301 0 -9.66602 1.66699 -12.999 5
s-5 7.66602 -5 12.999v499z" />
    <glyph glyph-name="Lslash" unicode="&#x141;" horiz-adv-x="413" 
d="M81 251l-47.999 -56.002c-4 -4.66699 -9.33301 -7 -16 -7c-6 0 -10.667 1.66699 -14 5l-26 22c-5.33301 4 -8 9.33301 -8 16c0 6 1.66699 10.667 5 14l107 125v321c0 5.33301 1.66699 9.66602 5 12.999s7.66602 5 12.999 5h44c5.33301 0 9.66602 -1.66699 12.999 -5
s5 -7.66602 5 -12.999v-232l74 87c4 4.66699 9.33301 7 16 7c6 0 10.667 -1.66699 14 -5l26 -22c5.33301 -5.33301 8 -11 8 -17c0 -5.33301 -1.66699 -9.66602 -5 -12.999l-133 -156v-268h234c5.33301 0 9.66602 -1.66699 12.999 -5s5 -7.66602 5 -12.999v-36
c0 -5.33301 -1.66699 -9.66602 -5 -12.999s-7.66602 -5 -12.999 -5h-296c-5.33301 0 -9.66602 1.66699 -12.999 5s-5 7.66602 -5 12.999v233z" />
    <glyph glyph-name="lslash" unicode="&#x142;" horiz-adv-x="306" 
d="M118 691c0 5.33301 1.66699 9.66602 5 12.999s7.66602 5 12.999 5h38c5.33301 0 9.66602 -1.66699 12.999 -5s5 -7.66602 5 -12.999v-227l73 85c4 4.66699 9.33301 7 16 7c6 0 10.667 -1.66699 14 -5l26 -22c5.33301 -4 8 -9.66699 8 -17
c0 -5.33301 -1.66699 -9.66602 -5 -12.999l-132 -154v-327c0 -5.33301 -1.66699 -9.66602 -5 -12.999s-7.66602 -5 -12.999 -5h-38c-5.33301 0 -9.66602 1.66699 -12.999 5s-5 7.66602 -5 12.999v243l-63 -73c-4 -4.66699 -9.33301 -7 -16 -7c-6 0 -10.667 1.66699 -14 5
l-26 22c-5.33301 4 -8 9.66699 -8 17c0 5.33301 1.66699 9.66602 5 12.999l122 142v311z" />
    <glyph glyph-name="OE" unicode="&#x152;" horiz-adv-x="749" 
d="M250 52c34.667 0 62.334 11 83.001 33s31 51 31 87v363c0 36 -10.333 65.167 -31 87.5s-48.334 33.5 -83.001 33.5s-62.334 -11.167 -83.001 -33.5s-31 -51.5 -31 -87.5v-363c0 -36 10.333 -65 31 -87s48.334 -33 83.001 -33zM446 637l-0.000976562 -221.005h204
c5.33301 0 9.66602 -1.66699 12.999 -5s5 -7.66602 5 -12.999v-36c0 -5.33301 -1.66699 -9.66602 -5 -12.999s-7.66602 -5 -12.999 -5h-204v-272h250c5.33301 0 9.66602 -1.66699 12.999 -5s5 -7.66602 5 -12.999v-36c0 -5.33301 -1.66699 -9.66602 -5 -12.999
s-7.66602 -5 -12.999 -5h-349c-27.333 -14.667 -59.666 -22 -96.999 -22c-27.333 0 -53 4.5 -77 13.5s-44.833 22 -62.5 39s-31.5 37.5 -41.5 61.5s-15 50.667 -15 80v363c0 29.333 5 56 15 80s23.833 44.5 41.5 61.5s38.5 30.167 62.5 39.5s49.667 14 77 14
c17.333 0 33.833 -1.83301 49.5 -5.5s30.167 -8.83398 43.5 -15.501h349c5.33301 0 9.66602 -1.66699 12.999 -5s5 -7.66602 5 -12.999v-36c0 -5.33301 -1.66699 -9.66602 -5 -12.999s-7.66602 -5 -12.999 -5h-246z" />
    <glyph glyph-name="oe" unicode="&#x153;" horiz-adv-x="731" 
d="M618 314l0.00390625 64c0 14 -2.83301 27.5 -8.5 40.5s-13.334 24.167 -23.001 33.5s-20.834 16.833 -33.501 22.5s-26.334 8.5 -41.001 8.5c-15.333 0 -29.333 -2.83301 -42 -8.5s-23.834 -13.167 -33.501 -22.5s-17.167 -20.5 -22.5 -33.5s-8 -26.5 -8 -40.5v-64h212z
M370.004 53c-16 -20.667 -36.334 -37.1689 -61.001 -49.502s-52 -18.5 -82 -18.5c-26 0 -49.833 4.66699 -71.5 14s-40.5 22 -56.5 38s-28.5 34.333 -37.5 55s-13.5 42.334 -13.5 65.001v221c0 22.667 4.5 44.334 13.5 65.001s21.5 39 37.5 55s34.833 28.667 56.5 38
s45.5 14 71.5 14c30 0 57.333 -6.16699 82 -18.5s45 -28.833 61 -49.5c16 20.667 36.167 37.167 60.5 49.5s51.5 18.5 81.5 18.5c26 0 49.833 -4.66699 71.5 -14s40.5 -22 56.5 -38s28.5 -34.333 37.5 -55s13.5 -42.334 13.5 -65.001v-108
c0 -5.33301 -1.66699 -9.66602 -5 -12.999s-7.66602 -5 -12.999 -5h-267v-95c0 -14 2.66699 -27.5 8 -40.5s12.833 -24.167 22.5 -33.5s20.834 -16.833 33.501 -22.5s26.667 -8.5 42 -8.5c14 0 27.167 2.5 39.5 7.5s23.333 12 33 21s17.334 19.333 23.001 31
s8.5 24.167 8.5 37.5v8c0 5.33301 1.66699 9.66602 5 12.999s7.66602 5 12.999 5h39c5.33301 0 9.66602 -1.66699 12.999 -5s5 -7.66602 5 -12.999v-8c0 -22 -4.66699 -43 -14 -63s-22 -37.5 -38 -52.5s-35 -26.833 -57 -35.5s-45.333 -13 -70 -13
c-30 0 -57.167 6.16699 -81.5 18.5s-44.5 28.833 -60.5 49.5zM227.003 482.998c-14.667 0 -28.334 -2.83301 -41.001 -8.5s-23.667 -13.167 -33 -22.5s-16.666 -20.5 -21.999 -33.5s-8 -26.5 -8 -40.5v-221c0 -14 2.66699 -27.5 8 -40.5s12.666 -24.167 21.999 -33.5
s20.333 -16.833 33 -22.5s26.334 -8.5 41.001 -8.5s28.334 2.83301 41.001 8.5s23.667 13.167 33 22.5s16.666 20.5 21.999 33.5s8 26.5 8 40.5v221c0 14 -2.66699 27.5 -8 40.5s-12.666 24.167 -21.999 33.5s-20.333 16.833 -33 22.5s-26.334 8.5 -41.001 8.5z" />
    <glyph glyph-name="Scaron" unicode="&#x160;" horiz-adv-x="466" 
d="M116 175c0 -17.333 2.8291 -33.166 8.49609 -47.499s13.834 -26.833 24.501 -37.5s23 -19 37 -25s29.667 -9 47 -9c18 0 34.167 3 48.5 9s26.5 14.333 36.5 25s17.667 22.667 23 36s8 27.666 8 42.999v18c0 11.333 -1 21.166 -3 29.499s-5.66699 16 -11 23
s-12.5 14 -21.5 21s-20.5 15.167 -34.5 24.5l-157 102c-30 19.333 -51.5 41.333 -64.5 66s-19.5 53 -19.5 85c0 26.667 4.33301 51.667 13 75s21.334 43.666 38.001 60.999s37.334 31 62.001 41s52.667 15 84 15s59.166 -5 83.499 -15s44.833 -23.667 61.5 -41
s29.334 -37.666 38.001 -60.999s13 -48.333 13 -75v-8c0 -5.33301 -1.66699 -9.66602 -5 -12.999s-7.66602 -5 -12.999 -5h-45c-5.33301 0 -9.66602 1.66699 -12.999 5s-5 7.66602 -5 12.999v15c0 30 -9.66699 56 -29 78s-48 33 -86 33c-40 0 -69.5 -11 -88.5 -33
s-28.5 -48 -28.5 -78v-18c0 -22 7.5 -39.667 22.5 -53s34.833 -27.666 59.5 -42.999l146 -92c32 -20.667 54 -43.5 66 -68.5s18 -55.5 18 -91.5c0 -27.333 -4.83301 -53 -14.5 -77s-23.167 -45 -40.5 -63s-38.166 -32.167 -62.499 -42.5s-50.833 -15.5 -79.5 -15.5
c-28 0 -54 5 -78 15s-45 23.333 -63 40s-32 36.167 -42 58.5s-15 45.5 -15 69.5v42c0 5.33301 1.66699 9.66602 5 12.999s7.66602 5 12.999 5h45c5.33301 0 9.66602 -1.66699 12.999 -5s5 -7.66602 5 -12.999v-31zM215.996 762c-5.33301 0 -9.33105 1.83301 -11.998 5.5
s-5.66699 7.5 -9 11.5l-80 108c-1.33301 4 -2 7 -2 9c0 8 4.66699 12 14 12h26c4.66699 0 8.66699 -1.5 12 -4.5s6.66602 -6.83301 9.99902 -11.5l58 -67l58 67c3.33301 4.66699 6.66602 8.5 9.99902 11.5s7.33301 4.5 12 4.5h26c9.33301 0 14 -4 14 -12
c0 -2 -0.666992 -5 -2 -9l-80 -108c-3.33301 -4 -6.33301 -7.83301 -9 -11.5s-6.66699 -5.5 -12 -5.5h-34z" />
    <glyph glyph-name="scaron" unicode="&#x161;" horiz-adv-x="426" 
d="M316 262c20.667 -10.667 37.833 -25.165 51.5 -43.498s20.5 -43.5 20.5 -75.5c0 -20 -3.83301 -39.5 -11.5 -58.5s-18.834 -35.833 -33.501 -50.5s-32.834 -26.5 -54.501 -35.5s-46.5 -13.5 -74.5 -13.5s-53 4.5 -75 13.5s-40.667 21 -56 36s-27 32.667 -35 53
s-12 41.833 -12 64.5v6c0 5.33301 1.66699 9.66602 5 12.999s7.66602 5 12.999 5h36c5.33301 0 9.66602 -1.66699 12.999 -5s5 -7.66602 5 -12.999v-4c0 -32 9.33301 -57 28 -75s44.667 -27 78 -27c18.667 0 34.667 2.66699 48 8s24.333 12.166 33 20.499
s15 17.666 19 27.999s6 20.5 6 30.5c0 14.667 -3.33301 27 -10 37s-19.667 19.667 -39 29l-147 74c-53.333 26.667 -80 67.667 -80 123c0 46 15.333 82.167 46 108.5s70.334 39.5 119.001 39.5c22.667 0 44.334 -3.16699 65.001 -9.5s39 -15.5 55 -27.5s28.833 -27 38.5 -45
s15.167 -38.333 16.5 -61v-10.5c0 -3.66699 -0.666992 -7.16699 -2 -10.5c-1.33301 -4 -3 -8 -5 -12s-5.66699 -6 -11 -6h-34c-5.33301 0 -9.66602 1.66699 -12.999 5s-5 7.66602 -5 12.999v4c0 19.333 -3.33301 35 -10 47s-15 21.5 -25 28.5s-21.167 11.667 -33.5 14
s-24.166 3.5 -35.499 3.5c-12.667 0 -25 -1.5 -37 -4.5s-22.5 -7.5 -31.5 -13.5s-16.333 -13.833 -22 -23.5s-8.5 -21.167 -8.5 -34.5c0 -15.333 3.83301 -28.166 11.5 -38.499s19.5 -19.5 35.5 -27.5zM203.999 600.002c-5.33301 0 -9.33105 1.83301 -11.998 5.5
s-5.66699 7.5 -9 11.5l-80 108c-1.33301 4 -2 7 -2 9c0 8 4.66699 12 14 12h26c4.66699 0 8.66699 -1.5 12 -4.5s6.66602 -6.83301 9.99902 -11.5l58 -67l58 67c3.33301 4.66699 6.66602 8.5 9.99902 11.5s7.33301 4.5 12 4.5h26c9.33301 0 14 -4 14 -12
c0 -2 -0.666992 -5 -2 -9l-80 -108c-3.33301 -4 -6.33301 -7.83301 -9 -11.5s-6.66699 -5.5 -12 -5.5h-34z" />
    <glyph glyph-name="Ydieresis" unicode="&#x178;" horiz-adv-x="520" 
d="M220 331l-187 355c-1.33301 2.66699 -2 5 -2 7c0 10.667 5.66699 16 17 16h41c6 0 10.667 -1.33301 14 -4s7.66602 -9 12.999 -19l144 -265l144 265c5.33301 10 9.66602 16.333 12.999 19s8 4 14 4h41c11.333 0 17 -5.33301 17 -16c0 -2 -0.666992 -4.33301 -2 -7
l-187 -355v-313c0 -5.33301 -1.66699 -9.66602 -5 -12.999s-7.66602 -5 -12.999 -5h-44c-5.33301 0 -9.66602 1.66699 -12.999 5s-5 7.66602 -5 12.999v313zM220 809c0 -5.33301 -1.66699 -9.66602 -5 -12.999s-7.66602 -5 -12.999 -5h-60
c-5.33301 0 -9.66602 1.66699 -12.999 5s-5 7.66602 -5 12.999v49c0 5.33301 1.66699 9.66602 5 12.999s7.66602 5 12.999 5h60c5.33301 0 9.66602 -1.66699 12.999 -5s5 -7.66602 5 -12.999v-49zM379 809c0 -5.33301 -1.66699 -9.66602 -5 -12.999s-7.66602 -5 -12.999 -5
h-60c-5.33301 0 -9.66602 1.66699 -12.999 5s-5 7.66602 -5 12.999v49c0 5.33301 1.66699 9.66602 5 12.999s7.66602 5 12.999 5h60c5.33301 0 9.66602 -1.66699 12.999 -5s5 -7.66602 5 -12.999v-49z" />
    <glyph glyph-name="Zcaron" unicode="&#x17d;" horiz-adv-x="501" 
d="M440 709c5.33301 0 9.66602 -1.66699 12.999 -5s5 -7.66602 5 -12.999v-34c0 -8 -0.166992 -15.167 -0.5 -21.5s-1.83301 -11.5 -4.5 -15.5l-333 -548h328c5.33301 0 9.66602 -1.66699 12.999 -5s5 -7.66602 5 -12.999v-36c0 -5.33301 -1.66699 -9.66602 -5 -12.999
s-7.66602 -5 -12.999 -5h-395c-5.33301 0 -9.66602 1.66699 -12.999 5s-5 7.66602 -5 12.999v34c0 8 0.166992 15.167 0.5 21.5s1.83301 11.5 4.5 15.5l333 548h-296c-5.33301 0 -9.66602 1.66699 -12.999 5s-5 7.66602 -5 12.999v36c0 5.33301 1.66699 9.66602 5 12.999
s7.66602 5 12.999 5h363zM241 766c-5.33301 0 -9.33105 1.83301 -11.998 5.5s-5.66699 7.5 -9 11.5l-80 108c-1.33301 4 -2 7 -2 9c0 8 4.66699 12 14 12h26c4.66699 0 8.66699 -1.5 12 -4.5s6.66602 -6.83301 9.99902 -11.5l58 -67l58 67
c3.33301 4.66699 6.66602 8.5 9.99902 11.5s7.33301 4.5 12 4.5h26c9.33301 0 14 -4 14 -12c0 -2 -0.666992 -5 -2 -9l-80 -108c-3.33301 -4 -6.33301 -7.83301 -9 -11.5s-6.66699 -5.5 -12 -5.5h-34z" />
    <glyph glyph-name="zcaron" unicode="&#x17e;" horiz-adv-x="426" 
d="M370 535c5.33301 0 9.66602 -1.66699 12.999 -5s5 -7.66602 5 -12.999v-30c0 -11.333 -0.333008 -19.333 -1 -24s-3.33398 -9.66699 -8.00098 -15l-264 -379h260c5.33301 0 9.66602 -1.66699 12.999 -5s5 -7.66602 5 -12.999v-33
c0 -5.33301 -1.66699 -9.66602 -5 -12.999s-7.66602 -5 -12.999 -5h-324c-5.33301 0 -9.66602 1.66699 -12.999 5s-5 7.66602 -5 12.999v30c0 11.333 0.333008 19.333 1 24s3.33398 9.66699 8.00098 15l264 379h-237c-5.33301 0 -9.66602 1.66699 -12.999 5
s-5 7.66602 -5 12.999v33c0 5.33301 1.66699 9.66602 5 12.999s7.66602 5 12.999 5h301zM209 598c-5.33301 0 -9.33105 1.83301 -11.998 5.5s-5.66699 7.5 -9 11.5l-80 108c-1.33301 4 -2 7 -2 9c0 8 4.66699 12 14 12h26c4.66699 0 8.66699 -1.5 12 -4.5
s6.66602 -6.83301 9.99902 -11.5l58 -67l58 67c3.33301 4.66699 6.66602 8.5 9.99902 11.5s7.33301 4.5 12 4.5h26c9.33301 0 14 -4 14 -12c0 -2 -0.666992 -5 -2 -9l-80 -108c-3.33301 -4 -6.33301 -7.83301 -9 -11.5s-6.66699 -5.5 -12 -5.5h-34z" />
    <glyph glyph-name="florin" unicode="&#x192;" horiz-adv-x="556" 
d="M141 -184c-5.33301 0 -9.66602 1.66699 -12.999 5s-5 7.66602 -5 12.999v34c0 5.33301 1.66699 9.66602 5 12.999s7.66602 5 12.999 5h23c28.667 0 47.167 5.5 55.5 16.5s12.5 29.167 12.5 54.5v450h-60c-5.33301 0 -9.66602 1.66699 -12.999 5s-5 7.66602 -5 12.999v34
c0 5.33301 1.66699 9.66602 5 12.999s7.66602 5 12.999 5h60v113c0 35.333 11.333 64 34 86s55 33 97 33h50c5.33301 0 9.66602 -1.66699 12.999 -5s5 -7.66602 5 -12.999v-34c0 -5.33301 -1.66699 -9.66602 -5 -12.999s-7.66602 -5 -12.999 -5h-39
c-28.667 0 -47.167 -5.5 -55.5 -16.5s-12.5 -29.167 -12.5 -54.5v-91h108c5.33301 0 9.66602 -1.66699 12.999 -5s5 -7.66602 5 -12.999v-34c0 -5.33301 -1.66699 -9.66602 -5 -12.999s-7.66602 -5 -12.999 -5h-108v-472c0 -35.333 -11.167 -64 -33.5 -86
s-54.5 -33 -96.5 -33h-35z" />
    <glyph glyph-name="circumflex" unicode="&#x2c6;" horiz-adv-x="415" 
d="M230 740c6.66699 0 11.332 -1.66797 13.999 -5.00098l9 -11l62 -93c2 -3.33301 3 -6.33301 3 -9c0 -4.66699 -4 -7 -12 -7h-42c-5.33301 0 -10.333 3 -15 9l-42 53l-42 -53c-2.66699 -3.33301 -5 -5.66602 -7 -6.99902s-4.66699 -2 -8 -2h-42c-8 0 -12 2.33301 -12 7
c0 2.66699 1 5.66699 3 9l62 93l9 11c2.66699 3.33301 7.33398 5 14.001 5h46v0z" />
    <glyph glyph-name="caron" unicode="&#x2c7;" horiz-adv-x="415" 
d="M190 607c-5.33301 0 -9.33105 1.83301 -11.998 5.5s-5.66699 7.5 -9 11.5l-80 108c-1.33301 4 -2 7 -2 9c0 8 4.66699 12 14 12h26c4.66699 0 8.66699 -1.5 12 -4.5s6.66602 -6.83301 9.99902 -11.5l58 -67l58 67c3.33301 4.66699 6.66602 8.5 9.99902 11.5
s7.33301 4.5 12 4.5h26c9.33301 0 14 -4 14 -12c0 -2 -0.666992 -5 -2 -9l-80 -108c-3.33301 -4 -6.33301 -7.83301 -9 -11.5s-6.66699 -5.5 -12 -5.5h-34z" />
    <glyph glyph-name="breve" unicode="&#x2d8;" horiz-adv-x="439" 
d="M190 605c-11.333 0 -24.1699 4.33301 -38.5029 13s-28 19 -41 31s-23.833 24.5 -32.5 37.5s-13 23.833 -13 32.5c0 5.33301 1.83301 9.33301 5.5 12s7.5 4 11.5 4h42c10.667 0 18.334 -2.66699 23.001 -8s8.66699 -10.666 12 -15.999c5.33301 -8.66699 12.5 -17 21.5 -25
s21.833 -12 38.5 -12s29.5 4 38.5 12s16.167 16.333 21.5 25c3.33301 5.33301 7.33301 10.666 12 15.999s12.334 8 23.001 8h42c4 0 7.83301 -1.33301 11.5 -4s5.5 -6.66699 5.5 -12c0 -8.66699 -4.33301 -19.5 -13 -32.5s-19.5 -25.5 -32.5 -37.5s-26.667 -22.333 -41 -31
s-27.166 -13 -38.499 -13h-58z" />
    <glyph glyph-name="dotaccent" unicode="&#x2d9;" horiz-adv-x="236" 
d="M171 617c0 -5.33301 -2.16699 -10.166 -6.5 -14.499s-9.5 -6.5 -15.5 -6.5h-63c-6 0 -11.167 2.16699 -15.5 6.5s-6.5 9.16602 -6.5 14.499v51c0 6 2.16699 11 6.5 15s9.5 6 15.5 6h63c6 0 11.167 -2 15.5 -6s6.5 -9 6.5 -15v-51z" />
    <glyph glyph-name="ring" unicode="&#x2da;" horiz-adv-x="298" 
d="M264 675c0 -16 -3 -31 -9 -45s-14.333 -26.167 -25 -36.5s-23 -18.666 -37 -24.999s-29 -9.5 -45 -9.5c-15.333 0 -30 3.16699 -44 9.5s-26.167 14.666 -36.5 24.999s-18.5 22.5 -24.5 36.5s-9 29 -9 45c0 15.333 3 30 9 44s14.167 26.167 24.5 36.5
s22.5 18.666 36.5 24.999s28.667 9.5 44 9.5c16 0 31 -3.16699 45 -9.5s26.333 -14.666 37 -24.999s19 -22.5 25 -36.5s9 -28.667 9 -44zM223 675c0 19.333 -7.16699 36.501 -21.5 51.501s-32.166 22.5 -53.499 22.5s-38.833 -7.5 -52.5 -22.5s-20.5 -32.167 -20.5 -51.5
c0 -10 1.83301 -19.5 5.5 -28.5s8.66699 -17 15 -24s14 -12.5 23 -16.5s18.833 -6 29.5 -6c21.333 0 39.166 7.66699 53.499 23s21.5 32.666 21.5 51.999z" />
    <glyph glyph-name="ogonek" unicode="&#x2db;" horiz-adv-x="385" 
d="M289 -161c0 -4 -0.99707 -7.33203 -2.99707 -9.99902c-10.667 -11.333 -23.5 -22 -38.5 -32s-32.833 -15 -53.5 -15c-32.667 0 -57.334 9 -74.001 27s-25 39.333 -25 64c0 13.333 2.16699 25.666 6.5 36.999s9.83301 21.333 16.5 30s14.167 15.834 22.5 21.501
s16.5 9.5 24.5 11.5c10.667 2.66699 20.334 4.16699 29.001 4.5s17.667 0.5 27 0.5c12.667 0 19 -4 19 -12v-18c0 -3.33301 -0.833008 -6 -2.5 -8s-5.83398 -3 -12.501 -3c-24.667 0 -43.834 -5.33301 -57.501 -16s-20.5 -27 -20.5 -49c0 -18 5.16699 -30.333 15.5 -37
s21.166 -10 32.499 -10c9.33301 0 18.5 2.5 27.5 7.5s18.833 14.167 29.5 27.5c2 3.33301 3.83301 5.16602 5.5 5.49902s3.16699 0.5 4.5 0.5c4 0 7 -1 9 -3l11 -9c4.66699 -4.66699 7 -9.66699 7 -15z" />
    <glyph glyph-name="tilde" unicode="&#x2dc;" horiz-adv-x="448" 
d="M222 643c-6.66699 3.33301 -13.668 6.50293 -21.001 9.50293s-16.333 4.5 -27 4.5c-11.333 0 -21.666 -3 -30.999 -9s-16 -10 -20 -12c-2 -2 -5 -3 -9 -3c-2.66699 0 -5.83398 1.66699 -9.50098 5s-10.834 13.666 -21.501 30.999c-2.66699 4 -4 7 -4 9
c0 3.33301 3.66699 7 11 11c2.66699 2 6.83398 4.66699 12.501 8s12.167 6.66602 19.5 9.99902s15.5 6.16602 24.5 8.49902s18.167 3.5 27.5 3.5c10.667 0 19.834 -1.5 27.501 -4.5s15.167 -6.16699 22.5 -9.5s14.833 -6.5 22.5 -9.5s16.834 -4.5 27.501 -4.5
s20.834 3.16699 30.501 9.5l20.5 13.5c1.33301 0.666992 2.83301 1.33398 4.5 2.00098s3.16699 1 4.5 1c2.66699 0 5.66699 -1.83301 9 -5.5s10.666 -13.834 21.999 -30.501c2 -2.66699 3 -5.66699 3 -9c0 -2.66699 -0.833008 -4.5 -2.5 -5.5s-4.16699 -3.16699 -7.5 -6.5
c-2 -2 -5.83301 -4.66699 -11.5 -8s-12.334 -6.83301 -20.001 -10.5s-16 -6.66699 -25 -9s-18.167 -3.5 -27.5 -3.5c-11.333 0 -21 1.5 -29 4.5s-15.667 6.16699 -23 9.5z" />
    <glyph glyph-name="hungarumlaut" unicode="&#x2dd;" horiz-adv-x="473" 
d="M155 638c-4.66699 -6 -8.66895 -10.166 -12.002 -12.499s-8.66602 -3.5 -15.999 -3.5h-24c-12 0 -18 5.33301 -18 16c0 4 1 7.66699 3 11l31 70c2.66699 5.33301 6.33398 10.166 11.001 14.499s10 6.5 16 6.5h49c4.66699 0 8.66699 -1.5 12 -4.5s5 -6.5 5 -10.5
c0 -1.33301 -0.666992 -3.33301 -2 -6zM329.998 638.001c-4.66699 -6 -8.66895 -10.166 -12.002 -12.499s-8.66602 -3.5 -15.999 -3.5h-24c-12 0 -18 5.33301 -18 16c0 4 1 7.66699 3 11l31 70c2.66699 5.33301 6.33398 10.166 11.001 14.499s10 6.5 16 6.5h49
c4.66699 0 8.66699 -1.5 12 -4.5s5 -6.5 5 -10.5c0 -1.33301 -0.666992 -3.33301 -2 -6z" />
    <glyph glyph-name="pi" unicode="&#x3c0;" horiz-adv-x="548" 
d="M487 69c5.33301 0 9.66504 -1.66699 12.998 -5s5 -7.66602 5 -12.999v-33c0 -5.33301 -1.66699 -9.66602 -5 -12.999s-7.66602 -5 -12.999 -5h-15c-15.333 0 -29.5 2.66699 -42.5 8s-24.167 12.666 -33.5 21.999s-16.833 20.166 -22.5 32.499s-8.5 25.833 -8.5 40.5v363
h-185v-448c0 -5.33301 -1.66699 -9.66602 -5 -12.999s-7.66602 -5 -12.999 -5h-38c-5.33301 0 -9.66602 1.66699 -12.999 5s-5 7.66602 -5 12.999v448h-71c-5.33301 0 -9.66602 1.66699 -12.999 5s-5 7.66602 -5 12.999v33c0 5.33301 1.66699 9.66602 5 12.999
s7.66602 5 12.999 5h478c5.33301 0 9.66602 -1.66699 12.999 -5s5 -7.66602 5 -12.999v-33c0 -5.33301 -1.66699 -9.66602 -5 -12.999s-7.66602 -5 -12.999 -5h-74v-347c0 -13.333 4.66699 -25 14 -35s20.666 -15 33.999 -15z" />
    <glyph glyph-name="endash" unicode="&#x2013;" horiz-adv-x="529" 
d="M476 304c5.33301 0 9.66602 -1.66699 12.999 -5s5 -7.66602 5 -12.999v-36c0 -5.33301 -1.66699 -9.66602 -5 -12.999s-7.66602 -5 -12.999 -5h-423c-5.33301 0 -9.66602 1.66699 -12.999 5s-5 7.66602 -5 12.999v36c0 5.33301 1.66699 9.66602 5 12.999
s7.66602 5 12.999 5h423z" />
    <glyph glyph-name="emdash" unicode="&#x2014;" horiz-adv-x="651" 
d="M598 304c5.33301 0 9.66602 -1.66699 12.999 -5s5 -7.66602 5 -12.999v-36c0 -5.33301 -1.66699 -9.66602 -5 -12.999s-7.66602 -5 -12.999 -5h-525c-5.33301 0 -9.66602 1.66699 -12.999 5s-5 7.66602 -5 12.999v36c0 5.33301 1.66699 9.66602 5 12.999
s7.66602 5 12.999 5h525z" />
    <glyph glyph-name="quoteleft" unicode="&#x2018;" horiz-adv-x="202" 
d="M122 666c-9.33301 -1.33301 -16.834 -6.33301 -22.501 -15s-8.5 -18 -8.5 -28c0 -15.333 6.66699 -23.666 20 -24.999h28c5.33301 0 9.66602 -1.66699 12.999 -5s5 -7.66602 5 -12.999v-57c0 -5.33301 -1.66699 -9.66602 -5 -12.999s-7.66602 -5 -12.999 -5h-71
c-5.33301 0 -9.66602 1.66699 -12.999 5s-5 7.66602 -5 12.999v75c0 25.333 5.5 48.166 16.5 68.499s27.833 32.166 50.5 35.499h9c7.33301 0 11 -3.33301 11 -10v-15c0 -7.33301 -3.66699 -11 -11 -11h-4z" />
    <glyph glyph-name="quoteright" unicode="&#x2019;" horiz-adv-x="202" 
d="M60 548c9.33301 1.33301 16.834 6.33301 22.501 15s8.5 18 8.5 28c0 15.333 -6.66699 23.666 -20 24.999h-28c-5.33301 0 -9.66602 1.66699 -12.999 5s-5 7.66602 -5 12.999v57c0 5.33301 1.66699 9.66602 5 12.999s7.66602 5 12.999 5h71
c5.33301 0 9.66602 -1.66699 12.999 -5s5 -7.66602 5 -12.999v-75c0 -25.333 -5.5 -48.166 -16.5 -68.499s-27.833 -32.166 -50.5 -35.499h-9c-7.33301 0 -11 3.33301 -11 10v15c0 7.33301 3.66699 11 11 11h4z" />
    <glyph glyph-name="quotesinglbase" unicode="&#x201a;" horiz-adv-x="227" 
d="M90 -68c9.33301 1.33301 16.834 6.33301 22.501 15s8.5 18 8.5 28c0 15.333 -6.66699 23.666 -20 24.999h-28c-5.33301 0 -9.66602 1.66699 -12.999 5s-5 7.66602 -5 12.999v57c0 5.33301 1.66699 9.66602 5 12.999s7.66602 5 12.999 5h71
c5.33301 0 9.66602 -1.66699 12.999 -5s5 -7.66602 5 -12.999v-75c0 -25.333 -5.5 -48.166 -16.5 -68.499s-27.833 -32.166 -50.5 -35.499h-9c-7.33301 0 -11 3.33301 -11 10v15c0 7.33301 3.66699 11 11 11h4z" />
    <glyph glyph-name="quotedblleft" unicode="&#x201c;" horiz-adv-x="408" 
d="M117 666c-9.33301 -1.33301 -16.834 -6.33301 -22.501 -15s-8.5 -18 -8.5 -28c0 -15.333 6.66699 -23.666 20 -24.999h28c5.33301 0 9.66602 -1.66699 12.999 -5s5 -7.66602 5 -12.999v-57c0 -5.33301 -1.66699 -9.66602 -5 -12.999s-7.66602 -5 -12.999 -5h-71
c-5.33301 0 -9.66602 1.66699 -12.999 5s-5 7.66602 -5 12.999v75c0 25.333 5.5 48.166 16.5 68.499s27.833 32.166 50.5 35.499h9c7.33301 0 11 -3.33301 11 -10v-15c0 -7.33301 -3.66699 -11 -11 -11h-4zM297.999 666c-9.33301 -1.33301 -16.834 -6.33301 -22.501 -15
s-8.5 -18 -8.5 -28c0 -15.333 6.66699 -23.666 20 -24.999h28c5.33301 0 9.66602 -1.66699 12.999 -5s5 -7.66602 5 -12.999v-57c0 -5.33301 -1.66699 -9.66602 -5 -12.999s-7.66602 -5 -12.999 -5h-71c-5.33301 0 -9.66602 1.66699 -12.999 5s-5 7.66602 -5 12.999v75
c0 25.333 5.5 48.166 16.5 68.499s27.833 32.166 50.5 35.499h9c7.33301 0 11 -3.33301 11 -10v-15c0 -7.33301 -3.66699 -11 -11 -11h-4z" />
    <glyph glyph-name="quotedblright" unicode="&#x201d;" horiz-adv-x="408" 
d="M90 548c9.33301 1.33301 16.834 6.33301 22.501 15s8.5 18 8.5 28c0 15.333 -6.66699 23.666 -20 24.999h-28c-5.33301 0 -9.66602 1.66699 -12.999 5s-5 7.66602 -5 12.999v57c0 5.33301 1.66699 9.66602 5 12.999s7.66602 5 12.999 5h71
c5.33301 0 9.66602 -1.66699 12.999 -5s5 -7.66602 5 -12.999v-75c0 -25.333 -5.5 -48.166 -16.5 -68.499s-27.833 -32.166 -50.5 -35.499h-9c-7.33301 0 -11 3.33301 -11 10v15c0 7.33301 3.66699 11 11 11h4zM271.001 548c9.33301 1.33301 16.834 6.33301 22.501 15
s8.5 18 8.5 28c0 15.333 -6.66699 23.666 -20 24.999h-28c-5.33301 0 -9.66602 1.66699 -12.999 5s-5 7.66602 -5 12.999v57c0 5.33301 1.66699 9.66602 5 12.999s7.66602 5 12.999 5h71c5.33301 0 9.66602 -1.66699 12.999 -5s5 -7.66602 5 -12.999v-75
c0 -25.333 -5.5 -48.166 -16.5 -68.499s-27.833 -32.166 -50.5 -35.499h-9c-7.33301 0 -11 3.33301 -11 10v15c0 7.33301 3.66699 11 11 11h4z" />
    <glyph glyph-name="quotedblbase" unicode="&#x201e;" horiz-adv-x="407" 
d="M90 -68c9.33301 1.33301 16.834 6.33301 22.501 15s8.5 18 8.5 28c0 15.333 -6.66699 23.666 -20 24.999h-28c-5.33301 0 -9.66602 1.66699 -12.999 5s-5 7.66602 -5 12.999v57c0 5.33301 1.66699 9.66602 5 12.999s7.66602 5 12.999 5h71
c5.33301 0 9.66602 -1.66699 12.999 -5s5 -7.66602 5 -12.999v-75c0 -25.333 -5.5 -48.166 -16.5 -68.499s-27.833 -32.166 -50.5 -35.499h-9c-7.33301 0 -11 3.33301 -11 10v15c0 7.33301 3.66699 11 11 11h4zM270.001 -68c9.33301 1.33301 16.834 6.33301 22.501 15
s8.5 18 8.5 28c0 15.333 -6.66699 23.666 -20 24.999h-28c-5.33301 0 -9.66602 1.66699 -12.999 5s-5 7.66602 -5 12.999v57c0 5.33301 1.66699 9.66602 5 12.999s7.66602 5 12.999 5h71c5.33301 0 9.66602 -1.66699 12.999 -5s5 -7.66602 5 -12.999v-75
c0 -25.333 -5.5 -48.166 -16.5 -68.499s-27.833 -32.166 -50.5 -35.499h-9c-7.33301 0 -11 3.33301 -11 10v15c0 7.33301 3.66699 11 11 11h4z" />
    <glyph glyph-name="dagger" unicode="&#x2020;" horiz-adv-x="425" 
d="M65 444c-5.33301 0 -9.66602 1.66699 -12.999 5s-5 7.66602 -5 12.999v36c0 5.33301 1.66699 9.66602 5 12.999s7.66602 5 12.999 5h109v196c0 5.33301 1.66699 9.66602 5 12.999s7.66602 5 12.999 5h44c5.33301 0 9.66602 -1.66699 12.999 -5s5 -7.66602 5 -12.999v-196
h106c5.33301 0 9.66602 -1.66699 12.999 -5s5 -7.66602 5 -12.999v-36c0 -5.33301 -1.66699 -9.66602 -5 -12.999s-7.66602 -5 -12.999 -5h-106v-426c0 -5.33301 -1.66699 -9.66602 -5 -12.999s-7.66602 -5 -12.999 -5h-44c-5.33301 0 -9.66602 1.66699 -12.999 5
s-5 7.66602 -5 12.999v426h-109z" />
    <glyph glyph-name="daggerdbl" unicode="&#x2021;" horiz-adv-x="425" 
d="M65 82c-5.33301 0 -9.66602 1.66699 -12.999 5s-5 7.66602 -5 12.999v36c0 5.33301 1.66699 9.66602 5 12.999s7.66602 5 12.999 5h109v290h-109c-5.33301 0 -9.66602 1.66699 -12.999 5s-5 7.66602 -5 12.999v36c0 5.33301 1.66699 9.66602 5 12.999s7.66602 5 12.999 5
h109v196c0 5.33301 1.66699 9.66602 5 12.999s7.66602 5 12.999 5h44c5.33301 0 9.66602 -1.66699 12.999 -5s5 -7.66602 5 -12.999v-196h106c5.33301 0 9.66602 -1.66699 12.999 -5s5 -7.66602 5 -12.999v-36c0 -5.33301 -1.66699 -9.66602 -5 -12.999
s-7.66602 -5 -12.999 -5h-106v-290h106c5.33301 0 9.66602 -1.66699 12.999 -5s5 -7.66602 5 -12.999v-36c0 -5.33301 -1.66699 -9.66602 -5 -12.999s-7.66602 -5 -12.999 -5h-106v-190c0 -5.33301 -1.66699 -9.66602 -5 -12.999s-7.66602 -5 -12.999 -5h-44
c-5.33301 0 -9.66602 1.66699 -12.999 5s-5 7.66602 -5 12.999v190h-109z" />
    </font>
</defs>
</svg>
