<?xml version="1.0" standalone="no"?>
<!DOCTYPE svg PUBLIC "-//W3C//DTD SVG 1.1//EN" "http://www.w3.org/Graphics/SVG/1.1/DTD/svg11.dtd" >
<svg xmlns="http://www.w3.org/2000/svg" xmlns:xlink="http://www.w3.org/1999/xlink" version="1.1">
<metadata>
Created by FontForge 20161003 at Thu Jul 26 16:44:12 2018
 By www-data
Copyright (C) 2001, 2011 Hoefler &#38; Co. http://www.typography.com
</metadata>
<defs>
<font id="GothamMedium" horiz-adv-x="400" >
  <font-face 
    font-family="GothamMedium"
    font-weight="350"
    font-stretch="normal"
    units-per-em="1000"
    panose-1="0 0 0 0 0 0 0 0 0 0"
    ascent="800"
    descent="-200"
    x-height="528"
    cap-height="700"
    bbox="-223 -275 1180 1008"
    underline-thickness="50"
    underline-position="-150"
    unicode-range="U+0020-FB04"
  />
<missing-glyph horiz-adv-x="500" 
d="M0 -200v1000h500v-1000h-500zM71 750l179 -390l179 390h-358zM50 -76l172 376l-172 376v-752zM450 676l-172 -376l172 -376v752zM250 240l-179 -390h358z" />
    <glyph glyph-name="f_f" unicode="ff" horiz-adv-x="752" 
d="M103 0v424h-67v101h67v39q0 87 43 130q42 42 118 42q52 0 99 -14v-102q-39 13 -71 13q-70 0 -70 -80v-29h140v-100h-138v-424h-121zM479 0v424h-67v101h67v39q0 87 43 130q42 42 119 42q51 0 98 -14v-102q-39 13 -71 13q-70 0 -70 -80v-29h140v-100h-138v-424h-121z" />
    <glyph glyph-name="fi" unicode="fi" horiz-adv-x="662" 
d="M103 0v424h-67v101h67v39q0 87 43 130q42 42 118 42q52 0 99 -14v-102q-39 13 -71 13q-70 0 -70 -80v-29h140v-100h-138v-424h-121zM458 0v528h122v-528h-122zM454 609v115h130v-115h-130z" />
    <glyph glyph-name="fl" unicode="fl" horiz-adv-x="662" 
d="M103 0v424h-67v101h67v39q0 87 43 130q42 42 118 42q52 0 99 -14v-102q-39 13 -71 13q-70 0 -70 -80v-29h140v-100h-138v-424h-121zM458 0v730h122v-730h-122z" />
    <glyph glyph-name="f_f_i" unicode="ffi" horiz-adv-x="1038" 
d="M103 0v424h-67v101h67v39q0 87 43 130q42 42 118 42q52 0 99 -14v-102q-39 13 -71 13q-70 0 -70 -80v-29h140v-100h-138v-424h-121zM479 0v424h-67v101h67v39q0 87 43 130q42 42 119 42q51 0 98 -14v-102q-39 13 -71 13q-70 0 -70 -80v-29h140v-100h-138v-424h-121z
M835 0v528h121v-528h-121zM830 609v115h130v-115h-130z" />
    <glyph glyph-name="f_f_l" unicode="ffl" horiz-adv-x="1038" 
d="M103 0v424h-67v101h67v39q0 87 43 130q42 42 118 42q52 0 99 -14v-102q-39 13 -71 13q-70 0 -70 -80v-29h140v-100h-138v-424h-121zM479 0v424h-67v101h67v39q0 87 43 130q42 42 119 42q51 0 98 -14v-102q-39 13 -71 13q-70 0 -70 -80v-29h140v-100h-138v-424h-121z
M835 0v730h121v-730h-121z" />
    <glyph glyph-name=".notdef" horiz-adv-x="500" 
d="M0 -200v1000h500v-1000h-500zM71 750l179 -390l179 390h-358zM50 -76l172 376l-172 376v-752zM450 676l-172 -376l172 -376v752zM250 240l-179 -390h358z" />
    <glyph glyph-name=".null" horiz-adv-x="0" 
 />
    <glyph glyph-name="nonmarkingreturn" horiz-adv-x="333" 
 />
    <glyph glyph-name="space" unicode=" " horiz-adv-x="300" 
 />
    <glyph glyph-name="exclam" unicode="!" horiz-adv-x="302" 
d="M118 222l-38 443v35h142v-35l-37 -443h-67zM85 0v138h133v-138h-133z" />
    <glyph glyph-name="quotedbl" unicode="&#x22;" horiz-adv-x="487" 
d="M280 400l23 300h137v-5l-98 -295h-62zM60 400l23 300h138v-5l-98 -295h-63z" />
    <glyph glyph-name="numbersign" unicode="#" horiz-adv-x="700" 
d="M624 265v-104h-119l-27 -161h-107l27 161h-163l-27 -161h-107l27 161h-89v104h107l30 174h-100v104h118l27 157h107l-27 -157h163l27 157h107l-27 -157h90v-104h-108l-30 -174h101zM282 442l-31 -180h167l31 180h-167z" />
    <glyph glyph-name="dollar" unicode="$" horiz-adv-x="642" 
d="M560 622l-56 -94q-69 51 -136 65v-192q114 -29 165.5 -77t51.5 -128v-2q0 -81 -58.5 -133t-154.5 -61v-98h-87v100q-132 15 -236 99l64 92q89 -73 176 -88v197q-112 28 -163 75t-51 130v1q0 80 57.5 132t152.5 60v58h87v-60q102 -13 188 -76zM467 189q0 34 -21.5 55.5
t-77.5 38.5v-182q48 5 73.5 27.5t25.5 58.5v2zM193 515q0 -33 20.5 -54.5t75.5 -38.5v177q-47 -4 -71.5 -27t-24.5 -56v-1z" />
    <glyph glyph-name="percent" unicode="%" horiz-adv-x="849" 
d="M212 350q-72 0 -118 51.5t-46 125.5v2q0 75 46.5 127t119.5 52t118.5 -51.5t45.5 -125.5v-2q0 -75 -46.5 -127t-119.5 -52zM212 631q-34 0 -54.5 -29t-20.5 -71v-2q0 -43 22 -72.5t55 -29.5q34 0 54.5 29t20.5 71v2q0 43 -22 72.5t-55 29.5zM394 372l237 328h99
l-276 -373l-236 -327h-99zM635 -8q-72 0 -118 51.5t-46 125.5v2q0 75 46.5 127t119.5 52q72 0 118 -51.5t46 -125.5v-2q0 -74 -46.5 -126.5t-119.5 -52.5zM637 69q34 0 54.5 29t20.5 71v2q0 43 -22 72.5t-55 29.5q-34 0 -54.5 -29t-20.5 -71v-2q0 -43 22 -72.5t55 -29.5z
" />
    <glyph glyph-name="ampersand" unicode="&#x26;" horiz-adv-x="696" 
d="M575 -14l-93 95q-98 -91 -214 -91q-100 0 -165 55t-65 145v2q0 132 150 195q-58 75 -58 146v2q0 74 55 125.5t146 51.5q82 0 134 -48.5t52 -120.5v-2q0 -124 -154 -182l120 -122q42 64 75 135l93 -49q-49 -97 -95 -159l111 -112zM298 425q110 40 110 109v2q0 35 -22 57
t-57 22q-37 0 -60.5 -24t-23.5 -60v-2q0 -46 53 -104zM280 92q68 0 132 61l-156 159q-93 -40 -93 -116v-2q0 -44 33 -73t84 -29z" />
    <glyph glyph-name="quotesingle" unicode="'" horiz-adv-x="269" 
d="M60 400l23 300h139v-5l-98 -295h-64z" />
    <glyph glyph-name="parenleft" unicode="(" horiz-adv-x="441" 
d="M340 -141q-277 152 -277 428t277 428l53 -81q-108 -72 -158.5 -154.5t-50.5 -192.5t50.5 -192.5t158.5 -154.5z" />
    <glyph glyph-name="parenright" unicode=")" horiz-adv-x="441" 
d="M101 -141l-53 81q108 72 158.5 154.5t50.5 192.5t-50.5 192.5t-158.5 154.5l53 81q277 -152 277 -428t-277 -428z" />
    <glyph glyph-name="asterisk" unicode="*" horiz-adv-x="430" 
d="M180 382l14 122l-100 -73l-36 61l114 50l-114 50l36 61l100 -73l-14 122h70l-14 -122l100 73l36 -61l-114 -50l114 -50l-36 -61l-100 73l14 -122h-70z" />
    <glyph glyph-name="plus" unicode="+" horiz-adv-x="634" 
d="M260 106v190h-192v112h192v190h114v-190h192v-112h-192v-190h-114z" />
    <glyph glyph-name="comma" unicode="," horiz-adv-x="269" 
d="M47 -146l-13 52q92 18 86 94h-52v138h133v-117q0 -81 -38 -120.5t-116 -46.5z" />
    <glyph glyph-name="hyphen" unicode="-" horiz-adv-x="408" 
d="M56 247v119h296v-119h-296z" />
    <glyph glyph-name="period" unicode="." horiz-adv-x="269" 
d="M68 0v138h133v-138h-133z" />
    <glyph glyph-name="slash" unicode="/" horiz-adv-x="521" 
d="M-25 -128l452 926h105l-452 -926h-105z" />
    <glyph glyph-name="zero" unicode="0" horiz-adv-x="724" 
d="M361 -12q-135 0 -219.5 103.5t-84.5 256.5v2q0 153 85.5 257.5t220.5 104.5t219.5 -103.5t84.5 -256.5v-2q0 -153 -85.5 -257.5t-220.5 -104.5zM363 99q80 0 128.5 71.5t48.5 177.5v2q0 106 -50 178.5t-129 72.5t-128 -71.5t-49 -177.5v-2q0 -106 49.5 -178.5
t129.5 -72.5z" />
    <glyph glyph-name="one" unicode="1" horiz-adv-x="396" 
d="M178 0v580l-126 -35l-26 100l189 60h85v-705h-122z" />
    <glyph glyph-name="two" unicode="2" horiz-adv-x="613" 
d="M49 0v97l241 205q74 64 102.5 103.5t28.5 85.5q0 50 -32 79.5t-81 29.5q-46 0 -82.5 -25t-78.5 -80l-88 69q54 75 111.5 110.5t146.5 35.5q103 0 167 -57.5t64 -151.5v-2q0 -78 -40 -133t-142 -138l-144 -120h333v-108h-506z" />
    <glyph glyph-name="three" unicode="3" horiz-adv-x="618" 
d="M311 -12q-167 0 -268 122l86 81q78 -92 184 -92q52 0 86.5 29.5t34.5 76.5v2q0 51 -43.5 79.5t-117.5 28.5h-57l-20 77l189 201h-303v107h463v-92l-195 -200q89 -11 147.5 -58.5t58.5 -137.5v-2q0 -97 -68 -159.5t-177 -62.5z" />
    <glyph glyph-name="four" unicode="4" horiz-adv-x="682" 
d="M412 0v157h-353l-23 88l389 460h105v-447h100v-101h-100v-157h-118zM182 258h230v277z" />
    <glyph glyph-name="five" unicode="5" horiz-adv-x="623" 
d="M304 -12q-147 0 -257 107l76 89q90 -84 180 -84q63 0 101 33t38 88v2q0 53 -40.5 84.5t-104.5 31.5q-63 0 -129 -31l-74 49l20 343h419v-110h-313l-11 -163q55 20 111 20q107 0 175.5 -56.5t68.5 -163.5v-2q0 -107 -71.5 -172t-188.5 -65z" />
    <glyph glyph-name="six" unicode="6" horiz-adv-x="656" 
d="M337 -12q-121 0 -195 74q-42 42 -63.5 104t-21.5 163v2q0 167 78.5 274t221.5 107q117 0 214 -78l-66 -96q-40 32 -74 47t-78 15q-57 0 -96.5 -37t-55 -85t-16.5 -101q68 71 168 71q105 0 174.5 -59t69.5 -161v-2q0 -103 -74.5 -170.5t-185.5 -67.5zM334 95
q64 0 102 35.5t38 90.5v2q0 53 -39.5 87.5t-103.5 34.5t-103 -35.5t-39 -87.5v-2q0 -54 40.5 -89.5t104.5 -35.5z" />
    <glyph glyph-name="seven" unicode="7" horiz-adv-x="609" 
d="M106 0l314 592h-352v108h492v-93l-315 -607h-139z" />
    <glyph glyph-name="eight" unicode="8" horiz-adv-x="630" 
d="M315 -10q-116 0 -191.5 55.5t-75.5 145.5v2q0 117 126 170q-102 54 -102 156v2q0 81 69 135t174 54t174 -54t69 -135v-2q0 -102 -102 -156q126 -57 126 -168v-2q0 -93 -75 -148t-192 -55zM315 404q54 0 89.5 29t35.5 74v2q0 41 -35 69.5t-90 28.5t-90 -28.5t-35 -69.5v-2
q0 -45 35.5 -74t89.5 -29zM315 93q67 0 106.5 30t39.5 75v2q0 47 -41.5 76t-104.5 29t-104.5 -29t-41.5 -76v-2q0 -44 39.5 -74.5t106.5 -30.5z" />
    <glyph glyph-name="nine" unicode="9" horiz-adv-x="656" 
d="M302 100q44 0 78 21t53 54.5t28.5 70.5t10.5 74q-63 -74 -165 -74q-112 0 -180 60.5t-68 161.5v2q0 104 73 173t188 69q120 0 195 -75q84 -84 84 -266v-2q0 -171 -80 -276t-220 -105q-123 0 -224 84l67 94q80 -66 160 -66zM325 349q65 0 103.5 36.5t38.5 89.5v2
q0 56 -40 92t-106 36q-64 0 -101.5 -37t-37.5 -93v-2q0 -55 39 -89.5t104 -34.5z" />
    <glyph glyph-name="colon" unicode=":" horiz-adv-x="279" 
d="M73 391v137h133v-137h-133zM73 0v138h133v-138h-133z" />
    <glyph glyph-name="semicolon" unicode=";" horiz-adv-x="279" 
d="M73 391v137h133v-137h-133zM52 -146l-13 52q92 18 86 94h-52v138h133v-117q0 -81 -38 -120.5t-116 -46.5z" />
    <glyph glyph-name="less" unicode="&#x3c;" horiz-adv-x="634" 
d="M545 77l-478 221v108l478 221v-115l-358 -159l358 -160v-116z" />
    <glyph glyph-name="equal" unicode="=" horiz-adv-x="634" 
d="M76 421v112h482v-112h-482zM76 171v112h482v-112h-482z" />
    <glyph glyph-name="greater" unicode="&#x3e;" horiz-adv-x="634" 
d="M89 77v115l358 159l-358 160v116l479 -221v-108z" />
    <glyph glyph-name="question" unicode="?" horiz-adv-x="541" 
d="M207 222l-20 162l5 5q184 6 184 111v2q0 43 -30.5 69t-83.5 26q-89 0 -163 -79l-75 80q98 111 241 111q106 0 170.5 -55t64.5 -148v-2q0 -167 -202 -202l-10 -80h-81zM178 0v138h134v-138h-134z" />
    <glyph glyph-name="at" unicode="@" horiz-adv-x="980" 
d="M499 -162q-190 0 -318 127.5t-128 308.5q0 180 127.5 309t310.5 129q90 0 171.5 -33t139 -87.5t91.5 -126.5t34 -149q0 -120 -55.5 -184.5t-138.5 -64.5q-104 0 -148 70q-68 -70 -155 -70q-77 0 -129 52.5t-52 136.5q0 104 69 177t158 73q93 0 141 -74l12 60l97 -16
l-44 -251q-5 -30 -5 -43q0 -33 21 -52t57 -19q56 0 94 53.5t38 151.5q0 68 -30.5 133.5t-82.5 115t-126.5 79.5t-156.5 30q-169 0 -283.5 -117t-114.5 -283q0 -168 115 -283t291 -115q132 0 246 67l19 -30q-123 -75 -265 -75zM457 154q52 0 89 39q48 48 48 119
q0 48 -29.5 78t-74.5 30q-51 0 -91 -40q-47 -47 -47 -118q0 -51 29 -79.5t76 -28.5z" />
    <glyph glyph-name="A" unicode="A" horiz-adv-x="790" 
d="M30 0l308 705h114l308 -705h-130l-71 169h-331l-72 -169h-126zM273 278h241l-121 280z" />
    <glyph glyph-name="B" unicode="B" horiz-adv-x="722" 
d="M90 0v700h314q121 0 183 -62q47 -47 47 -116v-2q0 -104 -100 -156q139 -47 139 -170v-2q0 -92 -70 -142t-189 -50h-324zM511 500v2q0 42 -32 65.5t-91 23.5h-177v-186h168q61 0 96.5 24t35.5 71zM550 207q0 94 -144 94h-195v-192h204q63 0 99 24.5t36 71.5v2z" />
    <glyph glyph-name="C" unicode="C" horiz-adv-x="739" 
d="M415 -12q-153 0 -254.5 104t-101.5 256v2q0 152 102 257t258 105q91 0 155 -28t120 -81l-79 -91q-94 86 -197 86q-98 0 -164 -71.5t-66 -174.5v-2q0 -104 66 -176t165 -72q61 0 106.5 22t94.5 68l79 -80q-59 -62 -125 -93t-159 -31z" />
    <glyph glyph-name="D" unicode="D" horiz-adv-x="782" 
d="M90 0v700h261q163 0 267.5 -99.5t104.5 -248.5v-2q0 -150 -104.5 -250t-267.5 -100h-261zM351 588h-138v-476h138q109 0 176 66t67 170v2q0 104 -67 171t-176 67z" />
    <glyph glyph-name="E" unicode="E" horiz-adv-x="670" 
d="M90 0v700h519v-110h-396v-182h351v-111h-351v-187h401v-110h-524z" />
    <glyph glyph-name="F" unicode="F" horiz-adv-x="656" 
d="M90 0v700h521v-112h-398v-191h353v-112h-353v-285h-123z" />
    <glyph glyph-name="G" unicode="G" horiz-adv-x="784" 
d="M422 -12q-162 0 -262.5 102.5t-100.5 257.5v2q0 150 102.5 256t258.5 106q88 0 150 -23.5t119 -71.5l-78 -93q-45 37 -89.5 55.5t-106.5 18.5q-96 0 -161.5 -72t-65.5 -174v-2q0 -109 66 -179.5t172 -70.5q98 0 169 53v130h-179v108h298v-294q-127 -109 -292 -109z" />
    <glyph glyph-name="H" unicode="H" horiz-adv-x="760" 
d="M90 0v700h123v-291h334v291h123v-700h-123v295h-334v-295h-123z" />
    <glyph glyph-name="I" unicode="I" horiz-adv-x="317" 
d="M97 0v700h123v-700h-123z" />
    <glyph glyph-name="J" unicode="J" horiz-adv-x="560" 
d="M245 -10q-141 0 -224 113l81 84q64 -83 141 -83q51 0 81 35t30 103v458h127v-462q0 -120 -66 -186q-62 -62 -170 -62z" />
    <glyph glyph-name="K" unicode="K" horiz-adv-x="726" 
d="M90 0v700h123v-352l332 352h153l-292 -301l305 -399h-150l-239 315l-109 -112v-203h-123z" />
    <glyph glyph-name="L" unicode="L" horiz-adv-x="618" 
d="M90 0v700h123v-588h368v-112h-491z" />
    <glyph glyph-name="M" unicode="M" horiz-adv-x="868" 
d="M90 0v700h131l213 -331l213 331h131v-700h-123v502l-221 -330h-4l-219 328v-500h-121z" />
    <glyph glyph-name="N" unicode="N" horiz-adv-x="790" 
d="M90 0v700h114l375 -484v484h121v-700h-103l-386 498v-498h-121z" />
    <glyph glyph-name="O" unicode="O" horiz-adv-x="850" 
d="M424 -12q-159 0 -262 105t-103 255v2q0 150 104 256t263 106t262 -105t103 -255v-2q0 -150 -104 -256t-263 -106zM426 102q103 0 169.5 71t66.5 175v2q0 104 -67.5 176t-170.5 72t-169.5 -71t-66.5 -175v-2q0 -104 67.5 -176t170.5 -72z" />
    <glyph glyph-name="P" unicode="P" horiz-adv-x="668" 
d="M90 0v700h276q122 0 194 -64t72 -170v-2q0 -113 -79.5 -176t-200.5 -63h-139v-225h-123zM213 336h143q69 0 110 35t41 90v2q0 60 -40.5 92.5t-110.5 32.5h-143v-252z" />
    <glyph glyph-name="Q" unicode="Q" horiz-adv-x="850" 
d="M800 67l-79 -88l-84 75q-93 -66 -213 -66q-159 0 -262 105t-103 255v2q0 150 104 256t263 106t262 -105t103 -255v-2q0 -119 -71 -215zM426 102q67 0 121 31l-121 104l79 90l123 -112q34 59 34 133v2q0 104 -67.5 176t-170.5 72t-169.5 -71t-66.5 -175v-2
q0 -104 67.5 -176t170.5 -72z" />
    <glyph glyph-name="R" unicode="R" horiz-adv-x="723" 
d="M90 0v700h312q130 0 202 -70q58 -60 58 -151v-2q0 -83 -45 -136.5t-121 -75.5l189 -265h-146l-172 244h-154v-244h-123zM213 353h180q66 0 105 32t39 85v2q0 56 -38 86t-107 30h-179v-235z" />
    <glyph glyph-name="S" unicode="S" horiz-adv-x="640" 
d="M335 -10q-167 0 -292 112l74 88q105 -91 221 -91q57 0 90.5 24.5t33.5 63.5v2q0 39 -32 62t-126 45q-60 15 -100 30t-72 39t-46.5 58.5t-14.5 81.5v2q0 90 67 146.5t172 56.5q144 0 254 -88l-66 -93q-97 72 -190 72q-52 0 -83 -23.5t-31 -59.5v-2q0 -41 33.5 -63.5
t133.5 -46.5q116 -28 170 -74.5t54 -130.5v-2q0 -97 -69 -153t-181 -56z" />
    <glyph glyph-name="T" unicode="T" horiz-adv-x="645" 
d="M261 0v586h-223v114h569v-114h-223v-586h-123z" />
    <glyph glyph-name="U" unicode="U" horiz-adv-x="757" 
d="M377 -11q-139 0 -218.5 79t-79.5 229v403h123v-398q0 -96 46.5 -147.5t130.5 -51.5q83 0 129.5 49.5t46.5 144.5v403h123v-397q0 -153 -80 -233.5t-221 -80.5z" />
    <glyph glyph-name="V" unicode="V" horiz-adv-x="750" 
d="M320 -5l-290 705h136l211 -538l210 538h133l-290 -705h-110z" />
    <glyph glyph-name="W" unicode="W" horiz-adv-x="1116" 
d="M279 -5l-243 705h133l167 -519l172 521h104l172 -521l167 519h129l-243 -705h-107l-172 503l-172 -503h-107z" />
    <glyph glyph-name="X" unicode="X" horiz-adv-x="729" 
d="M541 700h141l-244 -342l254 -358h-145l-185 267l-184 -267h-141l253 356l-243 344h145l173 -253z" />
    <glyph glyph-name="Y" unicode="Y" horiz-adv-x="716" 
d="M296 0v276l-278 424h146l195 -309l198 309h141l-278 -421v-279h-124z" />
    <glyph glyph-name="Z" unicode="Z" horiz-adv-x="702" 
d="M64 0v91l414 500h-400v109h561v-91l-414 -500h414v-109h-575z" />
    <glyph glyph-name="bracketleft" unicode="[" horiz-adv-x="455" 
d="M87 -130v830h309v-95h-192v-640h192v-95h-309z" />
    <glyph glyph-name="backslash" unicode="\" horiz-adv-x="521" 
d="M441 -128l-452 926h105l452 -926h-105z" />
    <glyph glyph-name="bracketright" unicode="]" horiz-adv-x="455" 
d="M59 -130v95h192v640h-192v95h308v-830h-308z" />
    <glyph glyph-name="asciicircum" unicode="^" horiz-adv-x="500" 
d="M56 493l151 208h86l151 -208h-93l-102 132l-102 -132h-91z" />
    <glyph glyph-name="underscore" unicode="_" horiz-adv-x="600" 
d="M-2 -160v94h604v-94h-604z" />
    <glyph glyph-name="grave" unicode="`" horiz-adv-x="500" 
d="M247 595l-123 115l110 49l104 -164h-91z" />
    <glyph glyph-name="a" unicode="a" horiz-adv-x="587" 
d="M228 -11q-79 0 -133.5 43.5t-54.5 119.5v2q0 83 59.5 126.5t159.5 43.5q73 0 142 -22v13q0 56 -33.5 85.5t-97.5 29.5q-72 0 -151 -33l-33 95q98 43 200 43q118 0 175 -59q57 -56 57 -163v-313h-118v66q-64 -77 -172 -77zM262 77q61 0 101 31.5t40 81.5v36
q-54 21 -120 21q-58 0 -91 -23.5t-33 -64.5v-2q0 -37 29 -58.5t74 -21.5z" />
    <glyph glyph-name="b" unicode="b" horiz-adv-x="671" 
d="M377 -11q-110 0 -180 93v-82h-122v730h122v-290q70 99 180 99q99 0 172 -74t73 -200v-2q0 -125 -72.5 -199.5t-172.5 -74.5zM348 94q64 0 107.5 46.5t43.5 122.5v2q0 75 -44 122t-107 47t-108.5 -47.5t-45.5 -121.5v-2q0 -74 45.5 -121.5t108.5 -47.5z" />
    <glyph glyph-name="c" unicode="c" horiz-adv-x="571" 
d="M320 -12q-117 0 -195 79.5t-78 193.5v2q0 114 78.5 195t196.5 81q127 0 211 -91l-76 -81q-64 66 -136 66q-65 0 -109 -49t-44 -119v-2q0 -71 44.5 -120t113.5 -49q72 0 137 65l73 -72q-43 -48 -93.5 -73.5t-122.5 -25.5z" />
    <glyph glyph-name="d" unicode="d" horiz-adv-x="671" 
d="M294 -11q-99 0 -172 74.5t-73 199.5v2q0 126 72.5 200t172.5 74q109 0 180 -93v284h121v-730h-121v88q-70 -99 -180 -99zM323 94q63 0 108 47.5t45 121.5v2q0 74 -45 121.5t-108 47.5q-64 0 -108 -46.5t-44 -122.5v-2q0 -75 44.5 -122t107.5 -47z" />
    <glyph glyph-name="e" unicode="e" horiz-adv-x="604" 
d="M318 -12q-116 0 -193.5 76.5t-77.5 197.5v2q0 115 73 195t185 80q120 0 186.5 -81.5t66.5 -202.5q0 -10 -2 -34h-388q10 -63 51 -98.5t101 -35.5q78 0 143 63l71 -63q-82 -99 -216 -99zM167 301h271q-6 61 -41 100t-93 39q-55 0 -92 -38.5t-45 -100.5z" />
    <glyph glyph-name="f" unicode="f" horiz-adv-x="376" 
d="M103 0v424h-67v101h67v39q0 87 43 130q42 42 118 42q52 0 99 -14v-102q-39 13 -71 13q-70 0 -70 -80v-29h140v-100h-138v-424h-121z" />
    <glyph glyph-name="g" unicode="g" horiz-adv-x="671" 
d="M311 -162q-132 0 -236 63l45 91q90 -55 188 -55q81 0 124 41t43 120v40q-75 -96 -186 -96q-98 0 -169 67.5t-71 179.5v2q0 112 71.5 180t168.5 68q110 0 185 -90v79h121v-420q0 -132 -67 -199q-71 -71 -217 -71zM321 145q64 0 109.5 41t45.5 104v2q0 63 -45 103.5
t-110 40.5q-64 0 -107 -40t-43 -104v-2q0 -64 43.5 -104.5t106.5 -40.5z" />
    <glyph glyph-name="h" unicode="h" horiz-adv-x="620" 
d="M75 0v730h122v-283q64 92 165 92q88 0 138 -54.5t50 -147.5v-337h-121v300q0 62 -29.5 95.5t-83.5 33.5q-53 0 -86 -35t-33 -96v-298h-122z" />
    <glyph glyph-name="i" unicode="i" horiz-adv-x="286" 
d="M78 609v115h130v-115h-130zM82 0v528h122v-528h-122z" />
    <glyph glyph-name="j" unicode="j" horiz-adv-x="286" 
d="M78 609v115h130v-115h-130zM51 -163q-27 0 -59 5v97q18 -3 34 -3q56 0 56 64v528h122v-535q0 -156 -153 -156z" />
    <glyph glyph-name="k" unicode="k" horiz-adv-x="582" 
d="M75 0v730h122v-436l219 234h147l-210 -215l217 -313h-142l-156 229l-75 -78v-151h-122z" />
    <glyph glyph-name="l" unicode="l" horiz-adv-x="286" 
d="M82 0v730h122v-730h-122z" />
    <glyph glyph-name="m" unicode="m" horiz-adv-x="949" 
d="M75 0v528h122v-80q66 91 161 91q112 0 158 -93q70 93 178 93q87 0 136 -53t49 -149v-337h-121v300q0 63 -28 96t-79 33t-82 -34.5t-31 -96.5v-298h-121v301q0 61 -28 94.5t-79 33.5t-82 -35.5t-31 -95.5v-298h-122z" />
    <glyph glyph-name="n" unicode="n" horiz-adv-x="620" 
d="M75 0v528h122v-81q64 92 165 92q88 0 138 -54.5t50 -147.5v-337h-121v300q0 62 -29.5 95.5t-83.5 33.5q-53 0 -86 -35t-33 -96v-298h-122z" />
    <glyph glyph-name="o" unicode="o" horiz-adv-x="657" 
d="M327 -12q-120 0 -200 79.5t-80 193.5v2q0 115 81 195.5t201 80.5t200.5 -80t80.5 -194v-2q0 -114 -81 -194.5t-202 -80.5zM329 94q72 0 116 48.5t44 118.5v2q0 71 -46 120.5t-116 49.5q-71 0 -115 -48.5t-44 -119.5v-2q0 -70 46 -119.5t115 -49.5z" />
    <glyph glyph-name="p" unicode="p" horiz-adv-x="671" 
d="M75 -160v688h122v-88q70 99 180 99q99 0 172 -74t73 -200v-2q0 -125 -72.5 -199.5t-172.5 -74.5q-110 0 -180 93v-242h-122zM348 94q64 0 107.5 46.5t43.5 122.5v2q0 75 -44 122t-107 47t-108.5 -47.5t-45.5 -121.5v-2q0 -74 45.5 -121.5t108.5 -47.5z" />
    <glyph glyph-name="q" unicode="q" horiz-adv-x="671" 
d="M474 -160v248q-70 -99 -180 -99q-99 0 -172 74.5t-73 199.5v2q0 126 72.5 200t172.5 74q109 0 180 -93v82h121v-688h-121zM323 94q63 0 108 47.5t45 121.5v2q0 74 -45 121.5t-108 47.5q-64 0 -108 -46.5t-44 -122.5v-2q0 -75 44.5 -122t107.5 -47z" />
    <glyph glyph-name="r" unicode="r" horiz-adv-x="413" 
d="M75 0v528h122v-119q56 135 187 129v-128h-7q-82 0 -131 -53.5t-49 -155.5v-201h-122z" />
    <glyph glyph-name="s" unicode="s" horiz-adv-x="501" 
d="M257 -10q-126 0 -224 79l54 82q88 -65 173 -65q39 0 60.5 15.5t21.5 41.5v2q0 38 -106 70q-8 3 -12 4q-36 10 -60 20t-50.5 27.5t-40.5 44t-14 62.5v2q0 74 53.5 118t134.5 44q103 0 194 -60l-48 -86q-82 50 -149 50q-34 0 -54 -15t-20 -37v-2q0 -25 27 -39.5t82 -32.5
q7 -2 10 -3q35 -11 59 -21.5t50.5 -28.5t40.5 -44t14 -60v-2q0 -80 -55 -123t-141 -43z" />
    <glyph glyph-name="t" unicode="t" horiz-adv-x="411" 
d="M253 -9q-152 0 -152 155v278h-67v104h67v145h121v-145h142v-104h-142v-259q0 -66 65 -66q39 0 75 18v-99q-48 -27 -109 -27z" />
    <glyph glyph-name="u" unicode="u" horiz-adv-x="620" 
d="M258 -11q-88 0 -138 55t-50 148v336h121v-300q0 -61 29.5 -94.5t83.5 -33.5q53 0 86 34.5t33 95.5v298h122v-528h-122v82q-63 -93 -165 -93z" />
    <glyph glyph-name="v" unicode="v" horiz-adv-x="595" 
d="M243 -4l-217 532h130l142 -388l143 388h127l-216 -532h-109z" />
    <glyph glyph-name="w" unicode="w" horiz-adv-x="861" 
d="M203 -4l-172 532h125l106 -362l117 364h104l117 -364l108 362h122l-173 -532h-109l-118 361l-119 -361h-108z" />
    <glyph glyph-name="x" unicode="x" horiz-adv-x="580" 
d="M169 528l121 -177l123 177h129l-186 -258l194 -270h-132l-130 188l-129 -188h-129l193 269l-186 259h132z" />
    <glyph glyph-name="y" unicode="y" horiz-adv-x="596" 
d="M304 136l138 392h126l-210 -542q-31 -82 -70.5 -115.5t-103.5 -33.5q-67 0 -125 33l41 89q37 -20 71 -20q26 0 43 13.5t32 46.5l-220 529h130z" />
    <glyph glyph-name="z" unicode="z" horiz-adv-x="560" 
d="M52 0v83l305 346h-294v99h448v-83l-305 -346h305v-99h-459z" />
    <glyph glyph-name="braceleft" unicode="{" horiz-adv-x="487" 
d="M416 -141q-130 24 -178.5 70.5t-48.5 128.5q0 7 1 35t1 37q0 59 -25.5 85t-87.5 26h-26v92h26q62 0 87.5 26t25.5 85q0 9 -1 37t-1 35q0 82 48.5 128.5t178.5 70.5l21 -80q-86 -24 -111 -51.5t-25 -85.5q0 -10 1 -36.5t1 -37.5q0 -56 -26 -88t-78 -49q53 -17 78.5 -49
t25.5 -88q0 -11 -1 -37.5t-1 -36.5q0 -58 25 -85.5t111 -51.5z" />
    <glyph glyph-name="bar" unicode="|" horiz-adv-x="331" 
d="M117 -128v926h97v-926h-97z" />
    <glyph glyph-name="braceright" unicode="}" horiz-adv-x="487" 
d="M71 -141l-21 80q86 24 111 51.5t25 85.5q0 10 -1 36.5t-1 37.5q0 56 26 88t78 49q-53 17 -78.5 49t-25.5 88q0 11 1 37.5t1 36.5q0 58 -25 85.5t-111 51.5l21 80q130 -24 178.5 -70.5t48.5 -128.5q0 -7 -1 -35t-1 -37q0 -59 25.5 -85t87.5 -26h26v-92h-26
q-62 0 -87.5 -26t-25.5 -85q0 -9 1 -37t1 -35q0 -82 -48.5 -128.5t-178.5 -70.5z" />
    <glyph glyph-name="asciitilde" unicode="~" horiz-adv-x="495" 
d="M324 239q-30 0 -83 21q-44 19 -60 19q-21 0 -32.5 -11.5t-22.5 -38.5l-67 21q17 64 42.5 94t69.5 30q31 0 83 -21q41 -18 60 -18q21 0 32.5 11t22.5 38l67 -20q-17 -64 -42.5 -94.5t-69.5 -30.5z" />
    <glyph glyph-name="uni00A0" unicode="&#xa0;" horiz-adv-x="300" 
 />
    <glyph glyph-name="exclamdown" unicode="&#xa1;" horiz-adv-x="302" 
d="M85 562v138h133v-138h-133zM80 0v35l38 443h67l37 -443v-35h-142z" />
    <glyph glyph-name="cent" unicode="&#xa2;" horiz-adv-x="581" 
d="M437 706l-18 -89q67 -21 118 -78l-73 -79q-36 36 -70 50l-63 -325q72 1 137 66l70 -70q-89 -101 -217 -101h-7l-16 -86h-88l20 102q-80 28 -129.5 98.5t-49.5 158.5v2q0 114 79 194.5t196 80.5h8l15 76h88zM170 355q0 -52 22.5 -92.5t61.5 -60.5l64 323
q-63 -2 -105.5 -50.5t-42.5 -117.5v-2z" />
    <glyph glyph-name="sterling" unicode="&#xa3;" horiz-adv-x="644" 
d="M63 0v78l79 24v176h-79v104h79v92q0 111 61 174q62 62 169 62q137 0 221 -112l-94 -75q-29 37 -57.5 55t-67.5 18q-45 0 -74 -29q-33 -33 -33 -96v-89h249v-104h-249v-171h325v-107h-529z" />
    <glyph glyph-name="yen" unicode="&#xa5;" horiz-adv-x="686" 
d="M91 264v89h158l-230 347h143l182 -293l184 293h139l-232 -347h160v-89h-193v-73h193v-89h-193v-102h-118v102h-193v89h193v73h-193z" />
    <glyph glyph-name="section" unicode="&#xa7;" horiz-adv-x="632" 
d="M467 233q56 -34 56 -95v-2q0 -67 -53 -106.5t-144 -39.5q-142 0 -231 95l69 68q76 -71 161 -71q40 0 60.5 13.5t20.5 35.5v2q0 22 -28 37.5t-104 32.5q-117 26 -166.5 59t-49.5 87v2q0 88 107 116q-56 36 -56 95v2q0 67 53 106.5t144 39.5q142 0 231 -95l-69 -68
q-76 71 -161 71q-39 0 -60 -13.5t-21 -35.5v-2q0 -21 27 -36.5t105 -33.5q118 -27 167 -59.5t49 -86.5v-2q0 -88 -107 -116zM388 278q34 0 55.5 15.5t21.5 38.5v2q0 22 -27 38t-91 32q-69 18 -103 18t-55.5 -15.5t-21.5 -38.5v-2q0 -22 27 -38t91 -32q69 -18 103 -18z" />
    <glyph glyph-name="dieresis" unicode="&#xa8;" horiz-adv-x="500" 
d="M286 595v119h123v-119h-123zM91 595v119h123v-119h-123z" />
    <glyph glyph-name="copyright" unicode="&#xa9;" horiz-adv-x="830" 
d="M414 -12q-151 0 -256 105.5t-105 254.5v2q0 149 106 255.5t257 106.5t256 -105.5t105 -254.5v-2q0 -149 -106 -255.5t-257 -106.5zM414 24q138 0 231.5 95.5t93.5 230.5v2q0 135 -93 229.5t-230 94.5q-138 0 -231.5 -95.5t-93.5 -230.5v-2q0 -135 93 -229.5t230 -94.5z
M419 159q-82 0 -137.5 56.5t-55.5 137.5v2q0 81 55.5 138.5t139.5 57.5q88 0 149 -59l-47 -54q-50 45 -102 45q-50 0 -84 -37t-34 -90v-2q0 -52 34 -89.5t84 -37.5q54 0 104 47l48 -48q-65 -67 -154 -67z" />
    <glyph glyph-name="ordfeminine" unicode="&#xaa;" horiz-adv-x="390" 
d="M159 403q-44 0 -73.5 24t-29.5 66v2q0 45 32.5 69t87.5 24q36 0 76 -11v5q0 60 -70 60q-37 0 -83 -18l-19 54q53 25 111 25q65 0 97 -33q31 -31 31 -90v-171h-68v34q-34 -40 -92 -40zM53 282v58h270v-58h-270zM177 454q32 0 53.5 17t21.5 42v19q-31 11 -63 11
q-30 0 -47 -12t-17 -33v-2q0 -19 14.5 -30.5t37.5 -11.5z" />
    <glyph glyph-name="guillemotleft" unicode="&#xab;" horiz-adv-x="606" 
d="M468 42l-172 218v8l172 218l86 -43l-126 -178l126 -178zM217 42l-173 218v8l173 218l85 -43l-125 -178l125 -178z" />
    <glyph glyph-name="registered" unicode="&#xae;" horiz-adv-x="382" 
d="M191 360q-73 0 -123.5 51t-50.5 123v1q0 72 51 123.5t123 51.5q73 0 123.5 -51t50.5 -123v-1q0 -72 -51 -123.5t-123 -51.5zM191 379q65 0 109.5 46t44.5 110v1q0 64 -44.5 109.5t-109.5 45.5t-109.5 -46t-44.5 -110v-1q0 -64 44.5 -109.5t109.5 -45.5zM118 447v182h85
q34 0 54 -15t20 -45q0 -43 -40 -56l46 -66h-53l-39 58h-28v-58h-45zM163 541h37q32 0 32 25q0 24 -32 24h-37v-49z" />
    <glyph glyph-name="macron" unicode="&#xaf;" horiz-adv-x="500" 
d="M80 606v88h340v-88h-340z" />
    <glyph glyph-name="degree" unicode="&#xb0;" horiz-adv-x="471" 
d="M236 381q-66 0 -116.5 48t-50.5 114v2q0 65 50.5 113t116.5 48t116 -48t50 -113v-2q0 -65 -50 -113.5t-116 -48.5zM236 447q40 0 67 28.5t27 67.5v2q0 38 -27 66.5t-67 28.5t-67.5 -28.5t-27.5 -66.5v-2q0 -39 27.5 -67.5t67.5 -28.5z" />
    <glyph glyph-name="plusminus" unicode="&#xb1;" horiz-adv-x="634" 
d="M560 373h-189l1 -184h-110l1 184h-189v107l189 -1l-1 185h110l-1 -185l189 1v-107zM560 0h-486v103h486v-103z" />
    <glyph glyph-name="two.sup" unicode="&#xb2;" 
d="M55 421v62l137 116q39 32 55 53.5t16 45.5t-17.5 39.5t-43.5 15.5q-50 0 -93 -59l-52 41q30 42 64.5 63.5t84.5 21.5q59 0 96 -32.5t37 -83.5q0 -39 -19 -69t-66 -68l-100 -82h188v-64h-287z" />
    <glyph glyph-name="three.sup" unicode="&#xb3;" 
d="M197 411q-89 0 -153 64l45 53q49 -51 109 -51q28 0 48 16t20 42q0 27 -23 42t-61 15h-42l-12 46l113 106h-172v66h264v-57l-116 -106q54 -5 88 -32.5t34 -77.5q0 -56 -39 -91t-103 -35z" />
    <glyph glyph-name="acute" unicode="&#xb4;" horiz-adv-x="500" 
d="M162 595l104 164l110 -49l-123 -115h-91z" />
    <glyph glyph-name="mu" unicode="&#xb5;" horiz-adv-x="668" 
d="M646 98v-95q-36 -10 -70 -10q-100 0 -127 75q-50 -76 -131 -76q-45 0 -82 21.5t-55 61.5h-2q16 -86 16 -122v-113h-120v688h122v-300q0 -61 32 -96.5t85 -35.5q54 0 86.5 36t32.5 96v300h121v-370q0 -64 58 -64q16 0 34 4z" />
    <glyph glyph-name="paragraph" unicode="&#xb6;" horiz-adv-x="557" 
d="M346 0v244h-18q-128 0 -208 59t-80 167v2q0 106 74.5 167t196.5 61h159v-700h-124z" />
    <glyph glyph-name="periodcentered" unicode="&#xb7;" horiz-adv-x="269" 
d="M68 237v138h133v-138h-133z" />
    <glyph glyph-name="cedilla" unicode="&#xb8;" horiz-adv-x="500" 
d="M237 -166l-106 45l94 138h90z" />
    <glyph glyph-name="one.sup" unicode="&#xb9;" horiz-adv-x="325" 
d="M222 421h-72v318l-79 -30l-20 61l116 45h55v-394z" />
    <glyph glyph-name="ordmasculine" unicode="&#xba;" horiz-adv-x="390" 
d="M194 402q-65 0 -107.5 43.5t-42.5 106.5v2q0 63 43.5 107t108.5 44t107.5 -43.5t42.5 -106.5v-2q0 -63 -43.5 -107t-108.5 -44zM51 282v58h288v-58h-288zM196 464q35 0 57.5 25.5t22.5 62.5v2q0 37 -23.5 63t-58.5 26t-57.5 -25.5t-22.5 -62.5v-2q0 -37 23.5 -63
t58.5 -26z" />
    <glyph glyph-name="guillemotright" unicode="&#xbb;" horiz-adv-x="606" 
d="M389 42l-85 44l125 177l-125 178l85 45l173 -218v-8zM138 42l-86 44l126 177l-126 178l86 45l172 -218v-8z" />
    <glyph glyph-name="onequarter" unicode="&#xbc;" horiz-adv-x="825" 
d="M733 83v-85h-67v85h-188l-10 67l190 243h75v-252h53v-58h-53zM127 0l251 364l224 336h71l-251 -364l-224 -336h-71zM221 311h-72v318l-79 -30l-20 61l116 46h55v-395zM667 141v172l-133 -172h133z" />
    <glyph glyph-name="onehalf" unicode="&#xbd;" horiz-adv-x="825" 
d="M490 0v62l137 116q39 32 55 53.5t16 45.5t-17.5 39.5t-43.5 15.5q-50 0 -93 -59l-52 41q30 42 64.5 63.5t84.5 21.5q59 0 96 -32.5t37 -83.5q0 -39 -19 -69t-66 -68l-100 -82h188v-64h-287zM117 0l251 364l224 336h71l-251 -364l-224 -336h-71zM221 311h-72v318l-79 -30
l-20 61l116 46h55v-395z" />
    <glyph glyph-name="threequarters" unicode="&#xbe;" horiz-adv-x="900" 
d="M808 83v-85h-67v85h-188l-10 67l190 243h75v-252h53v-58h-53zM197 301q-87 0 -153 64l45 53q49 -51 109 -51q28 0 48 16t20 42q0 28 -23 42.5t-61 14.5h-42l-12 46l113 106h-172v66h264v-57l-116 -106q54 -4 88 -32t34 -78q0 -56 -39 -91t-103 -35zM197 0l251 364
l224 336h71l-251 -364l-224 -336h-71zM742 141v172l-133 -172h133z" />
    <glyph glyph-name="questiondown" unicode="&#xbf;" horiz-adv-x="541" 
d="M229 562v138h134v-138h-134zM276 -9q-106 0 -170.5 55t-64.5 148v2q0 167 202 202l10 80h81l20 -162l-5 -5q-184 -6 -184 -111v-2q0 -43 30.5 -69t83.5 -26q89 0 163 79l75 -80q-98 -111 -241 -111z" />
    <glyph glyph-name="Agrave" unicode="&#xc0;" horiz-adv-x="790" 
d="M30 0l308 705h114l308 -705h-130l-71 169h-331l-72 -169h-126zM273 278h241l-121 280zM444 768h-95l-127 97l109 48z" />
    <glyph glyph-name="Aacute" unicode="&#xc1;" horiz-adv-x="790" 
d="M30 0l308 705h114l308 -705h-130l-71 169h-331l-72 -169h-126zM273 278h241l-121 280zM345 768l112 145l110 -48l-128 -97h-94z" />
    <glyph glyph-name="Acircumflex" unicode="&#xc2;" horiz-adv-x="790" 
d="M30 0l308 705h114l308 -705h-130l-71 169h-331l-72 -169h-126zM273 278h241l-121 280zM217 764l121 135h114l121 -135h-102l-77 57l-77 -57h-100z" />
    <glyph glyph-name="Atilde" unicode="&#xc3;" horiz-adv-x="790" 
d="M30 0l308 705h114l308 -705h-130l-71 169h-331l-72 -169h-126zM273 278h241l-121 280zM478 768q-33 0 -89 22q-42 17 -58 17q-21 0 -32.5 -11t-23.5 -38l-67 21q17 62 42.5 92.5t69.5 30.5q30 0 89 -23q44 -16 58 -16q21 0 32.5 11t22.5 37l68 -20q-18 -62 -43.5 -92.5
t-68.5 -30.5z" />
    <glyph glyph-name="Adieresis" unicode="&#xc4;" horiz-adv-x="790" 
d="M30 0l308 705h114l308 -705h-130l-71 169h-331l-72 -169h-126zM273 278h241l-121 280zM435 768v112h125v-112h-125zM230 768v112h125v-112h-125z" />
    <glyph glyph-name="Aring" unicode="&#xc5;" horiz-adv-x="790" 
d="M30 0l289 664q-43 31 -43 81q0 46 35 76t84 30t84 -30t35 -76q0 -50 -43 -81l289 -664h-130l-71 169h-331l-72 -169h-126zM273 278h241l-121 280zM395 687q28 0 46 17t18 41q0 25 -18 41.5t-46 16.5t-46 -16.5t-18 -41.5q0 -24 18 -41t46 -17z" />
    <glyph glyph-name="AE" unicode="&#xc6;" horiz-adv-x="1045" 
d="M12 0l391 700h581v-110h-374v-182h329v-111h-329v-187h379v-110h-502v169h-254l-94 -169h-127zM291 278h196v315h-20z" />
    <glyph glyph-name="Ccedilla" unicode="&#xc7;" horiz-adv-x="739" 
d="M371 -166l-106 45l78 116q-125 23 -204.5 121.5t-79.5 231.5v2q0 152 102 257t258 105q91 0 155 -28t120 -81l-79 -91q-94 86 -197 86q-98 0 -164 -71.5t-66 -174.5v-2q0 -104 66 -176t165 -72q61 0 106.5 22t94.5 68l79 -80q-56 -58 -117 -88.5t-145 -34.5z" />
    <glyph glyph-name="Egrave" unicode="&#xc8;" horiz-adv-x="670" 
d="M401 758h-95l-127 97l109 48zM90 0v700h519v-110h-396v-182h351v-111h-351v-187h401v-110h-524z" />
    <glyph glyph-name="Eacute" unicode="&#xc9;" horiz-adv-x="670" 
d="M302 758l112 145l110 -48l-128 -97h-94zM90 0v700h519v-110h-396v-182h351v-111h-351v-187h401v-110h-524z" />
    <glyph glyph-name="Ecircumflex" unicode="&#xca;" horiz-adv-x="670" 
d="M90 0v700h519v-110h-396v-182h351v-111h-351v-187h401v-110h-524zM173 758l121 135h114l121 -135h-102l-77 57l-77 -57h-100z" />
    <glyph glyph-name="Edieresis" unicode="&#xcb;" horiz-adv-x="670" 
d="M391 758v112h125v-112h-125zM186 758v112h125v-112h-125zM90 0v700h519v-110h-396v-182h351v-111h-351v-187h401v-110h-524z" />
    <glyph glyph-name="Igrave" unicode="&#xcc;" horiz-adv-x="317" 
d="M97 0v700h123v-700h-123zM209 758h-95l-127 97l109 48z" />
    <glyph glyph-name="Iacute" unicode="&#xcd;" horiz-adv-x="317" 
d="M97 0v700h123v-700h-123zM110 758l112 145l110 -48l-128 -97h-94z" />
    <glyph glyph-name="Icircumflex" unicode="&#xce;" horiz-adv-x="317" 
d="M97 0v700h123v-700h-123zM-19 758l121 135h114l121 -135h-102l-77 57l-77 -57h-100z" />
    <glyph glyph-name="Idieresis" unicode="&#xcf;" horiz-adv-x="317" 
d="M97 0v700h123v-700h-123zM199 758v112h125v-112h-125zM-6 758v112h125v-112h-125z" />
    <glyph glyph-name="Eth" unicode="&#xd0;" horiz-adv-x="812" 
d="M45 308v88h75v304h261q163 0 267.5 -99.5t104.5 -248.5v-2q0 -150 -104.5 -250t-267.5 -100h-261v308h-75zM624 348v2q0 104 -67 171t-176 67h-138v-192h175v-88h-175v-196h138q109 0 176 66t67 170z" />
    <glyph glyph-name="Ntilde" unicode="&#xd1;" horiz-adv-x="790" 
d="M478 757q-33 0 -89 22q-42 17 -58 17q-21 0 -32.5 -11t-23.5 -38l-67 21q17 62 42.5 92.5t69.5 30.5q30 0 89 -23q44 -16 58 -16q21 0 32.5 11t22.5 37l68 -20q-18 -62 -43.5 -92.5t-68.5 -30.5zM90 0v700h114l375 -484v484h121v-700h-103l-386 498v-498h-121z" />
    <glyph glyph-name="Ograve" unicode="&#xd2;" horiz-adv-x="850" 
d="M474 768h-95l-127 97l109 48zM424 -12q-159 0 -262 105t-103 255v2q0 150 104 256t263 106t262 -105t103 -255v-2q0 -150 -104 -256t-263 -106zM426 102q103 0 169.5 71t66.5 175v2q0 104 -67.5 176t-170.5 72t-169.5 -71t-66.5 -175v-2q0 -104 67.5 -176t170.5 -72z" />
    <glyph glyph-name="Oacute" unicode="&#xd3;" horiz-adv-x="850" 
d="M375 768l112 145l110 -48l-128 -97h-94zM424 -12q-159 0 -262 105t-103 255v2q0 150 104 256t263 106t262 -105t103 -255v-2q0 -150 -104 -256t-263 -106zM426 102q103 0 169.5 71t66.5 175v2q0 104 -67.5 176t-170.5 72t-169.5 -71t-66.5 -175v-2q0 -104 67.5 -176
t170.5 -72z" />
    <glyph glyph-name="Ocircumflex" unicode="&#xd4;" horiz-adv-x="850" 
d="M424 -12q-159 0 -262 105t-103 255v2q0 150 104 256t263 106t262 -105t103 -255v-2q0 -150 -104 -256t-263 -106zM426 102q103 0 169.5 71t66.5 175v2q0 104 -67.5 176t-170.5 72t-169.5 -71t-66.5 -175v-2q0 -104 67.5 -176t170.5 -72zM247 768l121 135h114l121 -135
h-102l-77 57l-77 -57h-100z" />
    <glyph glyph-name="Otilde" unicode="&#xd5;" horiz-adv-x="850" 
d="M508 768q-33 0 -89 22q-42 17 -58 17q-21 0 -32.5 -11t-23.5 -38l-67 21q17 62 42.5 92.5t69.5 30.5q30 0 89 -23q44 -16 58 -16q21 0 32.5 11t22.5 37l68 -20q-18 -62 -43.5 -92.5t-68.5 -30.5zM424 -12q-159 0 -262 105t-103 255v2q0 150 104 256t263 106t262 -105
t103 -255v-2q0 -150 -104 -256t-263 -106zM426 102q103 0 169.5 71t66.5 175v2q0 104 -67.5 176t-170.5 72t-169.5 -71t-66.5 -175v-2q0 -104 67.5 -176t170.5 -72z" />
    <glyph glyph-name="Odieresis" unicode="&#xd6;" horiz-adv-x="850" 
d="M465 768v112h125v-112h-125zM260 768v112h125v-112h-125zM424 -12q-159 0 -262 105t-103 255v2q0 150 104 256t263 106t262 -105t103 -255v-2q0 -150 -104 -256t-263 -106zM426 102q103 0 169.5 71t66.5 175v2q0 104 -67.5 176t-170.5 72t-169.5 -71t-66.5 -175v-2
q0 -104 67.5 -176t170.5 -72z" />
    <glyph glyph-name="multiply" unicode="&#xd7;" horiz-adv-x="634" 
d="M479 113l-163 166l-163 -166l-75 75l166 163l-166 163l77 77l163 -166l163 166l75 -75l-166 -163l166 -163z" />
    <glyph glyph-name="Oslash" unicode="&#xd8;" horiz-adv-x="850" 
d="M678 705h121l-99 -112q91 -100 91 -241v-2q0 -150 -104 -256t-263 -106q-116 0 -205 58l-47 -51h-121l98 112q-90 101 -90 241v2q0 150 104 256t263 106q113 0 204 -59zM426 99q103 0 170.5 72.5t67.5 176.5v1q0 85 -47 152l-321 -364q57 -38 130 -38zM186 351
q0 -85 46 -152l322 364q-59 38 -130 38q-103 0 -170.5 -72.5t-67.5 -176.5v-1z" />
    <glyph glyph-name="Ugrave" unicode="&#xd9;" horiz-adv-x="757" 
d="M428 757h-95l-127 97l109 48zM377 -11q-139 0 -218.5 79t-79.5 229v403h123v-398q0 -96 46.5 -147.5t130.5 -51.5q83 0 129.5 49.5t46.5 144.5v403h123v-397q0 -153 -80 -233.5t-221 -80.5z" />
    <glyph glyph-name="Uacute" unicode="&#xda;" horiz-adv-x="757" 
d="M329 757l112 145l110 -48l-128 -97h-94zM377 -11q-139 0 -218.5 79t-79.5 229v403h123v-398q0 -96 46.5 -147.5t130.5 -51.5q83 0 129.5 49.5t46.5 144.5v403h123v-397q0 -153 -80 -233.5t-221 -80.5z" />
    <glyph glyph-name="Ucircumflex" unicode="&#xdb;" horiz-adv-x="757" 
d="M377 -11q-139 0 -218.5 79t-79.5 229v403h123v-398q0 -96 46.5 -147.5t130.5 -51.5q83 0 129.5 49.5t46.5 144.5v403h123v-397q0 -153 -80 -233.5t-221 -80.5zM200 757l121 135h114l121 -135h-102l-77 57l-77 -57h-100z" />
    <glyph glyph-name="Udieresis" unicode="&#xdc;" horiz-adv-x="757" 
d="M418 757v112h125v-112h-125zM213 757v112h125v-112h-125zM377 -11q-139 0 -218.5 79t-79.5 229v403h123v-398q0 -96 46.5 -147.5t130.5 -51.5q83 0 129.5 49.5t46.5 144.5v403h123v-397q0 -153 -80 -233.5t-221 -80.5z" />
    <glyph glyph-name="Yacute" unicode="&#xdd;" horiz-adv-x="716" 
d="M296 0v276l-278 424h146l195 -309l198 309h141l-278 -421v-279h-124zM308 757l112 145l110 -48l-128 -97h-94z" />
    <glyph glyph-name="Thorn" unicode="&#xde;" horiz-adv-x="668" 
d="M90 0v700h123v-109h153q122 0 194 -64t72 -170v-2q0 -114 -79.5 -177t-200.5 -63h-139v-115h-123zM213 226h143q69 0 110 35t41 91v2q0 60 -40.5 92.5t-110.5 32.5h-143v-253z" />
    <glyph glyph-name="germandbls" unicode="&#xdf;" horiz-adv-x="620" 
d="M296 -2v93q74 2 114 30t40 78v2q0 47 -41.5 76t-112.5 38v82q113 55 113 139v2q0 43 -27.5 69.5t-73.5 26.5q-50 0 -81 -35t-31 -93v-506h-121v502q0 108 64.5 171.5t174.5 63.5q99 0 157.5 -53.5t58.5 -134.5v-2q0 -110 -111 -171q152 -51 152 -178v-2q0 -96 -74 -149
t-201 -49z" />
    <glyph glyph-name="agrave" unicode="&#xe0;" horiz-adv-x="587" 
d="M228 -11q-79 0 -133.5 43.5t-54.5 119.5v2q0 83 59.5 126.5t159.5 43.5q73 0 142 -22v13q0 56 -33.5 85.5t-97.5 29.5q-72 0 -151 -33l-33 95q98 43 200 43q118 0 175 -59q57 -56 57 -163v-313h-118v66q-64 -77 -172 -77zM262 77q61 0 101 31.5t40 81.5v36
q-54 21 -120 21q-58 0 -91 -23.5t-33 -64.5v-2q0 -37 29 -58.5t74 -21.5zM251 595l-123 115l110 49l104 -164h-91z" />
    <glyph glyph-name="aacute" unicode="&#xe1;" horiz-adv-x="587" 
d="M228 -11q-79 0 -133.5 43.5t-54.5 119.5v2q0 83 59.5 126.5t159.5 43.5q73 0 142 -22v13q0 56 -33.5 85.5t-97.5 29.5q-72 0 -151 -33l-33 95q98 43 200 43q118 0 175 -59q57 -56 57 -163v-313h-118v66q-64 -77 -172 -77zM262 77q61 0 101 31.5t40 81.5v36
q-54 21 -120 21q-58 0 -91 -23.5t-33 -64.5v-2q0 -37 29 -58.5t74 -21.5zM246 595l104 164l110 -49l-123 -115h-91z" />
    <glyph glyph-name="acircumflex" unicode="&#xe2;" horiz-adv-x="587" 
d="M228 -11q-79 0 -133.5 43.5t-54.5 119.5v2q0 83 59.5 126.5t159.5 43.5q73 0 142 -22v13q0 56 -33.5 85.5t-97.5 29.5q-72 0 -151 -33l-33 95q98 43 200 43q118 0 175 -59q57 -56 57 -163v-313h-118v66q-64 -77 -172 -77zM262 77q61 0 101 31.5t40 81.5v36
q-54 21 -120 21q-58 0 -91 -23.5t-33 -64.5v-2q0 -37 29 -58.5t74 -21.5zM121 595l117 147h112l117 -147h-96l-78 67l-78 -67h-94z" />
    <glyph glyph-name="atilde" unicode="&#xe3;" horiz-adv-x="587" 
d="M228 -11q-79 0 -133.5 43.5t-54.5 119.5v2q0 83 59.5 126.5t159.5 43.5q73 0 142 -22v13q0 56 -33.5 85.5t-97.5 29.5q-72 0 -151 -33l-33 95q98 43 200 43q118 0 175 -59q57 -56 57 -163v-313h-118v66q-64 -77 -172 -77zM262 77q61 0 101 31.5t40 81.5v36
q-54 21 -120 21q-58 0 -91 -23.5t-33 -64.5v-2q0 -37 29 -58.5t74 -21.5zM376 595q-32 0 -84 21q-42 19 -60 19q-20 0 -31.5 -11t-23.5 -39l-67 21q17 64 42.5 94t69.5 30q32 0 84 -21q42 -19 60 -19q20 0 31.5 11t23.5 39l67 -20q-17 -64 -42.5 -94.5t-69.5 -30.5z" />
    <glyph glyph-name="adieresis" unicode="&#xe4;" horiz-adv-x="587" 
d="M228 -11q-79 0 -133.5 43.5t-54.5 119.5v2q0 83 59.5 126.5t159.5 43.5q73 0 142 -22v13q0 56 -33.5 85.5t-97.5 29.5q-72 0 -151 -33l-33 95q98 43 200 43q118 0 175 -59q57 -56 57 -163v-313h-118v66q-64 -77 -172 -77zM262 77q61 0 101 31.5t40 81.5v36
q-54 21 -120 21q-58 0 -91 -23.5t-33 -64.5v-2q0 -37 29 -58.5t74 -21.5zM330 595v119h123v-119h-123zM135 595v119h123v-119h-123z" />
    <glyph glyph-name="aring" unicode="&#xe5;" horiz-adv-x="587" 
d="M228 -11q-79 0 -133.5 43.5t-54.5 119.5v2q0 83 59.5 126.5t159.5 43.5q73 0 142 -22v13q0 56 -33.5 85.5t-97.5 29.5q-72 0 -151 -33l-33 95q98 43 200 43q118 0 175 -59q57 -56 57 -163v-313h-118v66q-64 -77 -172 -77zM262 77q61 0 101 31.5t40 81.5v36
q-54 21 -120 21q-58 0 -91 -23.5t-33 -64.5v-2q0 -37 29 -58.5t74 -21.5zM294 593q-48 0 -82 33t-34 79t34 79t82 33t82 -33t34 -79t-34 -79t-82 -33zM294 638q28 0 47.5 19.5t19.5 47.5t-19.5 47.5t-47.5 19.5t-47.5 -19.5t-19.5 -47.5t19.5 -47.5t47.5 -19.5z" />
    <glyph glyph-name="ae" unicode="&#xe6;" horiz-adv-x="952" 
d="M239 -11q-85 0 -142 44t-57 119v2q0 83 59 126.5t158 43.5q69 0 140 -22v13q0 56 -33 85.5t-96 29.5q-70 0 -149 -33l-33 95q98 43 198 43q135 0 186 -86q69 90 185 90q118 0 184 -81.5t66 -202.5q0 -22 -1 -34h-388q10 -63 51 -98.5t100 -35.5q79 0 144 63l71 -63
q-84 -99 -217 -99q-127 0 -204 90q-105 -89 -222 -89zM514 301h272q-7 62 -41.5 100.5t-92.5 38.5q-55 0 -92.5 -38.5t-45.5 -100.5zM260 78q84 0 157 68q-16 38 -20 81q-56 20 -116 20q-58 0 -90 -23.5t-32 -64.5v-2q0 -36 29 -57.5t72 -21.5z" />
    <glyph glyph-name="ccedilla" unicode="&#xe7;" horiz-adv-x="571" 
d="M276 -166l-106 45l80 118q-91 22 -147 95.5t-56 168.5v2q0 114 78.5 195t196.5 81q127 0 211 -91l-76 -81q-64 66 -136 66q-65 0 -109 -49t-44 -119v-2q0 -71 44.5 -120t113.5 -49q72 0 137 65l73 -72q-82 -92 -194 -98z" />
    <glyph glyph-name="egrave" unicode="&#xe8;" horiz-adv-x="604" 
d="M318 -12q-116 0 -193.5 76.5t-77.5 197.5v2q0 115 73 195t185 80q120 0 186.5 -81.5t66.5 -202.5q0 -10 -2 -34h-388q10 -63 51 -98.5t101 -35.5q78 0 143 63l71 -63q-82 -99 -216 -99zM167 301h271q-6 61 -41 100t-93 39q-55 0 -92 -38.5t-45 -100.5zM260 595l-123 115
l110 49l104 -164h-91z" />
    <glyph glyph-name="eacute" unicode="&#xe9;" horiz-adv-x="604" 
d="M255 595l104 164l110 -49l-123 -115h-91zM318 -12q-116 0 -193.5 76.5t-77.5 197.5v2q0 115 73 195t185 80q120 0 186.5 -81.5t66.5 -202.5q0 -10 -2 -34h-388q10 -63 51 -98.5t101 -35.5q78 0 143 63l71 -63q-82 -99 -216 -99zM167 301h271q-6 61 -41 100t-93 39
q-55 0 -92 -38.5t-45 -100.5z" />
    <glyph glyph-name="ecircumflex" unicode="&#xea;" horiz-adv-x="604" 
d="M130 595l117 147h112l117 -147h-96l-78 67l-78 -67h-94zM318 -12q-116 0 -193.5 76.5t-77.5 197.5v2q0 115 73 195t185 80q120 0 186.5 -81.5t66.5 -202.5q0 -10 -2 -34h-388q10 -63 51 -98.5t101 -35.5q78 0 143 63l71 -63q-82 -99 -216 -99zM167 301h271q-6 61 -41 100
t-93 39q-55 0 -92 -38.5t-45 -100.5z" />
    <glyph glyph-name="edieresis" unicode="&#xeb;" horiz-adv-x="604" 
d="M339 595v119h123v-119h-123zM144 595v119h123v-119h-123zM318 -12q-116 0 -193.5 76.5t-77.5 197.5v2q0 115 73 195t185 80q120 0 186.5 -81.5t66.5 -202.5q0 -10 -2 -34h-388q10 -63 51 -98.5t101 -35.5q78 0 143 63l71 -63q-82 -99 -216 -99zM167 301h271
q-6 61 -41 100t-93 39q-55 0 -92 -38.5t-45 -100.5z" />
    <glyph glyph-name="igrave" unicode="&#xec;" horiz-adv-x="286" 
d="M82 0v528h122v-528h-122zM100 595l-123 115l110 49l104 -164h-91z" />
    <glyph glyph-name="iacute" unicode="&#xed;" horiz-adv-x="286" 
d="M95 595l104 164l110 -49l-123 -115h-91zM82 0v528h122v-528h-122z" />
    <glyph glyph-name="icircumflex" unicode="&#xee;" horiz-adv-x="286" 
d="M-30 595l117 147h112l117 -147h-96l-78 67l-78 -67h-94zM82 0v528h122v-528h-122z" />
    <glyph glyph-name="idieresis" unicode="&#xef;" horiz-adv-x="286" 
d="M179 595v119h123v-119h-123zM-16 595v119h123v-119h-123zM82 0v528h122v-528h-122z" />
    <glyph glyph-name="eth" unicode="&#xf0;" horiz-adv-x="657" 
d="M519 666l-79 -25q169 -171 169 -352v-2q0 -128 -77.5 -213.5t-205.5 -85.5q-119 0 -199 80.5t-80 199.5v2q0 109 70.5 183t169.5 74q75 0 146 -50q-35 59 -106 129l-121 -37l-24 67l84 25q-32 27 -88 69h164l39 -33l114 35zM329 94q71 0 115 47.5t44 118.5v2
q0 70 -45.5 117.5t-117.5 47.5q-71 0 -114 -46.5t-43 -117.5v-2q0 -69 46 -118t115 -49z" />
    <glyph glyph-name="ntilde" unicode="&#xf1;" horiz-adv-x="620" 
d="M75 0v528h122v-81q64 92 165 92q88 0 138 -54.5t50 -147.5v-337h-121v300q0 62 -29.5 95.5t-83.5 33.5q-53 0 -86 -35t-33 -96v-298h-122zM393 595q-31 0 -84 21q-42 19 -60 19q-21 0 -32 -11t-23 -39l-67 21q17 64 42.5 94t69.5 30q31 0 84 -21q42 -19 60 -19
q21 0 32 11t23 39l67 -20q-17 -64 -42.5 -94.5t-69.5 -30.5z" />
    <glyph glyph-name="ograve" unicode="&#xf2;" horiz-adv-x="657" 
d="M327 -12q-120 0 -200 79.5t-80 193.5v2q0 115 81 195.5t201 80.5t200.5 -80t80.5 -194v-2q0 -114 -81 -194.5t-202 -80.5zM329 94q72 0 116 48.5t44 118.5v2q0 71 -46 120.5t-116 49.5q-71 0 -115 -48.5t-44 -119.5v-2q0 -70 46 -119.5t115 -49.5zM285 595l-123 115
l110 49l104 -164h-91z" />
    <glyph glyph-name="oacute" unicode="&#xf3;" horiz-adv-x="657" 
d="M280 595l104 164l110 -49l-123 -115h-91zM327 -12q-120 0 -200 79.5t-80 193.5v2q0 115 81 195.5t201 80.5t200.5 -80t80.5 -194v-2q0 -114 -81 -194.5t-202 -80.5zM329 94q72 0 116 48.5t44 118.5v2q0 71 -46 120.5t-116 49.5q-71 0 -115 -48.5t-44 -119.5v-2
q0 -70 46 -119.5t115 -49.5z" />
    <glyph glyph-name="ocircumflex" unicode="&#xf4;" horiz-adv-x="657" 
d="M155 595l117 147h112l117 -147h-96l-78 67l-78 -67h-94zM327 -12q-120 0 -200 79.5t-80 193.5v2q0 115 81 195.5t201 80.5t200.5 -80t80.5 -194v-2q0 -114 -81 -194.5t-202 -80.5zM329 94q72 0 116 48.5t44 118.5v2q0 71 -46 120.5t-116 49.5q-71 0 -115 -48.5
t-44 -119.5v-2q0 -70 46 -119.5t115 -49.5z" />
    <glyph glyph-name="otilde" unicode="&#xf5;" horiz-adv-x="657" 
d="M327 -12q-120 0 -200 79.5t-80 193.5v2q0 115 81 195.5t201 80.5t200.5 -80t80.5 -194v-2q0 -114 -81 -194.5t-202 -80.5zM329 94q72 0 116 48.5t44 118.5v2q0 71 -46 120.5t-116 49.5q-71 0 -115 -48.5t-44 -119.5v-2q0 -70 46 -119.5t115 -49.5zM409 595q-31 0 -84 21
q-42 19 -60 19q-21 0 -32 -11t-23 -39l-67 21q17 64 42.5 94t69.5 30q31 0 84 -21q42 -19 60 -19q21 0 32 11t23 39l67 -20q-17 -64 -42.5 -94.5t-69.5 -30.5z" />
    <glyph glyph-name="odieresis" unicode="&#xf6;" horiz-adv-x="657" 
d="M364 595v119h123v-119h-123zM169 595v119h123v-119h-123zM327 -12q-120 0 -200 79.5t-80 193.5v2q0 115 81 195.5t201 80.5t200.5 -80t80.5 -194v-2q0 -114 -81 -194.5t-202 -80.5zM329 94q72 0 116 48.5t44 118.5v2q0 71 -46 120.5t-116 49.5q-71 0 -115 -48.5
t-44 -119.5v-2q0 -70 46 -119.5t115 -49.5z" />
    <glyph glyph-name="divide" unicode="&#xf7;" horiz-adv-x="634" 
d="M250 496v128h134v-128h-134zM566 300h-498v104h498v-104zM250 80v128h134v-128h-134z" />
    <glyph glyph-name="oslash" unicode="&#xf8;" horiz-adv-x="657" 
d="M515 534h110l-81 -91q66 -75 66 -178v-2q0 -114 -81 -194.5t-202 -80.5q-85 0 -152 42l-33 -35h-110l80 89q-65 75 -65 177v2q0 115 81 195.5t201 80.5q83 0 152 -42zM329 90q73 0 118 49.5t45 121.5v2q0 50 -26 94l-219 -245q36 -22 82 -22zM165 264q0 -52 26 -95
l219 244q-37 23 -83 23q-72 0 -117 -49.5t-45 -121.5v-1z" />
    <glyph glyph-name="ugrave" unicode="&#xf9;" horiz-adv-x="620" 
d="M258 -11q-88 0 -138 55t-50 148v336h121v-300q0 -61 29.5 -94.5t83.5 -33.5q53 0 86 34.5t33 95.5v298h122v-528h-122v82q-63 -93 -165 -93zM263 595l-123 115l110 49l104 -164h-91z" />
    <glyph glyph-name="uacute" unicode="&#xfa;" horiz-adv-x="620" 
d="M258 595l104 164l110 -49l-123 -115h-91zM258 -11q-88 0 -138 55t-50 148v336h121v-300q0 -61 29.5 -94.5t83.5 -33.5q53 0 86 34.5t33 95.5v298h122v-528h-122v82q-63 -93 -165 -93z" />
    <glyph glyph-name="ucircumflex" unicode="&#xfb;" horiz-adv-x="620" 
d="M133 595l117 147h112l117 -147h-96l-78 67l-78 -67h-94zM258 -11q-88 0 -138 55t-50 148v336h121v-300q0 -61 29.5 -94.5t83.5 -33.5q53 0 86 34.5t33 95.5v298h122v-528h-122v82q-63 -93 -165 -93z" />
    <glyph glyph-name="udieresis" unicode="&#xfc;" horiz-adv-x="620" 
d="M342 595v119h123v-119h-123zM147 595v119h123v-119h-123zM258 -11q-88 0 -138 55t-50 148v336h121v-300q0 -61 29.5 -94.5t83.5 -33.5q53 0 86 34.5t33 95.5v298h122v-528h-122v82q-63 -93 -165 -93z" />
    <glyph glyph-name="yacute" unicode="&#xfd;" horiz-adv-x="596" 
d="M304 136l138 392h126l-210 -542q-31 -82 -70.5 -115.5t-103.5 -33.5q-67 0 -125 33l41 89q37 -20 71 -20q26 0 43 13.5t32 46.5l-220 529h130zM250 595l104 164l110 -49l-123 -115h-91z" />
    <glyph glyph-name="thorn" unicode="&#xfe;" horiz-adv-x="671" 
d="M75 -160v890h122v-290q70 99 180 99q99 0 172 -74t73 -200v-2q0 -125 -72.5 -199.5t-172.5 -74.5q-110 0 -180 93v-242h-122zM348 94q64 0 107.5 46.5t43.5 122.5v2q0 75 -44 122t-107 47t-108.5 -47.5t-45.5 -121.5v-2q0 -74 45.5 -121.5t108.5 -47.5z" />
    <glyph glyph-name="ydieresis" unicode="&#xff;" horiz-adv-x="596" 
d="M304 136l138 392h126l-210 -542q-31 -82 -70.5 -115.5t-103.5 -33.5q-67 0 -125 33l41 89q37 -20 71 -20q26 0 43 13.5t32 46.5l-220 529h130zM334 595v119h123v-119h-123zM139 595v119h123v-119h-123z" />
    <glyph glyph-name="Amacron" unicode="&#x100;" horiz-adv-x="790" 
d="M30 0l308 705h114l308 -705h-130l-71 169h-331l-72 -169h-126zM273 278h241l-121 280zM215 779v90h360v-90h-360z" />
    <glyph glyph-name="amacron" unicode="&#x101;" horiz-adv-x="587" 
d="M228 -11q-79 0 -133.5 43.5t-54.5 119.5v2q0 83 59.5 126.5t159.5 43.5q73 0 142 -22v13q0 56 -33.5 85.5t-97.5 29.5q-72 0 -151 -33l-33 95q98 43 200 43q118 0 175 -59q57 -56 57 -163v-313h-118v66q-64 -77 -172 -77zM262 77q61 0 101 31.5t40 81.5v36
q-54 21 -120 21q-58 0 -91 -23.5t-33 -64.5v-2q0 -37 29 -58.5t74 -21.5zM124 606v88h340v-88h-340z" />
    <glyph glyph-name="Abreve" unicode="&#x102;" horiz-adv-x="790" 
d="M30 0l308 705h114l308 -705h-130l-71 169h-331l-72 -169h-126zM273 278h241l-121 280zM395 766q-73 0 -120 35.5t-53 98.5h86q19 -50 87 -50t87 50h86q-6 -63 -53 -98.5t-120 -35.5z" />
    <glyph glyph-name="abreve" unicode="&#x103;" horiz-adv-x="587" 
d="M228 -11q-79 0 -133.5 43.5t-54.5 119.5v2q0 83 59.5 126.5t159.5 43.5q73 0 142 -22v13q0 56 -33.5 85.5t-97.5 29.5q-72 0 -151 -33l-33 95q98 43 200 43q118 0 175 -59q57 -56 57 -163v-313h-118v66q-64 -77 -172 -77zM262 77q61 0 101 31.5t40 81.5v36
q-54 21 -120 21q-58 0 -91 -23.5t-33 -64.5v-2q0 -37 29 -58.5t74 -21.5zM294 593q-73 0 -119.5 38.5t-52.5 106.5h84q20 -61 88 -61t88 61h84q-6 -68 -52.5 -106.5t-119.5 -38.5z" />
    <glyph glyph-name="Aogonek" unicode="&#x104;" horiz-adv-x="790" 
d="M768 -106v-58q-24 -2 -32 -2q-63 1 -97.5 24t-34.5 61q0 39 40 81h-14l-71 169h-331l-72 -169h-126l308 705h114l308 -705h-31q-33 -33 -33 -63q0 -43 72 -43zM273 278h241l-121 280z" />
    <glyph glyph-name="aogonek" unicode="&#x105;" horiz-adv-x="587" 
d="M525 -106v-58q-24 -2 -32 -2q-63 1 -97.5 24t-34.5 61q0 39 40 81h-1v66q-64 -77 -172 -77q-79 0 -133.5 43.5t-54.5 119.5v2q0 83 59.5 126.5t159.5 43.5q73 0 142 -22v13q0 56 -33.5 85.5t-97.5 29.5q-72 0 -151 -33l-33 95q98 43 200 43q118 0 175 -59q57 -56 57 -163
v-313h-32q-33 -33 -33 -63q0 -43 72 -43zM262 77q61 0 101 31.5t40 81.5v36q-54 21 -120 21q-58 0 -91 -23.5t-33 -64.5v-2q0 -37 29 -58.5t74 -21.5z" />
    <glyph glyph-name="Cacute" unicode="&#x106;" horiz-adv-x="739" 
d="M415 -12q-153 0 -254.5 104t-101.5 256v2q0 152 102 257t258 105q91 0 155 -28t120 -81l-79 -91q-94 86 -197 86q-98 0 -164 -71.5t-66 -174.5v-2q0 -104 66 -176t165 -72q61 0 106.5 22t94.5 68l79 -80q-59 -62 -125 -93t-159 -31zM359 768l112 145l110 -48l-128 -97
h-94z" />
    <glyph glyph-name="cacute" unicode="&#x107;" horiz-adv-x="571" 
d="M267 595l104 164l110 -49l-123 -115h-91zM320 -12q-117 0 -195 79.5t-78 193.5v2q0 114 78.5 195t196.5 81q127 0 211 -91l-76 -81q-64 66 -136 66q-65 0 -109 -49t-44 -119v-2q0 -71 44.5 -120t113.5 -49q72 0 137 65l73 -72q-43 -48 -93.5 -73.5t-122.5 -25.5z" />
    <glyph glyph-name="Cdotaccent" unicode="&#x10a;" horiz-adv-x="739" 
d="M344 768v112h128v-112h-128zM415 -12q-153 0 -254.5 104t-101.5 256v2q0 152 102 257t258 105q91 0 155 -28t120 -81l-79 -91q-94 86 -197 86q-98 0 -164 -71.5t-66 -174.5v-2q0 -104 66 -176t165 -72q61 0 106.5 22t94.5 68l79 -80q-59 -62 -125 -93t-159 -31z" />
    <glyph glyph-name="cdotaccent" unicode="&#x10b;" horiz-adv-x="571" 
d="M320 -12q-117 0 -195 79.5t-78 193.5v2q0 114 78.5 195t196.5 81q127 0 211 -91l-76 -81q-64 66 -136 66q-65 0 -109 -49t-44 -119v-2q0 -71 44.5 -120t113.5 -49q72 0 137 65l73 -72q-43 -48 -93.5 -73.5t-122.5 -25.5zM252 595v119h126v-119h-126z" />
    <glyph glyph-name="Ccaron" unicode="&#x10c;" horiz-adv-x="739" 
d="M415 -12q-153 0 -254.5 104t-101.5 256v2q0 152 102 257t258 105q91 0 155 -28t120 -81l-79 -91q-94 86 -197 86q-98 0 -164 -71.5t-66 -174.5v-2q0 -104 66 -176t165 -72q61 0 106.5 22t94.5 68l79 -80q-59 -62 -125 -93t-159 -31zM586 903l-121 -135h-114l-121 135h102
l77 -57l77 57h100z" />
    <glyph glyph-name="ccaron" unicode="&#x10d;" horiz-adv-x="571" 
d="M488 742l-117 -147h-112l-117 147h96l78 -67l78 67h94zM320 -12q-117 0 -195 79.5t-78 193.5v2q0 114 78.5 195t196.5 81q127 0 211 -91l-76 -81q-64 66 -136 66q-65 0 -109 -49t-44 -119v-2q0 -71 44.5 -120t113.5 -49q72 0 137 65l73 -72q-43 -48 -93.5 -73.5
t-122.5 -25.5z" />
    <glyph glyph-name="Dcaron" unicode="&#x10e;" horiz-adv-x="782" 
d="M90 0v700h261q163 0 267.5 -99.5t104.5 -248.5v-2q0 -150 -104.5 -250t-267.5 -100h-261zM351 588h-138v-476h138q109 0 176 66t67 170v2q0 104 -67 171t-176 67zM555 893l-121 -135h-114l-121 135h102l77 -57l77 57h100z" />
    <glyph glyph-name="dcaron" unicode="&#x10f;" horiz-adv-x="671" 
d="M651 540l12 190h94v-3l-56 -187h-50zM294 -11q-99 0 -172 74.5t-73 199.5v2q0 126 72.5 200t172.5 74q109 0 180 -93v284h121v-730h-121v88q-70 -99 -180 -99zM323 94q63 0 108 47.5t45 121.5v2q0 74 -45 121.5t-108 47.5q-64 0 -108 -46.5t-44 -122.5v-2
q0 -75 44.5 -122t107.5 -47z" />
    <glyph glyph-name="Dcroat" unicode="&#x110;" horiz-adv-x="812" 
d="M45 308v88h75v304h261q163 0 267.5 -99.5t104.5 -248.5v-2q0 -150 -104.5 -250t-267.5 -100h-261v308h-75zM624 348v2q0 104 -67 171t-176 67h-138v-192h175v-88h-175v-196h138q109 0 176 66t67 170z" />
    <glyph glyph-name="dcroat" unicode="&#x111;" horiz-adv-x="671" 
d="M310 600v74h164v56h121v-56h69v-74h-69v-600h-121v88q-70 -99 -180 -99q-99 0 -172 74.5t-73 199.5v2q0 126 72.5 200t172.5 74q109 0 180 -93v154h-164zM323 94q63 0 108 47.5t45 121.5v2q0 74 -45 121.5t-108 47.5q-64 0 -108 -46.5t-44 -122.5v-2q0 -75 44.5 -122
t107.5 -47z" />
    <glyph glyph-name="Emacron" unicode="&#x112;" horiz-adv-x="670" 
d="M171 769v90h360v-90h-360zM90 0v700h519v-110h-396v-182h351v-111h-351v-187h401v-110h-524z" />
    <glyph glyph-name="emacron" unicode="&#x113;" horiz-adv-x="604" 
d="M318 -12q-116 0 -193.5 76.5t-77.5 197.5v2q0 115 73 195t185 80q120 0 186.5 -81.5t66.5 -202.5q0 -10 -2 -34h-388q10 -63 51 -98.5t101 -35.5q78 0 143 63l71 -63q-82 -99 -216 -99zM167 301h271q-6 61 -41 100t-93 39q-55 0 -92 -38.5t-45 -100.5zM133 606v88h340
v-88h-340z" />
    <glyph glyph-name="Ebreve" unicode="&#x114;" horiz-adv-x="670" 
d="M351 756q-73 0 -120 35.5t-53 98.5h86q19 -50 87 -50t87 50h86q-6 -63 -53 -98.5t-120 -35.5zM90 0v700h519v-110h-396v-182h351v-111h-351v-187h401v-110h-524z" />
    <glyph glyph-name="ebreve" unicode="&#x115;" horiz-adv-x="604" 
d="M318 -12q-116 0 -193.5 76.5t-77.5 197.5v2q0 115 73 195t185 80q120 0 186.5 -81.5t66.5 -202.5q0 -10 -2 -34h-388q10 -63 51 -98.5t101 -35.5q78 0 143 63l71 -63q-82 -99 -216 -99zM167 301h271q-6 61 -41 100t-93 39q-55 0 -92 -38.5t-45 -100.5zM303 593
q-73 0 -119.5 38.5t-52.5 106.5h84q20 -61 88 -61t88 61h84q-6 -68 -52.5 -106.5t-119.5 -38.5z" />
    <glyph glyph-name="Edotaccent" unicode="&#x116;" horiz-adv-x="670" 
d="M287 758v112h128v-112h-128zM90 0v700h519v-110h-396v-182h351v-111h-351v-187h401v-110h-524z" />
    <glyph glyph-name="edotaccent" unicode="&#x117;" horiz-adv-x="604" 
d="M318 -12q-116 0 -193.5 76.5t-77.5 197.5v2q0 115 73 195t185 80q120 0 186.5 -81.5t66.5 -202.5q0 -10 -2 -34h-388q10 -63 51 -98.5t101 -35.5q78 0 143 63l71 -63q-82 -99 -216 -99zM167 301h271q-6 61 -41 100t-93 39q-55 0 -92 -38.5t-45 -100.5zM240 595v119h126
v-119h-126z" />
    <glyph glyph-name="Eogonek" unicode="&#x118;" horiz-adv-x="670" 
d="M90 0v700h519v-110h-396v-182h351v-111h-351v-187h401v-110h-39q-33 -33 -33 -63q0 -43 72 -43v-58q-24 -2 -32 -2q-63 1 -97.5 24t-34.5 61q0 39 40 81h-400z" />
    <glyph glyph-name="eogonek" unicode="&#x119;" horiz-adv-x="604" 
d="M167 301h271q-6 61 -41 100t-93 39q-55 0 -92 -38.5t-45 -100.5zM463 150l71 -63q-27 -31 -58 -58q-55 -49 -55 -87q0 -48 72 -48v-58q-22 -2 -32 -2q-63 1 -97 23.5t-34 58.5t34 76q-26 -4 -46 -4q-116 0 -193.5 76.5t-77.5 197.5v2q0 115 73 195t185 80
q120 0 186.5 -81.5t66.5 -202.5q0 -10 -2 -34h-388q10 -63 51 -98.5t101 -35.5q78 0 143 63z" />
    <glyph glyph-name="Ecaron" unicode="&#x11a;" horiz-adv-x="670" 
d="M529 893l-121 -135h-114l-121 135h102l77 -57l77 57h100zM90 0v700h519v-110h-396v-182h351v-111h-351v-187h401v-110h-524z" />
    <glyph glyph-name="ecaron" unicode="&#x11b;" horiz-adv-x="604" 
d="M476 742l-117 -147h-112l-117 147h96l78 -67l78 67h94zM318 -12q-116 0 -193.5 76.5t-77.5 197.5v2q0 115 73 195t185 80q120 0 186.5 -81.5t66.5 -202.5q0 -10 -2 -34h-388q10 -63 51 -98.5t101 -35.5q78 0 143 63l71 -63q-82 -99 -216 -99zM167 301h271q-6 61 -41 100
t-93 39q-55 0 -92 -38.5t-45 -100.5z" />
    <glyph glyph-name="Gbreve" unicode="&#x11e;" horiz-adv-x="784" 
d="M412 766q-73 0 -120 35.5t-53 98.5h86q19 -50 87 -50t87 50h86q-6 -63 -53 -98.5t-120 -35.5zM422 -12q-162 0 -262.5 102.5t-100.5 257.5v2q0 150 102.5 256t258.5 106q88 0 150 -23.5t119 -71.5l-78 -93q-45 37 -89.5 55.5t-106.5 18.5q-96 0 -161.5 -72t-65.5 -174v-2
q0 -109 66 -179.5t172 -70.5q98 0 169 53v130h-179v108h298v-294q-127 -109 -292 -109z" />
    <glyph glyph-name="gbreve" unicode="&#x11f;" horiz-adv-x="671" 
d="M311 -162q-132 0 -236 63l45 91q90 -55 188 -55q81 0 124 41t43 120v40q-75 -96 -186 -96q-98 0 -169 67.5t-71 179.5v2q0 112 71.5 180t168.5 68q110 0 185 -90v79h121v-420q0 -132 -67 -199q-71 -71 -217 -71zM321 145q64 0 109.5 41t45.5 104v2q0 63 -45 103.5
t-110 40.5q-64 0 -107 -40t-43 -104v-2q0 -64 43.5 -104.5t106.5 -40.5zM341 593q-73 0 -119.5 38.5t-52.5 106.5h84q20 -61 88 -61t88 61h84q-6 -68 -52.5 -106.5t-119.5 -38.5z" />
    <glyph glyph-name="Gdotaccent" unicode="&#x120;" horiz-adv-x="784" 
d="M348 768v112h128v-112h-128zM422 -12q-162 0 -262.5 102.5t-100.5 257.5v2q0 150 102.5 256t258.5 106q88 0 150 -23.5t119 -71.5l-78 -93q-45 37 -89.5 55.5t-106.5 18.5q-96 0 -161.5 -72t-65.5 -174v-2q0 -109 66 -179.5t172 -70.5q98 0 169 53v130h-179v108h298v-294
q-127 -109 -292 -109z" />
    <glyph glyph-name="gdotaccent" unicode="&#x121;" horiz-adv-x="671" 
d="M311 -162q-132 0 -236 63l45 91q90 -55 188 -55q81 0 124 41t43 120v40q-75 -96 -186 -96q-98 0 -169 67.5t-71 179.5v2q0 112 71.5 180t168.5 68q110 0 185 -90v79h121v-420q0 -132 -67 -199q-71 -71 -217 -71zM321 145q64 0 109.5 41t45.5 104v2q0 63 -45 103.5
t-110 40.5q-64 0 -107 -40t-43 -104v-2q0 -64 43.5 -104.5t106.5 -40.5zM278 595v119h126v-119h-126z" />
    <glyph glyph-name="Gcommaaccent" unicode="&#x122;" horiz-adv-x="784" 
d="M344 -275l-8 39q38 5 55 22t15 46h-54v102h118v-87q0 -116 -126 -122zM422 -12q-162 0 -262.5 102.5t-100.5 257.5v2q0 150 102.5 256t258.5 106q88 0 150 -23.5t119 -71.5l-78 -93q-45 37 -89.5 55.5t-106.5 18.5q-96 0 -161.5 -72t-65.5 -174v-2q0 -109 66 -179.5
t172 -70.5q98 0 169 53v130h-179v108h298v-294q-127 -109 -292 -109z" />
    <glyph glyph-name="gcommaaccent" unicode="&#x123;" horiz-adv-x="671" 
d="M406 803l8 -39q-38 -5 -55 -21.5t-15 -45.5h54v-102h-118v87q0 60 31.5 89t94.5 32zM311 -162q-132 0 -236 63l45 91q90 -55 188 -55q81 0 124 41t43 120v40q-75 -96 -186 -96q-98 0 -169 67.5t-71 179.5v2q0 112 71.5 180t168.5 68q110 0 185 -90v79h121v-420
q0 -132 -67 -199q-71 -71 -217 -71zM321 145q64 0 109.5 41t45.5 104v2q0 63 -45 103.5t-110 40.5q-64 0 -107 -40t-43 -104v-2q0 -64 43.5 -104.5t106.5 -40.5z" />
    <glyph glyph-name="Hbar" unicode="&#x126;" horiz-adv-x="778" 
d="M27 511v87h72v102h123v-102h334v102h123v-102h71v-87h-71v-511h-123v294h-334v-294h-123v511h-72zM222 407h334v106h-334v-106z" />
    <glyph glyph-name="hbar" unicode="&#x127;" horiz-adv-x="620" 
d="M361 600h-164v-153q64 92 165 92q88 0 138 -54.5t50 -147.5v-337h-121v300q0 62 -29.5 95.5t-83.5 33.5q-53 0 -86 -35t-33 -96v-298h-122v600h-68v74h68v56h122v-56h164v-74z" />
    <glyph glyph-name="Imacron" unicode="&#x12a;" horiz-adv-x="317" 
d="M97 0v700h123v-700h-123zM-21 769v90h360v-90h-360z" />
    <glyph glyph-name="imacron" unicode="&#x12b;" horiz-adv-x="286" 
d="M82 0v528h122v-528h-122zM-27 606v88h340v-88h-340z" />
    <glyph glyph-name="Ibreve" unicode="&#x12c;" horiz-adv-x="317" 
d="M97 0v700h123v-700h-123zM159 756q-73 0 -120 35.5t-53 98.5h86q19 -50 87 -50t87 50h86q-6 -63 -53 -98.5t-120 -35.5z" />
    <glyph glyph-name="ibreve" unicode="&#x12d;" horiz-adv-x="286" 
d="M82 0v528h122v-528h-122zM143 593q-73 0 -119.5 38.5t-52.5 106.5h84q20 -61 88 -61t88 61h84q-6 -68 -52.5 -106.5t-119.5 -38.5z" />
    <glyph glyph-name="Iogonek" unicode="&#x12e;" horiz-adv-x="317" 
d="M97 0v700h123v-700h-22q-33 -33 -33 -63q0 -43 72 -43v-58q-24 -2 -32 -2q-63 1 -97.5 24t-34.5 61q0 39 40 81h-16z" />
    <glyph glyph-name="iogonek" unicode="&#x12f;" horiz-adv-x="286" 
d="M82 0v528h122v-528h-21q-33 -33 -33 -63q0 -43 72 -43v-58q-24 -2 -32 -2q-63 1 -97.5 24t-34.5 61q0 39 40 81h-16zM78 609v115h130v-115h-130z" />
    <glyph glyph-name="Idotaccent" unicode="&#x130;" horiz-adv-x="317" 
d="M97 0v700h123v-700h-123zM95 758v112h128v-112h-128z" />
    <glyph glyph-name="dotlessi" unicode="&#x131;" horiz-adv-x="286" 
d="M82 0v528h122v-528h-122z" />
    <glyph glyph-name="Kcommaaccent" unicode="&#x136;" horiz-adv-x="726" 
d="M297 -267l-8 39q38 5 55 22t15 46h-54v102h118v-87q0 -116 -126 -122zM90 0v700h123v-352l332 352h153l-292 -301l305 -399h-150l-239 315l-109 -112v-203h-123z" />
    <glyph glyph-name="kcommaaccent" unicode="&#x137;" horiz-adv-x="582" 
d="M236 -272l-8 39q38 5 55 22t15 46h-54v102h118v-87q0 -116 -126 -122zM75 0v730h122v-436l219 234h147l-210 -215l217 -313h-142l-156 229l-75 -78v-151h-122z" />
    <glyph glyph-name="Lacute" unicode="&#x139;" horiz-adv-x="618" 
d="M119 758l112 145l110 -48l-128 -97h-94zM90 0v700h123v-588h368v-112h-491z" />
    <glyph glyph-name="lacute" unicode="&#x13a;" horiz-adv-x="286" 
d="M97 775l112 145l110 -48l-128 -97h-94zM82 0v730h122v-730h-122z" />
    <glyph glyph-name="Lcommaaccent" unicode="&#x13b;" horiz-adv-x="618" 
d="M266 -272l-8 39q38 5 55 22t15 46h-54v102h118v-87q0 -116 -126 -122zM90 0v700h123v-588h368v-112h-491z" />
    <glyph glyph-name="lcommaaccent" unicode="&#x13c;" horiz-adv-x="286" 
d="M76 -272l-8 39q38 5 55 22t15 46h-54v102h118v-87q0 -116 -126 -122zM82 0v730h122v-730h-122z" />
    <glyph glyph-name="Lcaron" unicode="&#x13d;" horiz-adv-x="618" 
d="M292 510l12 190h94v-3l-56 -187h-50zM90 0v700h123v-588h368v-112h-491z" />
    <glyph glyph-name="lcaron" unicode="&#x13e;" horiz-adv-x="286" 
d="M260 540l12 190h94v-3l-56 -187h-50zM82 0v730h122v-730h-122z" />
    <glyph glyph-name="Ldot" unicode="&#x13f;" horiz-adv-x="618" 
d="M413 317v119h123v-119h-123zM90 0v700h123v-588h368v-112h-491z" />
    <glyph glyph-name="ldot" unicode="&#x140;" horiz-adv-x="367" 
d="M274 319v112h106v-112h-106zM82 0v730h122v-730h-122z" />
    <glyph glyph-name="Lslash" unicode="&#x141;" horiz-adv-x="648" 
d="M403 386l-161 -73v-201h369v-112h-491v258l-75 -33v117l75 33v325h122v-270l161 73v-117z" />
    <glyph glyph-name="lslash" unicode="&#x142;" horiz-adv-x="346" 
d="M309 383l-76 -39v-344h-120v283l-76 -39v116l76 39v331h120v-270l76 39v-116z" />
    <glyph glyph-name="Nacute" unicode="&#x143;" horiz-adv-x="790" 
d="M345 757l112 145l110 -48l-128 -97h-94zM90 0v700h114l375 -484v484h121v-700h-103l-386 498v-498h-121z" />
    <glyph glyph-name="nacute" unicode="&#x144;" horiz-adv-x="620" 
d="M264 595l104 164l110 -49l-123 -115h-91zM75 0v528h122v-81q64 92 165 92q88 0 138 -54.5t50 -147.5v-337h-121v300q0 62 -29.5 95.5t-83.5 33.5q-53 0 -86 -35t-33 -96v-298h-122z" />
    <glyph glyph-name="Ncommaaccent" unicode="&#x145;" horiz-adv-x="790" 
d="M327 -267l-8 39q38 5 55 22t15 46h-54v102h118v-87q0 -116 -126 -122zM90 0v700h114l375 -484v484h121v-700h-103l-386 498v-498h-121z" />
    <glyph glyph-name="ncommaaccent" unicode="&#x146;" horiz-adv-x="620" 
d="M245 -272l-8 39q38 5 55 22t15 46h-54v102h118v-87q0 -116 -126 -122zM75 0v528h122v-81q64 92 165 92q88 0 138 -54.5t50 -147.5v-337h-121v300q0 62 -29.5 95.5t-83.5 33.5q-53 0 -86 -35t-33 -96v-298h-122z" />
    <glyph glyph-name="Ncaron" unicode="&#x147;" horiz-adv-x="790" 
d="M573 892l-121 -135h-114l-121 135h102l77 -57l77 57h100zM90 0v700h114l375 -484v484h121v-700h-103l-386 498v-498h-121z" />
    <glyph glyph-name="ncaron" unicode="&#x148;" horiz-adv-x="620" 
d="M485 742l-117 -147h-112l-117 147h96l78 -67l78 67h94zM75 0v528h122v-81q64 92 165 92q88 0 138 -54.5t50 -147.5v-337h-121v300q0 62 -29.5 95.5t-83.5 33.5q-53 0 -86 -35t-33 -96v-298h-122z" />
    <glyph glyph-name="Omacron" unicode="&#x14c;" horiz-adv-x="850" 
d="M245 779v90h360v-90h-360zM424 -12q-159 0 -262 105t-103 255v2q0 150 104 256t263 106t262 -105t103 -255v-2q0 -150 -104 -256t-263 -106zM426 102q103 0 169.5 71t66.5 175v2q0 104 -67.5 176t-170.5 72t-169.5 -71t-66.5 -175v-2q0 -104 67.5 -176t170.5 -72z" />
    <glyph glyph-name="omacron" unicode="&#x14d;" horiz-adv-x="657" 
d="M158 606v88h340v-88h-340zM327 -12q-120 0 -200 79.5t-80 193.5v2q0 115 81 195.5t201 80.5t200.5 -80t80.5 -194v-2q0 -114 -81 -194.5t-202 -80.5zM329 94q72 0 116 48.5t44 118.5v2q0 71 -46 120.5t-116 49.5q-71 0 -115 -48.5t-44 -119.5v-2q0 -70 46 -119.5
t115 -49.5z" />
    <glyph glyph-name="Obreve" unicode="&#x14e;" horiz-adv-x="850" 
d="M425 766q-73 0 -120 35.5t-53 98.5h86q19 -50 87 -50t87 50h86q-6 -63 -53 -98.5t-120 -35.5zM424 -12q-159 0 -262 105t-103 255v2q0 150 104 256t263 106t262 -105t103 -255v-2q0 -150 -104 -256t-263 -106zM426 102q103 0 169.5 71t66.5 175v2q0 104 -67.5 176
t-170.5 72t-169.5 -71t-66.5 -175v-2q0 -104 67.5 -176t170.5 -72z" />
    <glyph glyph-name="obreve" unicode="&#x14f;" horiz-adv-x="657" 
d="M327 -12q-120 0 -200 79.5t-80 193.5v2q0 115 81 195.5t201 80.5t200.5 -80t80.5 -194v-2q0 -114 -81 -194.5t-202 -80.5zM329 94q72 0 116 48.5t44 118.5v2q0 71 -46 120.5t-116 49.5q-71 0 -115 -48.5t-44 -119.5v-2q0 -70 46 -119.5t115 -49.5zM328 593
q-73 0 -119.5 38.5t-52.5 106.5h84q20 -61 88 -61t88 61h84q-6 -68 -52.5 -106.5t-119.5 -38.5z" />
    <glyph glyph-name="Ohungarumlaut" unicode="&#x150;" horiz-adv-x="850" 
d="M424 -12q-159 0 -262 105t-103 255v2q0 150 104 256t263 106t262 -105t103 -255v-2q0 -150 -104 -256t-263 -106zM426 102q103 0 169.5 71t66.5 175v2q0 104 -67.5 176t-170.5 72t-169.5 -71t-66.5 -175v-2q0 -104 67.5 -176t170.5 -72zM281 768l112 145l106 -48
l-127 -97h-91zM456 768l112 145l106 -48l-127 -97h-91z" />
    <glyph glyph-name="ohungarumlaut" unicode="&#x151;" horiz-adv-x="657" 
d="M358 595l105 164l106 -49l-123 -115h-88zM188 595l103 164l106 -49l-121 -115h-88zM327 -12q-120 0 -200 79.5t-80 193.5v2q0 115 81 195.5t201 80.5t200.5 -80t80.5 -194v-2q0 -114 -81 -194.5t-202 -80.5zM329 94q72 0 116 48.5t44 118.5v2q0 71 -46 120.5t-116 49.5
q-71 0 -115 -48.5t-44 -119.5v-2q0 -70 46 -119.5t115 -49.5z" />
    <glyph glyph-name="OE" unicode="&#x152;" horiz-adv-x="1098" 
d="M431 0q-163 0 -267.5 99.5t-104.5 248.5v2q0 150 104.5 250t267.5 100h606v-110h-374v-182h329v-111h-329v-187h379v-110h-611zM431 112h109v476h-109q-109 0 -176 -66t-67 -170v-2q0 -104 67 -171t176 -67z" />
    <glyph glyph-name="oe" unicode="&#x153;" horiz-adv-x="1040" 
d="M321 -12q-114 0 -194 80t-80 193v2q0 114 81 195t198 81q66 0 121.5 -29t89.5 -80q34 51 87 80t116 29q120 0 186.5 -81.5t66.5 -202.5q0 -10 -2 -34h-388q10 -63 51 -98.5t101 -35.5q79 0 144 63l71 -63q-84 -99 -216 -99q-68 0 -125 29.5t-93 81.5q-35 -51 -91.5 -81
t-123.5 -30zM602 301h272q-7 61 -42 100t-92 39q-55 0 -92.5 -38.5t-45.5 -100.5zM326 94q70 0 113 48.5t43 118.5v2q0 71 -45 120.5t-113 49.5q-69 0 -112.5 -49t-43.5 -119v-2q0 -70 45 -119.5t113 -49.5z" />
    <glyph glyph-name="Racute" unicode="&#x154;" horiz-adv-x="723" 
d="M90 0v700h312q130 0 202 -70q58 -60 58 -151v-2q0 -83 -45 -136.5t-121 -75.5l189 -265h-146l-172 244h-154v-244h-123zM213 353h180q66 0 105 32t39 85v2q0 56 -38 86t-107 30h-179v-235zM303 758l112 145l110 -48l-128 -97h-94z" />
    <glyph glyph-name="racute" unicode="&#x155;" horiz-adv-x="413" 
d="M175 595l104 164l110 -49l-123 -115h-91zM75 0v528h122v-119q56 135 187 129v-128h-7q-82 0 -131 -53.5t-49 -155.5v-201h-122z" />
    <glyph glyph-name="Rcommaaccent" unicode="&#x156;" horiz-adv-x="723" 
d="M90 0v700h312q130 0 202 -70q58 -60 58 -151v-2q0 -83 -45 -136.5t-121 -75.5l189 -265h-146l-172 244h-154v-244h-123zM213 353h180q66 0 105 32t39 85v2q0 56 -38 86t-107 30h-179v-235zM285 -267l-8 39q38 5 55 22t15 46h-54v102h118v-87q0 -116 -126 -122z" />
    <glyph glyph-name="rcommaaccent" unicode="&#x157;" horiz-adv-x="413" 
d="M76 -272l-8 39q38 5 55 22t15 46h-54v102h118v-87q0 -116 -126 -122zM75 0v528h122v-119q56 135 187 129v-128h-7q-82 0 -131 -53.5t-49 -155.5v-201h-122z" />
    <glyph glyph-name="Rcaron" unicode="&#x158;" horiz-adv-x="723" 
d="M90 0v700h312q130 0 202 -70q58 -60 58 -151v-2q0 -83 -45 -136.5t-121 -75.5l189 -265h-146l-172 244h-154v-244h-123zM213 353h180q66 0 105 32t39 85v2q0 56 -38 86t-107 30h-179v-235zM530 893l-121 -135h-114l-121 135h102l77 -57l77 57h100z" />
    <glyph glyph-name="rcaron" unicode="&#x159;" horiz-adv-x="413" 
d="M397 742l-117 -147h-112l-117 147h96l78 -67l78 67h94zM75 0v528h122v-119q56 135 187 129v-128h-7q-82 0 -131 -53.5t-49 -155.5v-201h-122z" />
    <glyph glyph-name="Sacute" unicode="&#x15a;" horiz-adv-x="640" 
d="M335 -10q-167 0 -292 112l74 88q105 -91 221 -91q57 0 90.5 24.5t33.5 63.5v2q0 39 -32 62t-126 45q-60 15 -100 30t-72 39t-46.5 58.5t-14.5 81.5v2q0 90 67 146.5t172 56.5q144 0 254 -88l-66 -93q-97 72 -190 72q-52 0 -83 -23.5t-31 -59.5v-2q0 -41 33.5 -63.5
t133.5 -46.5q116 -28 170 -74.5t54 -130.5v-2q0 -97 -69 -153t-181 -56zM275 768l112 145l110 -48l-128 -97h-94z" />
    <glyph glyph-name="sacute" unicode="&#x15b;" horiz-adv-x="501" 
d="M205 595l104 164l110 -49l-123 -115h-91zM257 -10q-126 0 -224 79l54 82q88 -65 173 -65q39 0 60.5 15.5t21.5 41.5v2q0 38 -106 70q-8 3 -12 4q-36 10 -60 20t-50.5 27.5t-40.5 44t-14 62.5v2q0 74 53.5 118t134.5 44q103 0 194 -60l-48 -86q-82 50 -149 50
q-34 0 -54 -15t-20 -37v-2q0 -25 27 -39.5t82 -32.5q7 -2 10 -3q35 -11 59 -21.5t50.5 -28.5t40.5 -44t14 -60v-2q0 -80 -55 -123t-141 -43z" />
    <glyph glyph-name="Scedilla" unicode="&#x15e;" horiz-adv-x="640" 
d="M307 -166l-106 45l78 115q-133 15 -236 108l74 88q105 -91 221 -91q57 0 90.5 24.5t33.5 63.5v2q0 39 -32 62t-126 45q-60 15 -100 30t-72 39t-46.5 58.5t-14.5 81.5v2q0 90 67 146.5t172 56.5q144 0 254 -88l-66 -93q-97 72 -190 72q-52 0 -83 -23.5t-31 -59.5v-2
q0 -41 33.5 -63.5t133.5 -46.5q116 -28 170 -74.5t54 -130.5v-2q0 -88 -57.5 -142.5t-153.5 -64.5z" />
    <glyph glyph-name="scedilla" unicode="&#x15f;" horiz-adv-x="501" 
d="M226 -166l-106 45l79 116q-96 16 -166 74l54 82q88 -65 173 -65q39 0 60.5 15.5t21.5 41.5v2q0 38 -106 70q-8 3 -12 4q-36 10 -60 20t-50.5 27.5t-40.5 44t-14 62.5v2q0 74 53.5 118t134.5 44q103 0 194 -60l-48 -86q-82 50 -149 50q-34 0 -54 -15t-20 -37v-2
q0 -25 27 -39.5t82 -32.5q7 -2 10 -3q35 -11 59 -21.5t50.5 -28.5t40.5 -44t14 -60v-2q0 -71 -44 -113t-116 -51z" />
    <glyph glyph-name="Scaron" unicode="&#x160;" horiz-adv-x="640" 
d="M335 -10q-167 0 -292 112l74 88q105 -91 221 -91q57 0 90.5 24.5t33.5 63.5v2q0 39 -32 62t-126 45q-60 15 -100 30t-72 39t-46.5 58.5t-14.5 81.5v2q0 90 67 146.5t172 56.5q144 0 254 -88l-66 -93q-97 72 -190 72q-52 0 -83 -23.5t-31 -59.5v-2q0 -41 33.5 -63.5
t133.5 -46.5q116 -28 170 -74.5t54 -130.5v-2q0 -97 -69 -153t-181 -56zM503 903l-121 -135h-114l-121 135h102l77 -57l77 57h100z" />
    <glyph glyph-name="scaron" unicode="&#x161;" horiz-adv-x="501" 
d="M426 742l-117 -147h-112l-117 147h96l78 -67l78 67h94zM257 -10q-126 0 -224 79l54 82q88 -65 173 -65q39 0 60.5 15.5t21.5 41.5v2q0 38 -106 70q-8 3 -12 4q-36 10 -60 20t-50.5 27.5t-40.5 44t-14 62.5v2q0 74 53.5 118t134.5 44q103 0 194 -60l-48 -86
q-82 50 -149 50q-34 0 -54 -15t-20 -37v-2q0 -25 27 -39.5t82 -32.5q7 -2 10 -3q35 -11 59 -21.5t50.5 -28.5t40.5 -44t14 -60v-2q0 -80 -55 -123t-141 -43z" />
    <glyph glyph-name="Tcommaaccent" unicode="&#x162;" horiz-adv-x="645" 
d="M255 -272l-8 39q38 5 55 22t15 46h-54v102h118v-87q0 -116 -126 -122zM261 0v586h-223v114h569v-114h-223v-586h-123z" />
    <glyph glyph-name="Tcommaaccent" unicode="&#x21a;" horiz-adv-x="645" 
d="M255 -272l-8 39q38 5 55 22t15 46h-54v102h118v-87q0 -116 -126 -122zM261 0v586h-223v114h569v-114h-223v-586h-123z" />
    <glyph glyph-name="tcommaaccent" unicode="&#x163;" horiz-adv-x="411" 
d="M156 -272l-8 39q38 5 55 22t15 46h-54v102h118v-87q0 -116 -126 -122zM253 -9q-152 0 -152 155v278h-67v104h67v145h121v-145h142v-104h-142v-259q0 -66 65 -66q39 0 75 18v-99q-48 -27 -109 -27z" />
    <glyph glyph-name="tcommaaccent" unicode="&#x21b;" horiz-adv-x="411" 
d="M156 -272l-8 39q38 5 55 22t15 46h-54v102h118v-87q0 -116 -126 -122zM253 -9q-152 0 -152 155v278h-67v104h67v145h121v-145h142v-104h-142v-259q0 -66 65 -66q39 0 75 18v-99q-48 -27 -109 -27z" />
    <glyph glyph-name="Tcaron" unicode="&#x164;" horiz-adv-x="645" 
d="M500 893l-121 -135h-114l-121 135h102l77 -57l77 57h100zM261 0v586h-223v114h569v-114h-223v-586h-123z" />
    <glyph glyph-name="tcaron" unicode="&#x165;" horiz-adv-x="411" 
d="M295 589l12 190h94v-3l-56 -187h-50zM253 -9q-152 0 -152 155v278h-67v104h67v145h121v-145h142v-104h-142v-259q0 -66 65 -66q39 0 75 18v-99q-48 -27 -109 -27z" />
    <glyph glyph-name="Umacron" unicode="&#x16a;" horiz-adv-x="757" 
d="M198 768v90h360v-90h-360zM377 -11q-139 0 -218.5 79t-79.5 229v403h123v-398q0 -96 46.5 -147.5t130.5 -51.5q83 0 129.5 49.5t46.5 144.5v403h123v-397q0 -153 -80 -233.5t-221 -80.5z" />
    <glyph glyph-name="umacron" unicode="&#x16b;" horiz-adv-x="620" 
d="M258 -11q-88 0 -138 55t-50 148v336h121v-300q0 -61 29.5 -94.5t83.5 -33.5q53 0 86 34.5t33 95.5v298h122v-528h-122v82q-63 -93 -165 -93zM136 606v88h340v-88h-340z" />
    <glyph glyph-name="Ubreve" unicode="&#x16c;" horiz-adv-x="757" 
d="M378 748q-73 0 -120 35.5t-53 98.5h86q19 -50 87 -50t87 50h86q-6 -63 -53 -98.5t-120 -35.5zM377 -11q-139 0 -218.5 79t-79.5 229v403h123v-398q0 -96 46.5 -147.5t130.5 -51.5q83 0 129.5 49.5t46.5 144.5v403h123v-397q0 -153 -80 -233.5t-221 -80.5z" />
    <glyph glyph-name="ubreve" unicode="&#x16d;" horiz-adv-x="620" 
d="M258 -11q-88 0 -138 55t-50 148v336h121v-300q0 -61 29.5 -94.5t83.5 -33.5q53 0 86 34.5t33 95.5v298h122v-528h-122v82q-63 -93 -165 -93zM306 593q-73 0 -119.5 38.5t-52.5 106.5h84q20 -61 88 -61t88 61h84q-6 -68 -52.5 -106.5t-119.5 -38.5z" />
    <glyph glyph-name="Uring" unicode="&#x16e;" horiz-adv-x="757" 
d="M377 -11q-139 0 -218.5 79t-79.5 229v403h123v-398q0 -96 46.5 -147.5t130.5 -51.5q83 0 129.5 49.5t46.5 144.5v403h123v-397q0 -153 -80 -233.5t-221 -80.5zM378 734q-49 0 -84 30t-35 76q0 45 35 75t84 30t84 -30t35 -75q0 -46 -35 -76t-84 -30zM378 781q28 0 46 17
t18 42q0 24 -18 41t-46 17t-46 -17t-18 -41q0 -25 18 -42t46 -17z" />
    <glyph glyph-name="uring" unicode="&#x16f;" horiz-adv-x="620" 
d="M306 580q-48 0 -82 33t-34 79t34 79t82 33t82 -33t34 -79t-34 -79t-82 -33zM306 625q28 0 47.5 19.5t19.5 47.5t-19.5 47.5t-47.5 19.5t-47.5 -19.5t-19.5 -47.5t19.5 -47.5t47.5 -19.5zM258 -11q-88 0 -138 55t-50 148v336h121v-300q0 -61 29.5 -94.5t83.5 -33.5
q53 0 86 34.5t33 95.5v298h122v-528h-122v82q-63 -93 -165 -93z" />
    <glyph glyph-name="Uhungarumlaut" unicode="&#x170;" horiz-adv-x="757" 
d="M377 -11q-139 0 -218.5 79t-79.5 229v403h123v-398q0 -96 46.5 -147.5t130.5 -51.5q83 0 129.5 49.5t46.5 144.5v403h123v-397q0 -153 -80 -233.5t-221 -80.5zM234 757l112 145l106 -48l-127 -97h-91zM409 757l112 145l106 -48l-127 -97h-91z" />
    <glyph glyph-name="uhungarumlaut" unicode="&#x171;" horiz-adv-x="620" 
d="M258 -11q-88 0 -138 55t-50 148v336h121v-300q0 -61 29.5 -94.5t83.5 -33.5q53 0 86 34.5t33 95.5v298h122v-528h-122v82q-63 -93 -165 -93zM336 595l105 164l106 -49l-123 -115h-88zM166 595l103 164l106 -49l-121 -115h-88z" />
    <glyph glyph-name="Uogonek" unicode="&#x172;" horiz-adv-x="757" 
d="M458 -106v-58q-24 -2 -32 -2q-63 1 -97.5 24t-34.5 61q0 37 33 73q-117 14 -182.5 92t-65.5 213v403h123v-398q0 -96 46.5 -147.5t130.5 -51.5q83 0 129.5 49.5t46.5 144.5v403h123v-397q0 -144 -71 -224t-197 -88q-24 -27 -24 -54q0 -43 72 -43z" />
    <glyph glyph-name="uogonek" unicode="&#x173;" horiz-adv-x="620" 
d="M258 -11q-88 0 -138 55t-50 148v336h121v-300q0 -61 29.5 -94.5t83.5 -33.5q53 0 86 34.5t33 95.5v298h122v-528h-28q-33 -33 -33 -63q0 -43 72 -43v-58q-24 -2 -32 -2q-63 1 -97.5 24t-34.5 61q0 39 40 81h-9v82q-63 -93 -165 -93z" />
    <glyph glyph-name="Wcircumflex" unicode="&#x174;" horiz-adv-x="1116" 
d="M279 -5l-243 705h133l167 -519l172 521h104l172 -521l167 519h129l-243 -705h-107l-172 503l-172 -503h-107zM380 758l121 135h114l121 -135h-102l-77 57l-77 -57h-100z" />
    <glyph glyph-name="wcircumflex" unicode="&#x175;" horiz-adv-x="861" 
d="M257 595l117 147h112l117 -147h-96l-78 67l-78 -67h-94zM203 -4l-172 532h125l106 -362l117 364h104l117 -364l108 362h122l-173 -532h-109l-118 361l-119 -361h-108z" />
    <glyph glyph-name="Ycircumflex" unicode="&#x176;" horiz-adv-x="716" 
d="M296 0v276l-278 424h146l195 -309l198 309h141l-278 -421v-279h-124zM180 757l121 135h114l121 -135h-102l-77 57l-77 -57h-100z" />
    <glyph glyph-name="ycircumflex" unicode="&#x177;" horiz-adv-x="596" 
d="M304 136l138 392h126l-210 -542q-31 -82 -70.5 -115.5t-103.5 -33.5q-67 0 -125 33l41 89q37 -20 71 -20q26 0 43 13.5t32 46.5l-220 529h130zM125 595l117 147h112l117 -147h-96l-78 67l-78 -67h-94z" />
    <glyph glyph-name="Ydieresis" unicode="&#x178;" horiz-adv-x="716" 
d="M296 0v276l-278 424h146l195 -309l198 309h141l-278 -421v-279h-124zM398 757v112h125v-112h-125zM193 757v112h125v-112h-125z" />
    <glyph glyph-name="Zacute" unicode="&#x179;" horiz-adv-x="702" 
d="M64 0v91l414 500h-400v109h561v-91l-414 -500h414v-109h-575zM308 758l112 145l110 -48l-128 -97h-94z" />
    <glyph glyph-name="zacute" unicode="&#x17a;" horiz-adv-x="560" 
d="M234 595l104 164l110 -49l-123 -115h-91zM52 0v83l305 346h-294v99h448v-83l-305 -346h305v-99h-459z" />
    <glyph glyph-name="Zdotaccent" unicode="&#x17b;" horiz-adv-x="702" 
d="M293 758v112h128v-112h-128zM64 0v91l414 500h-400v109h561v-91l-414 -500h414v-109h-575z" />
    <glyph glyph-name="zdotaccent" unicode="&#x17c;" horiz-adv-x="560" 
d="M52 0v83l305 346h-294v99h448v-83l-305 -346h305v-99h-459zM219 595v119h126v-119h-126z" />
    <glyph glyph-name="Zcaron" unicode="&#x17d;" horiz-adv-x="702" 
d="M535 893l-121 -135h-114l-121 135h102l77 -57l77 57h100zM64 0v91l414 500h-400v109h561v-91l-414 -500h414v-109h-575z" />
    <glyph glyph-name="zcaron" unicode="&#x17e;" horiz-adv-x="560" 
d="M455 742l-117 -147h-112l-117 147h96l78 -67l78 67h94zM52 0v83l305 346h-294v99h448v-83l-305 -346h305v-99h-459z" />
    <glyph glyph-name="uni018F" unicode="&#x18f;" horiz-adv-x="797" 
d="M90 581q114 131 296 131q152 0 252 -101t100 -259v-3q0 -152 -98 -256.5t-246 -104.5q-159 0 -247 107.5t-88 265.5q0 28 1 44h545q-15 90 -74 141.5t-145 51.5q-123 0 -216 -97zM394 100q85 0 141.5 55t69.5 144h-415q9 -89 64 -144t140 -55z" />
    <glyph glyph-name="florin" unicode="&#x192;" horiz-adv-x="527" 
d="M97 -5q-35 0 -56 5v99q21 -3 40 -3q62 0 73 67l35 193h-80v101h97l18 93q15 78 55.5 116.5t119.5 38.5q53 0 92 -11v-102q-40 10 -69 10q-35 0 -54 -18t-27 -59l-12 -68h127v-101h-145l-38 -211q-14 -80 -56 -115t-120 -35z" />
    <glyph glyph-name="Aringacute" unicode="&#x1fa;" horiz-adv-x="790" 
d="M30 0l289 664q-43 31 -43 81q0 46 35 76t84 30t84 -30t35 -76q0 -50 -43 -81l289 -664h-130l-71 169h-331l-72 -169h-126zM273 278h241l-121 280zM340 879l117 129l109 -49l-131 -80h-95zM395 687q28 0 46 17t18 41q0 25 -18 41.5t-46 16.5t-46 -16.5t-18 -41.5
q0 -24 18 -41t46 -17z" />
    <glyph glyph-name="aringacute" unicode="&#x1fb;" horiz-adv-x="587" 
d="M245 849l110 138l108 -49l-126 -89h-92zM228 -11q-79 0 -133.5 43.5t-54.5 119.5v2q0 83 59.5 126.5t159.5 43.5q73 0 142 -22v13q0 56 -33.5 85.5t-97.5 29.5q-72 0 -151 -33l-33 95q98 43 200 43q118 0 175 -59q57 -56 57 -163v-313h-118v66q-64 -77 -172 -77zM262 77
q61 0 101 31.5t40 81.5v36q-54 21 -120 21q-58 0 -91 -23.5t-33 -64.5v-2q0 -37 29 -58.5t74 -21.5zM294 593q-48 0 -82 33t-34 79t34 79t82 33t82 -33t34 -79t-34 -79t-82 -33zM294 638q28 0 47.5 19.5t19.5 47.5t-19.5 47.5t-47.5 19.5t-47.5 -19.5t-19.5 -47.5
t19.5 -47.5t47.5 -19.5z" />
    <glyph glyph-name="AEacute" unicode="&#x1fc;" horiz-adv-x="1045" 
d="M572 758l112 145l110 -48l-128 -97h-94zM12 0l391 700h581v-110h-374v-182h329v-111h-329v-187h379v-110h-502v169h-254l-94 -169h-127zM291 278h196v315h-20z" />
    <glyph glyph-name="aeacute" unicode="&#x1fd;" horiz-adv-x="952" 
d="M424 595l104 164l110 -49l-123 -115h-91zM239 -11q-85 0 -142 44t-57 119v2q0 83 59 126.5t158 43.5q69 0 140 -22v13q0 56 -33 85.5t-96 29.5q-70 0 -149 -33l-33 95q98 43 198 43q135 0 186 -86q69 90 185 90q118 0 184 -81.5t66 -202.5q0 -22 -1 -34h-388
q10 -63 51 -98.5t100 -35.5q79 0 144 63l71 -63q-84 -99 -217 -99q-127 0 -204 90q-105 -89 -222 -89zM514 301h272q-7 62 -41.5 100.5t-92.5 38.5q-55 0 -92.5 -38.5t-45.5 -100.5zM260 78q84 0 157 68q-16 38 -20 81q-56 20 -116 20q-58 0 -90 -23.5t-32 -64.5v-2
q0 -36 29 -57.5t72 -21.5z" />
    <glyph glyph-name="Oslashacute" unicode="&#x1fe;" horiz-adv-x="850" 
d="M678 705h121l-99 -112q91 -100 91 -241v-2q0 -150 -104 -256t-263 -106q-116 0 -205 58l-47 -51h-121l98 112q-90 101 -90 241v2q0 150 104 256t263 106q113 0 204 -59zM426 99q103 0 170.5 72.5t67.5 176.5v1q0 85 -47 152l-321 -364q57 -38 130 -38zM186 351
q0 -85 46 -152l322 364q-59 38 -130 38q-103 0 -170.5 -72.5t-67.5 -176.5v-1zM375 768l112 145l110 -48l-128 -97h-94z" />
    <glyph glyph-name="oslashacute" unicode="&#x1ff;" horiz-adv-x="657" 
d="M515 534h110l-81 -91q66 -75 66 -178v-2q0 -114 -81 -194.5t-202 -80.5q-85 0 -152 42l-33 -35h-110l80 89q-65 75 -65 177v2q0 115 81 195.5t201 80.5q83 0 152 -42zM329 90q73 0 118 49.5t45 121.5v2q0 50 -26 94l-219 -245q36 -22 82 -22zM165 264q0 -52 26 -95
l219 244q-37 23 -83 23q-72 0 -117 -49.5t-45 -121.5v-1zM280 595l104 164l110 -49l-123 -115h-91z" />
    <glyph glyph-name="Scommaaccent" unicode="&#x218;" horiz-adv-x="640" 
d="M257 -275l-8 39q38 5 55 22t15 46h-54v102h118v-87q0 -116 -126 -122zM335 -10q-167 0 -292 112l74 88q105 -91 221 -91q57 0 90.5 24.5t33.5 63.5v2q0 39 -32 62t-126 45q-60 15 -100 30t-72 39t-46.5 58.5t-14.5 81.5v2q0 90 67 146.5t172 56.5q144 0 254 -88l-66 -93
q-97 72 -190 72q-52 0 -83 -23.5t-31 -59.5v-2q0 -41 33.5 -63.5t133.5 -46.5q116 -28 170 -74.5t54 -130.5v-2q0 -97 -69 -153t-181 -56z" />
    <glyph glyph-name="scommaaccent" unicode="&#x219;" horiz-adv-x="501" 
d="M186 -272l-8 39q38 5 55 22t15 46h-54v102h118v-87q0 -116 -126 -122zM257 -10q-126 0 -224 79l54 82q88 -65 173 -65q39 0 60.5 15.5t21.5 41.5v2q0 38 -106 70q-8 3 -12 4q-36 10 -60 20t-50.5 27.5t-40.5 44t-14 62.5v2q0 74 53.5 118t134.5 44q103 0 194 -60l-48 -86
q-82 50 -149 50q-34 0 -54 -15t-20 -37v-2q0 -25 27 -39.5t82 -32.5q7 -2 10 -3q35 -11 59 -21.5t50.5 -28.5t40.5 -44t14 -60v-2q0 -80 -55 -123t-141 -43z" />
    <glyph glyph-name="schwa" unicode="&#x259;" horiz-adv-x="604" 
d="M287 540q116 0 193.5 -76.5t77.5 -196.5v-2q0 -116 -73.5 -196t-185.5 -80q-120 0 -186.5 82t-66.5 202q0 10 2 34h388q-10 64 -51 99t-100 35q-79 0 -144 -63l-71 63q83 99 217 99zM438 227h-272q6 -61 41 -100t93 -39q55 0 92 38.5t46 100.5z" />
    <glyph glyph-name="circumflex" unicode="&#x2c6;" horiz-adv-x="500" 
d="M77 595l117 147h112l117 -147h-96l-78 67l-78 -67h-94z" />
    <glyph glyph-name="caron" unicode="&#x2c7;" horiz-adv-x="500" 
d="M423 742l-117 -147h-112l-117 147h96l78 -67l78 67h94z" />
    <glyph glyph-name="breve" unicode="&#x2d8;" horiz-adv-x="500" 
d="M250 593q-73 0 -119.5 38.5t-52.5 106.5h84q20 -61 88 -61t88 61h84q-6 -68 -52.5 -106.5t-119.5 -38.5z" />
    <glyph glyph-name="dotaccent" unicode="&#x2d9;" horiz-adv-x="500" 
d="M187 595v119h126v-119h-126z" />
    <glyph glyph-name="ring" unicode="&#x2da;" horiz-adv-x="500" 
d="M250 593q-48 0 -82 33t-34 79t34 79t82 33t82 -33t34 -79t-34 -79t-82 -33zM250 638q28 0 47.5 19.5t19.5 47.5t-19.5 47.5t-47.5 19.5t-47.5 -19.5t-19.5 -47.5t19.5 -47.5t47.5 -19.5z" />
    <glyph glyph-name="ogonek" unicode="&#x2db;" horiz-adv-x="500" 
d="M346 -106v-58q-24 -2 -32 -2q-63 1 -97.5 24t-34.5 61q0 43 52 93l81 -5q-41 -37 -41 -70q0 -43 72 -43z" />
    <glyph glyph-name="tilde" unicode="&#x2dc;" horiz-adv-x="500" 
d="M327 595q-31 0 -84 21q-42 19 -60 19q-21 0 -32 -11t-23 -39l-67 21q17 64 42.5 94t69.5 30q32 0 84 -21q42 -19 60 -19q21 0 32 11t23 39l67 -20q-17 -64 -42.5 -94.5t-69.5 -30.5z" />
    <glyph glyph-name="hungarumlaut" unicode="&#x2dd;" horiz-adv-x="500" 
d="M233 595l105 164l106 -49l-123 -115h-88zM63 595l103 164l106 -49l-121 -115h-88z" />
    <glyph glyph-name="commaaccent" unicode="&#x326;" horiz-adv-x="500" 
d="M183 -272l-8 39q38 5 55 22t15 46h-54v102h118v-87q0 -116 -126 -122z" />
    <glyph glyph-name="uni0384" unicode="&#x384;" horiz-adv-x="500" 
d="M175 595l68 171l108 -47l-96 -124h-80z" />
    <glyph glyph-name="uni0385" unicode="&#x385;" horiz-adv-x="500" 
d="M339 595v117h110v-117h-110zM51 595v117h110v-117h-110zM190 595l44 193l104 -23l-79 -170h-69z" />
    <glyph glyph-name="uni0386" unicode="&#x386;" horiz-adv-x="790" 
d="M30 0l308 705h114l308 -705h-130l-71 169h-331l-72 -169h-126zM273 278h241l-121 280zM60 503l13 197h120l-69 -197h-64z" />
    <glyph glyph-name="uni0387" unicode="&#x387;" horiz-adv-x="279" 
d="M73 391v137h133v-137h-133z" />
    <glyph glyph-name="uni0388" unicode="&#x388;" horiz-adv-x="670" 
d="M-88 503l13 197h120l-69 -197h-64zM90 0v700h519v-110h-396v-182h351v-111h-351v-187h401v-110h-524z" />
    <glyph glyph-name="uni0389" unicode="&#x389;" horiz-adv-x="760" 
d="M90 0v700h123v-291h334v291h123v-700h-123v295h-334v-295h-123zM-88 503l13 197h120l-69 -197h-64z" />
    <glyph glyph-name="uni038A" unicode="&#x38a;" horiz-adv-x="317" 
d="M97 0v700h123v-700h-123zM-84 503l13 197h120l-69 -197h-64z" />
    <glyph glyph-name="uni038C" unicode="&#x38c;" horiz-adv-x="850" 
d="M-58 503l13 197h120l-69 -197h-64zM424 -12q-159 0 -262 105t-103 255v2q0 150 104 256t263 106t262 -105t103 -255v-2q0 -150 -104 -256t-263 -106zM426 102q103 0 169.5 71t66.5 175v2q0 104 -67.5 176t-170.5 72t-169.5 -71t-66.5 -175v-2q0 -104 67.5 -176t170.5 -72
z" />
    <glyph glyph-name="uni038E" unicode="&#x38e;" horiz-adv-x="716" 
d="M296 0v276l-278 424h146l195 -309l198 309h141l-278 -421v-279h-124zM-136 503l13 197h120l-69 -197h-64z" />
    <glyph glyph-name="uni038F" unicode="&#x38f;" horiz-adv-x="869" 
d="M435 712q162 0 259 -92t97 -234q0 -164 -158 -280h177v-106h-306v104q76 52 117 113t41 153q0 103 -61.5 165.5t-166.5 62.5q-103 0 -165 -62t-62 -162q0 -90 40.5 -153t117.5 -117v-104h-306v106h177q-158 117 -158 280q0 137 97.5 231.5t259.5 94.5zM-56 503l13 197
h120l-69 -197h-64z" />
    <glyph glyph-name="uni0390" unicode="&#x390;" horiz-adv-x="309" 
d="M231 595v117h110v-117h-110zM-57 595v117h110v-117h-110zM82 595l44 193l104 -23l-79 -170h-69zM73 152v376h122v-370q0 -64 58 -64q16 0 34 4v-95q-36 -10 -72 -10q-72 0 -107 38.5t-35 120.5z" />
    <glyph glyph-name="uni0391" unicode="&#x391;" horiz-adv-x="790" 
d="M30 0l308 705h114l308 -705h-130l-71 169h-331l-72 -169h-126zM273 278h241l-121 280z" />
    <glyph glyph-name="uni0392" unicode="&#x392;" horiz-adv-x="722" 
d="M90 0v700h314q121 0 183 -62q47 -47 47 -116v-2q0 -104 -100 -156q139 -47 139 -170v-2q0 -92 -70 -142t-189 -50h-324zM511 500v2q0 42 -32 65.5t-91 23.5h-177v-186h168q61 0 96.5 24t35.5 71zM550 207q0 94 -144 94h-195v-192h204q63 0 99 24.5t36 71.5v2z" />
    <glyph glyph-name="uni0393" unicode="&#x393;" horiz-adv-x="618" 
d="M90 0v700h491v-112h-368v-588h-123z" />
    <glyph glyph-name="uni0394" unicode="&#x394;" horiz-adv-x="787" 
d="M56 0l-10 89l284 616h127l284 -616l-10 -89h-675zM186 110h411l-205 459z" />
    <glyph glyph-name="uni0395" unicode="&#x395;" horiz-adv-x="670" 
d="M90 0v700h519v-110h-396v-182h351v-111h-351v-187h401v-110h-524z" />
    <glyph glyph-name="uni0396" unicode="&#x396;" horiz-adv-x="702" 
d="M64 0v91l414 500h-400v109h561v-91l-414 -500h414v-109h-575z" />
    <glyph glyph-name="uni0397" unicode="&#x397;" horiz-adv-x="760" 
d="M90 0v700h123v-291h334v291h123v-700h-123v295h-334v-295h-123z" />
    <glyph glyph-name="uni0398" unicode="&#x398;" horiz-adv-x="850" 
d="M424 -12q-159 0 -262 105t-103 255v2q0 150 104 256t263 106t262 -105t103 -255v-2q0 -150 -104 -256t-263 -106zM426 100q107 0 173.5 70.5t66.5 177.5v2q0 107 -67.5 178.5t-174.5 71.5t-173.5 -70.5t-66.5 -177.5v-2q0 -107 67.5 -178.5t174.5 -71.5zM579 409v-114
h-308v114h308z" />
    <glyph glyph-name="uni0399" unicode="&#x399;" horiz-adv-x="317" 
d="M97 0v700h123v-700h-123z" />
    <glyph glyph-name="uni039A" unicode="&#x39a;" horiz-adv-x="726" 
d="M90 0v700h123v-352l332 352h153l-292 -301l305 -399h-150l-239 315l-109 -112v-203h-123z" />
    <glyph glyph-name="uni039B" unicode="&#x39b;" horiz-adv-x="771" 
d="M440 705l301 -705h-137l-221 535l-220 -535h-133l300 705h110z" />
    <glyph glyph-name="uni039C" unicode="&#x39c;" horiz-adv-x="868" 
d="M90 0v700h131l213 -331l213 331h131v-700h-123v502l-221 -330h-4l-219 328v-500h-121z" />
    <glyph glyph-name="uni039D" unicode="&#x39d;" horiz-adv-x="790" 
d="M90 0v700h114l375 -484v484h121v-700h-103l-386 498v-498h-121z" />
    <glyph glyph-name="uni039E" unicode="&#x39e;" horiz-adv-x="663" 
d="M602 588h-541v112h541v-112zM576 296h-489v113h489v-113zM607 0h-551v112h551v-112z" />
    <glyph glyph-name="uni039F" unicode="&#x39f;" horiz-adv-x="850" 
d="M424 -12q-159 0 -262 105t-103 255v2q0 150 104 256t263 106t262 -105t103 -255v-2q0 -150 -104 -256t-263 -106zM426 102q103 0 169.5 71t66.5 175v2q0 104 -67.5 176t-170.5 72t-169.5 -71t-66.5 -175v-2q0 -104 67.5 -176t170.5 -72z" />
    <glyph glyph-name="uni03A0" unicode="&#x3a0;" horiz-adv-x="756" 
d="M90 0v700h577v-700h-124v588h-330v-588h-123z" />
    <glyph glyph-name="uni03A1" unicode="&#x3a1;" horiz-adv-x="668" 
d="M90 0v700h276q122 0 194 -64t72 -170v-2q0 -113 -79.5 -176t-200.5 -63h-139v-225h-123zM213 336h143q69 0 110 35t41 90v2q0 60 -40.5 92.5t-110.5 32.5h-143v-252z" />
    <glyph glyph-name="uni03A3" unicode="&#x3a3;" horiz-adv-x="686" 
d="M480 350l-241 -241h393v-109h-566v92l257 258l-255 258v92h559v-109h-386z" />
    <glyph glyph-name="uni03A4" unicode="&#x3a4;" horiz-adv-x="645" 
d="M261 0v586h-223v114h569v-114h-223v-586h-123z" />
    <glyph glyph-name="uni03A5" unicode="&#x3a5;" horiz-adv-x="716" 
d="M296 0v276l-278 424h146l195 -309l198 309h141l-278 -421v-279h-124z" />
    <glyph glyph-name="uni03A6" unicode="&#x3a6;" horiz-adv-x="951" 
d="M414 -10v76q-170 3 -266 81t-96 205q0 126 96 204.5t266 82.5v71h123v-71q170 -3 266.5 -81t96.5 -205q0 -126 -96.5 -205t-266.5 -82v-76h-123zM772 352q0 80 -60.5 129t-176.5 50v-357q115 1 176 49.5t61 128.5zM180 352q0 -80 60 -128.5t176 -49.5v357
q-116 -1 -176 -50t-60 -129z" />
    <glyph glyph-name="uni03A7" unicode="&#x3a7;" horiz-adv-x="729" 
d="M541 700h141l-244 -342l254 -358h-145l-185 267l-184 -267h-141l253 356l-243 344h145l173 -253z" />
    <glyph glyph-name="uni03A8" unicode="&#x3a8;" horiz-adv-x="855" 
d="M785 700v-247q0 -147 -78 -220.5t-219 -77.5v-155h-122v155q-142 4 -219.5 76.5t-77.5 217.5v251h123v-247q0 -95 43.5 -138.5t132.5 -45.5v431h119v-431q89 2 132.5 44.5t43.5 134.5v252h122z" />
    <glyph glyph-name="uni03A9" unicode="&#x3a9;" horiz-adv-x="869" 
d="M435 712q162 0 259 -92t97 -234q0 -164 -158 -280h177v-106h-306v104q76 52 117 113t41 153q0 103 -61.5 165.5t-166.5 62.5q-103 0 -165 -62t-62 -162q0 -90 40.5 -153t117.5 -117v-104h-306v106h177q-158 117 -158 280q0 137 97.5 231.5t259.5 94.5z" />
    <glyph glyph-name="uni03AA" unicode="&#x3aa;" horiz-adv-x="317" 
d="M97 0v700h123v-700h-123zM199 758v112h125v-112h-125zM-6 758v112h125v-112h-125z" />
    <glyph glyph-name="uni03AB" unicode="&#x3ab;" horiz-adv-x="716" 
d="M296 0v276l-278 424h146l195 -309l198 309h141l-278 -421v-279h-124zM398 757v112h125v-112h-125zM193 757v112h125v-112h-125z" />
    <glyph glyph-name="uni03AC" unicode="&#x3ac;" horiz-adv-x="710" 
d="M687 98v-95q-36 -10 -71 -10q-106 0 -131 88q-72 -92 -185 -92q-103 0 -177 74t-74 200v2q0 126 72.5 200t172.5 74q109 0 180 -93v82h121v-370q0 -64 58 -64q16 0 34 4zM323 94q63 0 108 47.5t45 121.5v2q0 74 -45 121.5t-108 47.5q-64 0 -108 -46.5t-44 -122.5v-2
q0 -75 44.5 -122t107.5 -47zM316 595l68 171l108 -47l-96 -124h-80z" />
    <glyph glyph-name="uni03AD" unicode="&#x3ad;" horiz-adv-x="564" 
d="M249 595l68 171l108 -47l-96 -124h-80zM396 221h-115q-55 0 -83.5 -17t-28.5 -47v-1q0 -32 31.5 -50.5t90.5 -18.5q95 0 186 57l52 -81q-109 -74 -242 -74q-113 0 -174.5 42.5t-61.5 112.5v1q0 85 100 122q-86 36 -86 116v2q0 66 59.5 109t167.5 43q130 0 231 -72
l-61 -83q-78 58 -166 58q-54 0 -83.5 -19t-29.5 -47v-1q0 -63 98 -63h115v-89z" />
    <glyph glyph-name="uni03AE" unicode="&#x3ae;" horiz-adv-x="620" 
d="M272 595l68 171l108 -47l-96 -124h-80zM197 0h-122v528h122v-81q64 92 165 92q88 0 138 -54.5t50 -147.5v-497h-121v460q0 62 -29.5 95.5t-83.5 33.5q-53 0 -86 -35t-33 -96v-298z" />
    <glyph glyph-name="uni03AF" unicode="&#x3af;" horiz-adv-x="309" 
d="M97 595l68 171l108 -47l-96 -124h-80zM73 152v376h122v-370q0 -64 58 -64q16 0 34 4v-95q-36 -10 -72 -10q-72 0 -107 38.5t-35 120.5z" />
    <glyph glyph-name="uni03B0" unicode="&#x3b0;" horiz-adv-x="622" 
d="M399 595v117h110v-117h-110zM111 595v117h110v-117h-110zM250 595l44 193l104 -23l-79 -170h-69zM310 -12q-112 0 -176.5 60.5t-64.5 174.5v305h121v-301q0 -65 31 -99.5t91 -34.5q120 0 120 132v303h121v-302q0 -117 -65 -177.5t-178 -60.5z" />
    <glyph glyph-name="uni03B1" unicode="&#x3b1;" horiz-adv-x="710" 
d="M687 98v-95q-36 -10 -71 -10q-106 0 -131 88q-72 -92 -185 -92q-103 0 -177 74t-74 200v2q0 126 72.5 200t172.5 74q109 0 180 -93v82h121v-370q0 -64 58 -64q16 0 34 4zM323 94q63 0 108 47.5t45 121.5v2q0 74 -45 121.5t-108 47.5q-64 0 -108 -46.5t-44 -122.5v-2
q0 -75 44.5 -122t107.5 -47z" />
    <glyph glyph-name="uni03B2" unicode="&#x3b2;" horiz-adv-x="657" 
d="M392 -11q-129 0 -195 93v-242h-122v637q0 122 69.5 191t193.5 69q115 0 178.5 -55t63.5 -143q0 -136 -138 -175q81 -19 123.5 -61t42.5 -118q0 -86 -58 -141t-158 -55zM363 92q58 0 91 29.5t33 74.5q0 120 -198 120h-94v-38q0 -91 46 -138.5t122 -47.5zM195 477v-72h93
q81 0 127 32.5t46 90.5q0 48 -33 78t-90 30q-66 0 -104.5 -43t-38.5 -116z" />
    <glyph glyph-name="uni03B3" unicode="&#x3b3;" horiz-adv-x="595" 
d="M358 -160h-121v178l-211 510h131l141 -380l142 380h128l-210 -510v-178z" />
    <glyph glyph-name="uni03B4" unicode="&#x3b4;" horiz-adv-x="642" 
d="M118 640v90h409v-100l-247 3l133 -101q96 -71 138 -133.5t42 -146.5q0 -112 -76 -188t-201 -76q-120 0 -194.5 74.5t-74.5 182.5q0 97 49 159t161 118zM474 245q0 55 -28 98.5t-106 109.5q-97 -49 -136 -97t-39 -110q0 -65 42.5 -110t110.5 -45t112 45.5t44 108.5z" />
    <glyph glyph-name="uni03B5" unicode="&#x3b5;" horiz-adv-x="564" 
d="M396 221h-115q-55 0 -83.5 -17t-28.5 -47v-1q0 -32 31.5 -50.5t90.5 -18.5q95 0 186 57l52 -81q-109 -74 -242 -74q-113 0 -174.5 42.5t-61.5 112.5v1q0 85 100 122q-86 36 -86 116v2q0 66 59.5 109t167.5 43q130 0 231 -72l-61 -83q-78 58 -166 58q-54 0 -83.5 -19
t-29.5 -47v-1q0 -63 98 -63h115v-89z" />
    <glyph glyph-name="uni03B6" unicode="&#x3b6;" horiz-adv-x="549" 
d="M509 81v-213h-114v120l-106 13q-243 31 -243 202q0 62 27 112t98 122l185 192h-270v101h425v-94l-259 -274q-49 -50 -67 -80.5t-18 -65.5q0 -90 144 -108z" />
    <glyph glyph-name="uni03B7" unicode="&#x3b7;" horiz-adv-x="620" 
d="M197 0h-122v528h122v-81q64 92 165 92q88 0 138 -54.5t50 -147.5v-497h-121v460q0 62 -29.5 95.5t-83.5 33.5q-53 0 -86 -35t-33 -96v-298z" />
    <glyph glyph-name="uni03B8" unicode="&#x3b8;" horiz-adv-x="669" 
d="M334 -12q-126 0 -202 100.5t-76 260.5v25q0 160 77 261t203 101q125 0 201 -101t76 -261v-25q0 -159 -77 -260t-202 -101zM335 91q71 0 114 60.5t46 161.5h-321q4 -101 47 -161.5t114 -60.5zM334 633q-70 0 -113 -60.5t-47 -159.5h320q-4 99 -47 159.5t-113 60.5z" />
    <glyph glyph-name="uni03B9" unicode="&#x3b9;" horiz-adv-x="309" 
d="M73 152v376h122v-370q0 -64 58 -64q16 0 34 4v-95q-36 -10 -72 -10q-72 0 -107 38.5t-35 120.5z" />
    <glyph glyph-name="uni03BA" unicode="&#x3ba;" horiz-adv-x="582" 
d="M197 528v-251l220 251h149l-208 -224l212 -304h-143l-150 219l-80 -85v-134h-122v528h122z" />
    <glyph glyph-name="uni03BB" unicode="&#x3bb;" horiz-adv-x="609" 
d="M155 0h-127l223 529l-12 31q-15 39 -33.5 55.5t-48.5 16.5q-27 0 -62 -13v101q42 16 86 16q67 0 102 -31t66 -111l235 -594h-130l-147 392z" />
    <glyph glyph-name="uni03BC" unicode="&#x3bc;" horiz-adv-x="669" 
d="M646 98v-95q-36 -10 -70 -10q-100 0 -127 75q-50 -76 -131 -76q-45 0 -82 21.5t-55 61.5h-2q16 -86 16 -122v-113h-120v688h122v-300q0 -61 32 -96.5t85 -35.5q54 0 86.5 36t32.5 96v300h121v-370q0 -64 58 -64q16 0 34 4z" />
    <glyph glyph-name="uni03BD" unicode="&#x3bd;" horiz-adv-x="595" 
d="M243 -4l-217 532h130l142 -388l143 388h127l-216 -532h-109z" />
    <glyph glyph-name="uni03BE" unicode="&#x3be;" horiz-adv-x="553" 
d="M540 661l-62 -93q-77 63 -155 63q-55 0 -88.5 -29.5t-33.5 -77.5q0 -52 41.5 -82t108.5 -30h88v-100h-112q-75 0 -117 -28t-42 -75q0 -48 37 -71.5t110 -32.5l193 -25v-212h-113v120l-106 13q-117 14 -179.5 58.5t-62.5 134.5q0 128 148 173q-115 49 -115 166
q0 87 66.5 145.5t177.5 58.5q119 0 216 -76z" />
    <glyph glyph-name="uni03BF" unicode="&#x3bf;" horiz-adv-x="657" 
d="M327 -12q-120 0 -200 79.5t-80 193.5v2q0 115 81 195.5t201 80.5t200.5 -80t80.5 -194v-2q0 -114 -81 -194.5t-202 -80.5zM329 94q72 0 116 48.5t44 118.5v2q0 71 -46 120.5t-116 49.5q-71 0 -115 -48.5t-44 -119.5v-2q0 -70 46 -119.5t115 -49.5z" />
    <glyph glyph-name="uni03C0" unicode="&#x3c0;" horiz-adv-x="701" 
d="M445 152v268h-207v-420h-121v420h-91v108h632v-108h-91v-262q0 -64 58 -64q16 0 34 4v-95q-36 -10 -72 -10q-72 0 -107 38.5t-35 120.5z" />
    <glyph glyph-name="uni03C1" unicode="&#x3c1;" horiz-adv-x="660" 
d="M65 -160v412q0 128 75 207.5t199 79.5q118 0 195.5 -78t77.5 -196v-2q0 -122 -73 -198t-169 -76q-115 0 -184 94v-243h-121zM338 94q63 0 107 46.5t44 122.5v2q0 75 -44 122t-107 47q-64 0 -108 -47.5t-44 -121.5v-2q0 -74 44.5 -121.5t107.5 -47.5z" />
    <glyph glyph-name="uni03C2" unicode="&#x3c2;" horiz-adv-x="573" 
d="M398 -132v121l-71 9q-136 18 -208 87t-72 187q0 111 75.5 189t196.5 78q129 0 214 -95l-77 -83q-63 72 -139 72q-65 0 -107 -46t-42 -112q0 -147 189 -172l154 -21v-214h-113z" />
    <glyph glyph-name="uni03C3" unicode="&#x3c3;" horiz-adv-x="687" 
d="M325 -12q-120 0 -199 77t-79 190v1q0 115 81 193.5t212 78.5h319v-104l-151 1q96 -63 96 -177q0 -110 -79.5 -185t-199.5 -75zM327 94q71 0 114 45.5t43 115.5q0 72 -43.5 120t-115.5 48q-71 0 -114 -48t-43 -118t44.5 -116.5t114.5 -46.5z" />
    <glyph glyph-name="uni03C4" unicode="&#x3c4;" horiz-adv-x="569" 
d="M531 420h-196v-243q0 -46 19.5 -65t59.5 -19q34 0 68 11v-97q-45 -15 -96 -15q-90 0 -131 41t-41 138v249h-186v108h503v-108z" />
    <glyph glyph-name="uni03C5" unicode="&#x3c5;" horiz-adv-x="622" 
d="M310 -12q-112 0 -176.5 60.5t-64.5 174.5v305h121v-301q0 -65 31 -99.5t91 -34.5q120 0 120 132v303h121v-302q0 -117 -65 -177.5t-178 -60.5z" />
    <glyph glyph-name="uni03C6" unicode="&#x3c6;" horiz-adv-x="842" 
d="M481 -160h-120v158q-148 4 -231.5 78t-83.5 187t83.5 187.5t231.5 79.5v200h120v-199q148 -5 231.5 -79t83.5 -187t-84 -187.5t-231 -78.5v-159zM677 263q0 73 -51.5 117t-146.5 47v-326q96 2 147 46t51 116zM166 265q0 -73 51.5 -117t145.5 -47v326q-96 -3 -146.5 -47
t-50.5 -115z" />
    <glyph glyph-name="uni03C7" unicode="&#x3c7;" horiz-adv-x="606" 
d="M165 528l139 -237l140 237h132l-205 -326l229 -362h-136l-162 272l-163 -272h-132l227 360l-205 328h136z" />
    <glyph glyph-name="uni03C8" unicode="&#x3c8;" horiz-adv-x="822" 
d="M471 -160h-120v158q-134 2 -208.5 70t-74.5 194v266h121v-263q0 -75 43.5 -118t119.5 -44v627h118v-627q76 1 119.5 44t43.5 117v264h120v-262q0 -128 -75 -197t-207 -71v-158z" />
    <glyph glyph-name="uni03C9" unicode="&#x3c9;" horiz-adv-x="880" 
d="M381 426h118v-171q0 -74 28.5 -116.5t77.5 -42.5t76 39.5t27 115.5q0 73 -30.5 138t-91.5 139h131q110 -125 110 -281q0 -119 -54.5 -189t-152.5 -70q-134 0 -181 137q-47 -137 -181 -137q-98 0 -151.5 69.5t-53.5 189.5q0 154 110 281h130q-61 -72 -91 -137.5
t-30 -139.5q0 -75 27.5 -115t75.5 -40q50 0 78 42t28 117v171z" />
    <glyph glyph-name="uni03CA" unicode="&#x3ca;" horiz-adv-x="309" 
d="M173 595v119h123v-119h-123zM-22 595v119h123v-119h-123zM73 152v376h122v-370q0 -64 58 -64q16 0 34 4v-95q-36 -10 -72 -10q-72 0 -107 38.5t-35 120.5z" />
    <glyph glyph-name="uni03CB" unicode="&#x3cb;" horiz-adv-x="622" 
d="M346 595v119h123v-119h-123zM151 595v119h123v-119h-123zM310 -12q-112 0 -176.5 60.5t-64.5 174.5v305h121v-301q0 -65 31 -99.5t91 -34.5q120 0 120 132v303h121v-302q0 -117 -65 -177.5t-178 -60.5z" />
    <glyph glyph-name="uni03CC" unicode="&#x3cc;" horiz-adv-x="657" 
d="M288 595l68 171l108 -47l-96 -124h-80zM327 -12q-120 0 -200 79.5t-80 193.5v2q0 115 81 195.5t201 80.5t200.5 -80t80.5 -194v-2q0 -114 -81 -194.5t-202 -80.5zM329 94q72 0 116 48.5t44 118.5v2q0 71 -46 120.5t-116 49.5q-71 0 -115 -48.5t-44 -119.5v-2
q0 -70 46 -119.5t115 -49.5z" />
    <glyph glyph-name="uni03CD" unicode="&#x3cd;" horiz-adv-x="622" 
d="M270 595l68 171l108 -47l-96 -124h-80zM310 -12q-112 0 -176.5 60.5t-64.5 174.5v305h121v-301q0 -65 31 -99.5t91 -34.5q120 0 120 132v303h121v-302q0 -117 -65 -177.5t-178 -60.5z" />
    <glyph glyph-name="uni03CE" unicode="&#x3ce;" horiz-adv-x="880" 
d="M381 426h118v-171q0 -74 28.5 -116.5t77.5 -42.5t76 39.5t27 115.5q0 73 -30.5 138t-91.5 139h131q110 -125 110 -281q0 -119 -54.5 -189t-152.5 -70q-134 0 -181 137q-47 -137 -181 -137q-98 0 -151.5 69.5t-53.5 189.5q0 154 110 281h130q-61 -72 -91 -137.5
t-30 -139.5q0 -75 27.5 -115t75.5 -40q50 0 78 42t28 117v171zM399 595l68 171l108 -47l-96 -124h-80z" />
    <glyph glyph-name="uni0400" unicode="&#x400;" horiz-adv-x="670" 
d="M401 758h-95l-127 97l109 48zM90 0v700h519v-110h-396v-182h351v-111h-351v-187h401v-110h-524z" />
    <glyph glyph-name="uni0401" unicode="&#x401;" horiz-adv-x="670" 
d="M391 758v112h125v-112h-125zM186 758v112h125v-112h-125zM90 0v700h519v-110h-396v-182h351v-111h-351v-187h401v-110h-524z" />
    <glyph glyph-name="uni0402" unicode="&#x402;" horiz-adv-x="833" 
d="M601 700v-114h-228v-167q83 18 158 18q125 0 192.5 -56.5t67.5 -159.5q0 -101 -68.5 -162t-191.5 -61h-21v109h6q76 0 113.5 29t37.5 80q0 111 -151 111q-63 0 -143 -16v-311h-123v586h-213v114h564z" />
    <glyph glyph-name="uni0403" unicode="&#x403;" horiz-adv-x="618" 
d="M279 758l112 145l110 -48l-128 -97h-94zM90 0v700h491v-112h-368v-588h-123z" />
    <glyph glyph-name="uni0404" unicode="&#x404;" horiz-adv-x="737" 
d="M412 -12q-152 0 -252.5 104t-100.5 256v2q0 152 101 257t257 105q91 0 155 -28t120 -81l-79 -90q-92 87 -195 87q-89 0 -151.5 -54.5t-76.5 -140.5h339v-105h-340q14 -89 76.5 -144.5t151.5 -55.5q61 0 106.5 22t94.5 69l78 -79q-58 -62 -124 -93t-160 -31z" />
    <glyph glyph-name="uni0405" unicode="&#x405;" horiz-adv-x="640" 
d="M335 -10q-167 0 -292 112l74 88q105 -91 221 -91q57 0 90.5 24.5t33.5 63.5v2q0 39 -32 62t-126 45q-60 15 -100 30t-72 39t-46.5 58.5t-14.5 81.5v2q0 90 67 146.5t172 56.5q144 0 254 -88l-66 -93q-97 72 -190 72q-52 0 -83 -23.5t-31 -59.5v-2q0 -41 33.5 -63.5
t133.5 -46.5q116 -28 170 -74.5t54 -130.5v-2q0 -97 -69 -153t-181 -56z" />
    <glyph glyph-name="uni0406" unicode="&#x406;" horiz-adv-x="317" 
d="M97 0v700h123v-700h-123z" />
    <glyph glyph-name="uni0407" unicode="&#x407;" horiz-adv-x="317" 
d="M97 0v700h123v-700h-123zM199 758v112h125v-112h-125zM-6 758v112h125v-112h-125z" />
    <glyph glyph-name="uni0408" unicode="&#x408;" horiz-adv-x="560" 
d="M245 -10q-141 0 -224 113l81 84q64 -83 141 -83q51 0 81 35t30 103v458h127v-462q0 -120 -66 -186q-62 -62 -170 -62z" />
    <glyph glyph-name="uni0409" unicode="&#x409;" horiz-adv-x="1041" 
d="M470 0v597h-5l-326 -597h-127l386 700h195v-233h137q125 0 198 -59.5t73 -170.5v-1q0 -110 -75 -173t-204 -63h-252zM593 112h132q70 0 111 32.5t41 90.5t-39.5 89.5t-109.5 31.5h-135v-244z" />
    <glyph glyph-name="uni040A" unicode="&#x40a;" horiz-adv-x="1107" 
d="M537 0v295h-324v-295h-123v700h123v-291h324v291h122v-233h138q125 0 198 -60t73 -170v-1q0 -110 -75.5 -173t-203.5 -63h-252zM659 112h133q69 0 110 32.5t41 90.5t-39.5 89.5t-109.5 31.5h-135v-244z" />
    <glyph glyph-name="uni040B" unicode="&#x40b;" horiz-adv-x="859" 
d="M601 700v-114h-228v-167q83 18 155 18q263 0 263 -239v-198h-123v183q0 75 -37.5 109t-115.5 34q-69 0 -142 -17v-309h-123v586h-213v114h564z" />
    <glyph glyph-name="uni040C" unicode="&#x40c;" horiz-adv-x="733" 
d="M90 0v700h123l-1 -291h77l263 291h155l-319 -338l336 -362h-158l-274 300h-80l1 -300h-123zM320 757l112 145l110 -48l-128 -97h-94z" />
    <glyph glyph-name="uni040D" unicode="&#x40d;" horiz-adv-x="790" 
d="M444 757h-95l-127 97l109 48zM700 0h-123v506l-380 -506h-107v700h123v-493l369 493h118v-700z" />
    <glyph glyph-name="uni040E" unicode="&#x40e;" horiz-adv-x="718" 
d="M303 0h-137l140 241l-280 459h140l208 -349l190 349h137zM369 755q-73 0 -120 35.5t-53 98.5h86q19 -50 87 -50t87 50h86q-6 -63 -53 -98.5t-120 -35.5z" />
    <glyph glyph-name="uni040F" unicode="&#x40f;" horiz-adv-x="756" 
d="M320 -144v144h-230v700h123v-588h330v588h124v-700h-231v-144h-116z" />
    <glyph glyph-name="uni0410" unicode="&#x410;" horiz-adv-x="790" 
d="M30 0l308 705h114l308 -705h-130l-71 169h-331l-72 -169h-126zM273 278h241l-121 280z" />
    <glyph glyph-name="uni0411" unicode="&#x411;" horiz-adv-x="706" 
d="M90 0v700h508v-110h-387v-172h194q118 0 186 -52.5t68 -150.5v-1q0 -101 -71 -157.5t-191 -56.5h-307zM211 110h189q61 0 98 26.5t37 74.5v1q0 48 -35.5 73t-97.5 25h-191v-200z" />
    <glyph glyph-name="uni0412" unicode="&#x412;" horiz-adv-x="722" 
d="M90 0v700h314q121 0 183 -62q47 -47 47 -116v-2q0 -104 -100 -156q139 -47 139 -170v-2q0 -92 -70 -142t-189 -50h-324zM511 500v2q0 42 -32 65.5t-91 23.5h-177v-186h168q61 0 96.5 24t35.5 71zM550 207q0 94 -144 94h-195v-192h204q63 0 99 24.5t36 71.5v2z" />
    <glyph glyph-name="uni0413" unicode="&#x413;" horiz-adv-x="618" 
d="M90 0v700h491v-112h-368v-588h-123z" />
    <glyph glyph-name="uni0414" unicode="&#x414;" horiz-adv-x="844" 
d="M33 112h69l255 593h130l254 -593h70v-256h-116v144h-546v-144h-116v256zM420 568l-191 -460h382z" />
    <glyph glyph-name="uni0415" unicode="&#x415;" horiz-adv-x="670" 
d="M90 0v700h519v-110h-396v-182h351v-111h-351v-187h401v-110h-524z" />
    <glyph glyph-name="uni0416" unicode="&#x416;" horiz-adv-x="1080" 
d="M30 700h148l246 -293h56l-1 293h122l-1 -293h56l247 293h147l-292 -341l311 -359h-148l-259 302h-62l1 -302h-122l1 302h-65l-258 -302h-145l311 359z" />
    <glyph glyph-name="uni0417" unicode="&#x417;" horiz-adv-x="664" 
d="M126 516l-75 84q126 112 284 112q119 0 188 -51t69 -137q0 -121 -128 -165q146 -35 146 -165q0 -91 -77 -148.5t-208 -57.5q-164 0 -286 104l73 89q104 -83 216 -83q70 0 113.5 28t43.5 76t-42.5 73.5t-117.5 25.5h-126v104h128q64 0 102 27t38 74v1q0 44 -36 69.5
t-99 25.5q-104 0 -206 -86z" />
    <glyph glyph-name="uni0418" unicode="&#x418;" horiz-adv-x="790" 
d="M700 0h-123v506l-380 -506h-107v700h123v-493l369 493h118v-700z" />
    <glyph glyph-name="uni0419" unicode="&#x419;" horiz-adv-x="790" 
d="M395 755q-73 0 -120 35.5t-53 98.5h86q19 -50 87 -50t87 50h86q-6 -63 -53 -98.5t-120 -35.5zM700 0h-123v506l-380 -506h-107v700h123v-493l369 493h118v-700z" />
    <glyph glyph-name="uni041A" unicode="&#x41a;" horiz-adv-x="733" 
d="M90 0v700h123l-1 -291h77l263 291h155l-319 -338l336 -362h-158l-274 300h-80l1 -300h-123z" />
    <glyph glyph-name="uni041B" unicode="&#x41b;" horiz-adv-x="771" 
d="M440 705l301 -705h-137l-221 535l-220 -535h-133l300 705h110z" />
    <glyph glyph-name="uni041C" unicode="&#x41c;" horiz-adv-x="868" 
d="M90 0v700h131l213 -331l213 331h131v-700h-123v502l-221 -330h-4l-219 328v-500h-121z" />
    <glyph glyph-name="uni041D" unicode="&#x41d;" horiz-adv-x="760" 
d="M90 0v700h123v-291h334v291h123v-700h-123v295h-334v-295h-123z" />
    <glyph glyph-name="uni041E" unicode="&#x41e;" horiz-adv-x="850" 
d="M424 -12q-159 0 -262 105t-103 255v2q0 150 104 256t263 106t262 -105t103 -255v-2q0 -150 -104 -256t-263 -106zM426 102q103 0 169.5 71t66.5 175v2q0 104 -67.5 176t-170.5 72t-169.5 -71t-66.5 -175v-2q0 -104 67.5 -176t170.5 -72z" />
    <glyph glyph-name="uni041F" unicode="&#x41f;" horiz-adv-x="756" 
d="M90 0v700h577v-700h-124v588h-330v-588h-123z" />
    <glyph glyph-name="uni0420" unicode="&#x420;" horiz-adv-x="668" 
d="M90 0v700h276q122 0 194 -64t72 -170v-2q0 -113 -79.5 -176t-200.5 -63h-139v-225h-123zM213 336h143q69 0 110 35t41 90v2q0 60 -40.5 92.5t-110.5 32.5h-143v-252z" />
    <glyph glyph-name="uni0421" unicode="&#x421;" horiz-adv-x="739" 
d="M415 -12q-153 0 -254.5 104t-101.5 256v2q0 152 102 257t258 105q91 0 155 -28t120 -81l-79 -91q-94 86 -197 86q-98 0 -164 -71.5t-66 -174.5v-2q0 -104 66 -176t165 -72q61 0 106.5 22t94.5 68l79 -80q-59 -62 -125 -93t-159 -31z" />
    <glyph glyph-name="uni0422" unicode="&#x422;" horiz-adv-x="645" 
d="M261 0v586h-223v114h569v-114h-223v-586h-123z" />
    <glyph glyph-name="uni0423" unicode="&#x423;" horiz-adv-x="718" 
d="M303 0h-137l140 241l-280 459h140l208 -349l190 349h137z" />
    <glyph glyph-name="uni0424" unicode="&#x424;" horiz-adv-x="951" 
d="M414 -10v76q-170 3 -266 81t-96 205q0 126 96 204.5t266 82.5v71h123v-71q170 -3 266.5 -81t96.5 -205q0 -126 -96.5 -205t-266.5 -82v-76h-123zM772 352q0 80 -60.5 129t-176.5 50v-357q115 1 176 49.5t61 128.5zM180 352q0 -80 60 -128.5t176 -49.5v357
q-116 -1 -176 -50t-60 -129z" />
    <glyph glyph-name="uni0425" unicode="&#x425;" horiz-adv-x="729" 
d="M541 700h141l-244 -342l254 -358h-145l-185 267l-184 -267h-141l253 356l-243 344h145l173 -253z" />
    <glyph glyph-name="uni0426" unicode="&#x426;" horiz-adv-x="783" 
d="M633 -144v144h-543v700h123v-588h330v588h124v-588h82v-256h-116z" />
    <glyph glyph-name="uni0427" unicode="&#x427;" horiz-adv-x="709" 
d="M495 0v246q-82 -21 -163 -21q-125 0 -194 59t-69 181v235h123v-220q0 -75 37.5 -109t115.5 -34q75 0 150 22v341h124v-700h-124z" />
    <glyph glyph-name="uni0428" unicode="&#x428;" horiz-adv-x="1117" 
d="M90 0v700h123v-588h284v588h123v-588h283v588h124v-700h-937z" />
    <glyph glyph-name="uni0429" unicode="&#x429;" horiz-adv-x="1143" 
d="M90 0v700h123v-588h284v588h123v-588h283v588h124v-588h82v-256h-116v144h-903z" />
    <glyph glyph-name="uni042A" unicode="&#x42a;" horiz-adv-x="837" 
d="M255 0v590h-218v110h341v-233h148q125 0 198 -59.5t73 -169.5v-2q0 -110 -75 -173t-204 -63h-263zM378 112h143q69 0 110 32t41 90v1q0 58 -39.5 89.5t-109.5 31.5h-145v-244z" />
    <glyph glyph-name="uni042B" unicode="&#x42b;" horiz-adv-x="961" 
d="M90 0v700h123v-233h148q125 0 198 -59.5t73 -169.5v-2q0 -110 -75 -173t-204 -63h-263zM747 0v700h124v-700h-124zM213 112h143q69 0 110 32t41 90v1q0 58 -39.5 89.5t-109.5 31.5h-145v-244z" />
    <glyph glyph-name="uni042C" unicode="&#x42c;" horiz-adv-x="672" 
d="M90 0v700h123v-233h148q125 0 198 -59.5t73 -169.5v-2q0 -110 -75 -173t-204 -63h-263zM213 112h143q69 0 110 32t41 90v1q0 58 -39.5 89.5t-109.5 31.5h-145v-244z" />
    <glyph glyph-name="uni042D" unicode="&#x42d;" horiz-adv-x="737" 
d="M208 300v105h339q-14 87 -74 141.5t-145 54.5q-107 0 -207 -86l-74 84q122 113 287 113q150 0 247 -102t97 -258v-2q0 -154 -99 -258t-255 -104q-165 0 -283 115l79 87q50 -46 97.5 -68.5t105.5 -22.5q89 0 150.5 56t74.5 145h-340z" />
    <glyph glyph-name="uni042E" unicode="&#x42e;" horiz-adv-x="1108" 
d="M90 0v700h123v-291h135q20 129 116 216t233 87q152 0 252 -106t100 -254v-2q0 -148 -101 -255t-253 -107q-138 0 -234 88t-115 219h-133v-295h-123zM697 102q98 0 160.5 71.5t62.5 174.5v2q0 103 -63.5 175.5t-161.5 72.5t-160.5 -71.5t-62.5 -174.5v-2
q0 -103 63.5 -175.5t161.5 -72.5z" />
    <glyph glyph-name="uni042F" unicode="&#x42f;" horiz-adv-x="723" 
d="M633 700v-700h-123v244h-146l-178 -244h-148l194 260q-78 21 -124.5 74.5t-46.5 135.5v1q0 111 75 170t206 59h291zM510 588h-179q-69 0 -107 -30.5t-38 -85.5v-1q0 -56 39.5 -87t107.5 -31h177v235z" />
    <glyph glyph-name="uni0430" unicode="&#x430;" horiz-adv-x="587" 
d="M228 -11q-79 0 -133.5 43.5t-54.5 119.5v2q0 83 59.5 126.5t159.5 43.5q73 0 142 -22v13q0 56 -33.5 85.5t-97.5 29.5q-72 0 -151 -33l-33 95q98 43 200 43q118 0 175 -59q57 -56 57 -163v-313h-118v66q-64 -77 -172 -77zM262 77q61 0 101 31.5t40 81.5v36
q-54 21 -120 21q-58 0 -91 -23.5t-33 -64.5v-2q0 -37 29 -58.5t74 -21.5z" />
    <glyph glyph-name="uni0431" unicode="&#x431;" horiz-adv-x="653" 
d="M327 -12q-116 0 -188 72q-85 85 -85 250q0 183 68.5 278t215.5 120l190 32l19 -111l-188 -30q-90 -16 -135 -58t-56 -122q72 77 192 77q114 0 179.5 -66.5t65.5 -174.5q0 -114 -77.5 -190.5t-200.5 -76.5zM329 91q69 0 112.5 46t43.5 116q0 68 -40.5 110t-108.5 42
q-73 0 -117 -44t-44 -112q0 -69 43.5 -113.5t110.5 -44.5z" />
    <glyph glyph-name="uni0432" unicode="&#x432;" horiz-adv-x="596" 
d="M75 0v528h269q84 0 133.5 -36t49.5 -100q0 -82 -83 -118q105 -33 105 -126q0 -72 -55 -110t-149 -38h-270zM194 224v-136h144q44 0 68.5 17.5t24.5 49.5q0 69 -98 69h-139zM194 309h126q44 0 66 18t22 49q0 29 -22 46.5t-63 17.5h-129v-131z" />
    <glyph glyph-name="uni0433" unicode="&#x433;" horiz-adv-x="503" 
d="M75 0v528h396v-109h-274v-419h-122z" />
    <glyph glyph-name="uni0434" unicode="&#x434;" horiz-adv-x="669" 
d="M398 532l188 -423h60v-241h-110v133h-403v-133h-110v241h60l188 423h127zM334 409l-129 -304h256z" />
    <glyph glyph-name="uni0435" unicode="&#x435;" horiz-adv-x="604" 
d="M318 -12q-116 0 -193.5 76.5t-77.5 197.5v2q0 115 73 195t185 80q120 0 186.5 -81.5t66.5 -202.5q0 -10 -2 -34h-388q10 -63 51 -98.5t101 -35.5q78 0 143 63l71 -63q-82 -99 -216 -99zM167 301h271q-6 61 -41 100t-93 39q-55 0 -92 -38.5t-45 -100.5z" />
    <glyph glyph-name="uni0436" unicode="&#x436;" horiz-adv-x="892" 
d="M505 528l-1 -209h59l167 209h142l-218 -258l226 -270h-143l-173 215h-60l1 -215h-118l1 215h-62l-172 -215h-143l226 265l-217 263h143l167 -209h58l-1 209h118z" />
    <glyph glyph-name="uni0437" unicode="&#x437;" horiz-adv-x="559" 
d="M36 64l61 82q83 -59 178 -59q56 0 87 18.5t31 51.5q0 64 -111 64h-115v89h114q98 0 98 65q0 30 -27.5 47.5t-76.5 17.5q-87 0 -169 -60l-64 77q101 82 239 82q99 0 158 -41t59 -108v-1q0 -83 -93 -120q107 -28 107 -123v-1q0 -67 -63.5 -112t-173.5 -45q-136 0 -239 76z
" />
    <glyph glyph-name="uni0438" unicode="&#x438;" horiz-adv-x="638" 
d="M75 0v528h121v-338l252 338h115v-528h-121v346l-257 -346h-110z" />
    <glyph glyph-name="uni0439" unicode="&#x439;" horiz-adv-x="638" 
d="M75 0v528h121v-338l252 338h115v-528h-121v346l-257 -346h-110zM318 593q-73 0 -119.5 38.5t-52.5 106.5h84q20 -61 88 -61t88 61h84q-6 -68 -52.5 -106.5t-119.5 -38.5z" />
    <glyph glyph-name="uni043A" unicode="&#x43a;" horiz-adv-x="592" 
d="M197 528v-209h60l168 209h149l-222 -258l229 -270h-146l-176 214h-62v-214h-122v528h122z" />
    <glyph glyph-name="uni043B" unicode="&#x43b;" horiz-adv-x="622" 
d="M368 532l229 -532h-132l-155 383l-157 -383h-128l229 532h114z" />
    <glyph glyph-name="uni043C" unicode="&#x43c;" horiz-adv-x="727" 
d="M75 0v528h127l162 -246l162 246h126v-528h-119v350l-169 -251h-3l-168 249v-348h-118z" />
    <glyph glyph-name="uni043D" unicode="&#x43d;" horiz-adv-x="637" 
d="M75 0v528h122v-207h244v207h121v-528h-121v210h-244v-210h-122z" />
    <glyph glyph-name="uni043E" unicode="&#x43e;" horiz-adv-x="657" 
d="M327 -12q-120 0 -200 79.5t-80 193.5v2q0 115 81 195.5t201 80.5t200.5 -80t80.5 -194v-2q0 -114 -81 -194.5t-202 -80.5zM329 94q72 0 116 48.5t44 118.5v2q0 71 -46 120.5t-116 49.5q-71 0 -115 -48.5t-44 -119.5v-2q0 -70 46 -119.5t115 -49.5z" />
    <glyph glyph-name="uni043F" unicode="&#x43f;" horiz-adv-x="637" 
d="M75 0v528h486v-528h-121v419h-243v-419h-122z" />
    <glyph glyph-name="uni0440" unicode="&#x440;" horiz-adv-x="671" 
d="M75 -160v688h122v-88q70 99 180 99q99 0 172 -74t73 -200v-2q0 -125 -72.5 -199.5t-172.5 -74.5q-110 0 -180 93v-242h-122zM348 94q64 0 107.5 46.5t43.5 122.5v2q0 75 -44 122t-107 47t-108.5 -47.5t-45.5 -121.5v-2q0 -74 45.5 -121.5t108.5 -47.5z" />
    <glyph glyph-name="uni0441" unicode="&#x441;" horiz-adv-x="571" 
d="M320 -12q-117 0 -195 79.5t-78 193.5v2q0 114 78.5 195t196.5 81q127 0 211 -91l-76 -81q-64 66 -136 66q-65 0 -109 -49t-44 -119v-2q0 -71 44.5 -120t113.5 -49q72 0 137 65l73 -72q-43 -48 -93.5 -73.5t-122.5 -25.5z" />
    <glyph glyph-name="uni0442" unicode="&#x442;" horiz-adv-x="563" 
d="M221 0v420h-188v108h497v-108h-188v-420h-121z" />
    <glyph glyph-name="uni0443" unicode="&#x443;" horiz-adv-x="596" 
d="M304 136l138 392h126l-210 -542q-31 -82 -70.5 -115.5t-103.5 -33.5q-67 0 -125 33l41 89q37 -20 71 -20q26 0 43 13.5t32 46.5l-220 529h130z" />
    <glyph glyph-name="uni0444" unicode="&#x444;" horiz-adv-x="842" 
d="M481 -160h-120v158q-148 4 -231.5 78t-83.5 187t83.5 187.5t231.5 79.5v200h120v-199q148 -5 231.5 -79t83.5 -187t-84 -187.5t-231 -78.5v-159zM677 263q0 73 -51.5 117t-146.5 47v-326q96 2 147 46t51 116zM166 265q0 -73 51.5 -117t145.5 -47v326q-96 -3 -146.5 -47
t-50.5 -115z" />
    <glyph glyph-name="uni0445" unicode="&#x445;" horiz-adv-x="580" 
d="M169 528l121 -177l123 177h129l-186 -258l194 -270h-132l-130 188l-129 -188h-129l193 269l-186 259h132z" />
    <glyph glyph-name="uni0446" unicode="&#x446;" horiz-adv-x="658" 
d="M518 -132v132h-443v528h122v-419h243v419h121v-419h67v-241h-110z" />
    <glyph glyph-name="uni0447" unicode="&#x447;" horiz-adv-x="593" 
d="M397 0v170q-68 -18 -124 -18q-215 0 -215 197v179h120v-168q0 -52 27.5 -75t84.5 -23q49 0 107 17v249h121v-528h-121z" />
    <glyph glyph-name="uni0448" unicode="&#x448;" horiz-adv-x="938" 
d="M75 0v528h122v-419h211v419h122v-419h211v419h122v-528h-788z" />
    <glyph glyph-name="uni0449" unicode="&#x449;" horiz-adv-x="955" 
d="M75 0v528h122v-419h211v419h122v-419h211v419h122v-419h62v-241h-110v132h-740z" />
    <glyph glyph-name="uni044A" unicode="&#x44a;" horiz-adv-x="675" 
d="M187 0v422h-159v106h279v-163h123q97 0 154 -47.5t57 -132.5v-1q0 -84 -57.5 -134t-161.5 -50h-235zM307 267v-167h112q102 0 102 83v1q0 38 -26.5 60.5t-74.5 22.5h-113z" />
    <glyph glyph-name="uni044B" unicode="&#x44b;" horiz-adv-x="810" 
d="M196 528v-163h123q97 0 153.5 -47.5t56.5 -132.5v-1q0 -84 -57.5 -134t-161.5 -50h-235v528h121zM195 267v-167h113q101 0 101 83v1q0 38 -26 60.5t-74 22.5h-114zM613 0v528h121v-528h-121z" />
    <glyph glyph-name="uni044C" unicode="&#x44c;" horiz-adv-x="564" 
d="M75 0v528h121v-163h123q97 0 153.5 -47.5t56.5 -132.5v-1q0 -84 -57.5 -134t-161.5 -50h-235zM195 100h113q101 0 101 83v1q0 38 -26 60.5t-74 22.5h-114v-167z" />
    <glyph glyph-name="uni044D" unicode="&#x44d;" horiz-adv-x="574" 
d="M165 314l240 -1q-10 56 -50.5 90t-99.5 34q-80 0 -153 -61l-62 79q96 84 221 84q117 0 192 -77.5t75 -197.5q0 -118 -76 -197t-194 -79q-128 0 -222 83l64 82q70 -64 156 -64q59 0 100 35.5t50 92.5l-241 -1v98z" />
    <glyph glyph-name="uni044E" unicode="&#x44e;" horiz-adv-x="889" 
d="M197 210v-210h-122v528h122v-206h101q20 94 94.5 155.5t175.5 61.5q117 0 195.5 -80t78.5 -194v-2q0 -114 -79 -194.5t-197 -80.5q-103 0 -177 63t-92 159h-100zM568 94q68 0 110.5 48.5t42.5 118.5v2q0 71 -44 120.5t-111 49.5q-68 0 -110.5 -48.5t-42.5 -119.5v-2
q0 -70 44 -119.5t111 -49.5z" />
    <glyph glyph-name="uni044F" unicode="&#x44f;" horiz-adv-x="604" 
d="M180 0h-139l142 193q-57 18 -90 59t-33 100q0 85 57.5 130.5t157.5 45.5h253v-528h-120v180h-99zM408 433h-128q-47 0 -74 -21.5t-27 -59.5v-1q0 -37 26.5 -59t73.5 -22h129v163z" />
    <glyph glyph-name="uni0450" unicode="&#x450;" horiz-adv-x="604" 
d="M318 -12q-116 0 -193.5 76.5t-77.5 197.5v2q0 115 73 195t185 80q120 0 186.5 -81.5t66.5 -202.5q0 -10 -2 -34h-388q10 -63 51 -98.5t101 -35.5q78 0 143 63l71 -63q-82 -99 -216 -99zM167 301h271q-6 61 -41 100t-93 39q-55 0 -92 -38.5t-45 -100.5zM260 595l-123 115
l110 49l104 -164h-91z" />
    <glyph glyph-name="uni0451" unicode="&#x451;" horiz-adv-x="604" 
d="M339 595v119h123v-119h-123zM144 595v119h123v-119h-123zM318 -12q-116 0 -193.5 76.5t-77.5 197.5v2q0 115 73 195t185 80q120 0 186.5 -81.5t66.5 -202.5q0 -10 -2 -34h-388q10 -63 51 -98.5t101 -35.5q78 0 143 63l71 -63q-82 -99 -216 -99zM167 301h271
q-6 61 -41 100t-93 39q-55 0 -92 -38.5t-45 -100.5z" />
    <glyph glyph-name="uni0452" unicode="&#x452;" horiz-adv-x="602" 
d="M366 559h-167v-130q62 17 124 17q215 0 215 -197v-217q0 -195 -184 -195q-38 0 -69 7v97q27 -5 47 -5q82 0 85 94v208q0 53 -27 76t-84 23q-49 0 -107 -17v-320h-121v559h-104v96h104v75h121v-75h167v-96z" />
    <glyph glyph-name="uni0453" unicode="&#x453;" horiz-adv-x="503" 
d="M219 595l104 164l110 -49l-123 -115h-91zM75 0v528h396v-109h-274v-419h-122z" />
    <glyph glyph-name="uni0454" unicode="&#x454;" horiz-adv-x="575" 
d="M410 314v-98l-242 1q11 -58 54 -93t106 -35q77 0 147 62l64 -76q-92 -87 -218 -87q-119 0 -196.5 79t-77.5 194v2q0 116 78 196t198 80q123 0 211 -81l-64 -83q-69 62 -145 62q-59 0 -102.5 -34t-54.5 -90z" />
    <glyph glyph-name="uni0455" unicode="&#x455;" horiz-adv-x="501" 
d="M257 -10q-126 0 -224 79l54 82q88 -65 173 -65q39 0 60.5 15.5t21.5 41.5v2q0 38 -106 70q-8 3 -12 4q-36 10 -60 20t-50.5 27.5t-40.5 44t-14 62.5v2q0 74 53.5 118t134.5 44q103 0 194 -60l-48 -86q-82 50 -149 50q-34 0 -54 -15t-20 -37v-2q0 -25 27 -39.5t82 -32.5
q7 -2 10 -3q35 -11 59 -21.5t50.5 -28.5t40.5 -44t14 -60v-2q0 -80 -55 -123t-141 -43z" />
    <glyph glyph-name="uni0456" unicode="&#x456;" horiz-adv-x="286" 
d="M78 609v115h130v-115h-130zM82 0v528h122v-528h-122z" />
    <glyph glyph-name="uni0457" unicode="&#x457;" horiz-adv-x="286" 
d="M179 595v119h123v-119h-123zM-16 595v119h123v-119h-123zM82 0v528h122v-528h-122z" />
    <glyph glyph-name="uni0458" unicode="&#x458;" horiz-adv-x="286" 
d="M78 609v115h130v-115h-130zM51 -163q-27 0 -59 5v97q18 -3 34 -3q56 0 56 64v528h122v-535q0 -156 -153 -156z" />
    <glyph glyph-name="uni0459" unicode="&#x459;" horiz-adv-x="844" 
d="M366 0v433h-2l-230 -433h-127l280 528h200v-163h113q96 0 153 -47.5t57 -132.5v-1q0 -84 -57.5 -134t-161.5 -50h-225zM486 100h102q102 0 102 83v1q0 38 -26 60.5t-74 22.5h-104v-167z" />
    <glyph glyph-name="uni045A" unicode="&#x45a;" horiz-adv-x="910" 
d="M552 528v-163h113q97 0 154 -47.5t57 -132.5v-1q0 -84 -58 -134t-161 -50h-225v210h-235v-210h-122v528h122v-206h235v206h120zM552 267v-167h102q102 0 102 83v1q0 38 -26.5 60.5t-74.5 22.5h-103z" />
    <glyph glyph-name="uni045B" unicode="&#x45b;" horiz-adv-x="602" 
d="M366 559h-167v-130q62 17 124 17q215 0 215 -197v-249h-121v238q0 53 -27 76t-84 23q-49 0 -107 -17v-320h-121v559h-104v96h104v75h121v-75h167v-96z" />
    <glyph glyph-name="uni045C" unicode="&#x45c;" horiz-adv-x="592" 
d="M197 528v-209h60l168 209h149l-222 -258l229 -270h-146l-176 214h-62v-214h-122v528h122zM256 595l104 164l110 -49l-123 -115h-91z" />
    <glyph glyph-name="uni045D" unicode="&#x45d;" horiz-adv-x="638" 
d="M275 595l-123 115l110 49l104 -164h-91zM75 0v528h121v-338l252 338h115v-528h-121v346l-257 -346h-110z" />
    <glyph glyph-name="uni045E" unicode="&#x45e;" horiz-adv-x="596" 
d="M304 136l138 392h126l-210 -542q-31 -82 -70.5 -115.5t-103.5 -33.5q-67 0 -125 33l41 89q37 -20 71 -20q26 0 43 13.5t32 46.5l-220 529h130zM298 593q-73 0 -119.5 38.5t-52.5 106.5h84q20 -61 88 -61t88 61h84q-6 -68 -52.5 -106.5t-119.5 -38.5z" />
    <glyph glyph-name="uni045F" unicode="&#x45f;" horiz-adv-x="637" 
d="M258 -132v132h-183v528h122v-419h243v419h121v-528h-193v-132h-110z" />
    <glyph glyph-name="uni0462" unicode="&#x462;" horiz-adv-x="834" 
d="M375 710v-91h238v-101h-238v-119h178q113 0 177 -50t64 -145v-1q0 -93 -66 -148t-180 -55h-295v517h-216v102h216v91h122zM374 109h178q55 0 87 24.5t32 67.5v1q0 89 -118 89h-179v-182z" />
    <glyph glyph-name="uni0463" unicode="&#x463;" horiz-adv-x="675" 
d="M511 426h-203v-91h133q93 0 146.5 -43t53.5 -122v-1q0 -78 -55.5 -123.5t-152.5 -45.5h-246v425h-159v103h159v202h121v-202h203v-102zM307 242v-147h123q43 0 67 19.5t24 54.5q0 34 -23 53.5t-66 19.5h-125z" />
    <glyph glyph-name="uni0472" unicode="&#x472;" horiz-adv-x="846" 
d="M422 -12q-157 0 -260 105t-103 255v2q0 150 104 256t261 106t260 -105t103 -255v-2q0 -150 -104 -256t-261 -106zM424 96q93 0 157.5 56t78.5 146h-474q14 -89 79.5 -145.5t158.5 -56.5zM422 604q-92 0 -156 -54.5t-80 -142.5h473q-16 87 -81 142t-156 55z" />
    <glyph glyph-name="uni0473" unicode="&#x473;" horiz-adv-x="653" 
d="M325 -12q-118 0 -198 79.5t-80 193.5v2q0 114 80.5 195t199.5 81t199 -80t80 -194v-2q0 -114 -81 -194.5t-200 -80.5zM327 87q63 0 106.5 36t55.5 95h-325q13 -59 57.5 -95t105.5 -36zM325 440q-62 0 -105.5 -35.5t-56.5 -93.5h325q-14 58 -58.5 93.5t-104.5 35.5z" />
    <glyph glyph-name="uni0474" unicode="&#x474;" horiz-adv-x="791" 
d="M316 -5l-286 705h136l208 -538l138 353q40 104 94.5 145.5t148.5 41.5h18v-111h-6q-50 0 -82 -23.5t-57 -83.5l-203 -489h-109z" />
    <glyph glyph-name="uni0475" unicode="&#x475;" horiz-adv-x="612" 
d="M236 -4l-210 532h130l137 -388l82 222q35 95 78.5 132t123.5 37h17v-102h-2q-38 0 -62 -20.5t-46 -73.5l-139 -339h-109z" />
    <glyph glyph-name="uni0490" unicode="&#x490;" horiz-adv-x="618" 
d="M90 0v700h375v137h116v-249h-368v-588h-123z" />
    <glyph glyph-name="uni0491" unicode="&#x491;" horiz-adv-x="503" 
d="M75 0v528h283v128h113v-237h-274v-419h-122z" />
    <glyph glyph-name="uni0492" unicode="&#x492;" horiz-adv-x="648" 
d="M120 0v291h-75v89h75v320h491v-112h-368v-208h180v-89h-180v-291h-123z" />
    <glyph glyph-name="uni0493" unicode="&#x493;" horiz-adv-x="522" 
d="M94 0v209h-68v73h68v246h396v-109h-274v-137h131v-73h-131v-209h-122z" />
    <glyph glyph-name="uni0496" unicode="&#x496;" horiz-adv-x="1089" 
d="M1050 700l-292 -341l214 -247h106v-256h-116v144h-41l-259 302h-62l1 -302h-122l1 302h-65l-258 -302h-145l311 359l-293 341h148l246 -293h56l-1 293h122l-1 -293h56l247 293h147z" />
    <glyph glyph-name="uni0497" unicode="&#x497;" horiz-adv-x="901" 
d="M505 528l-1 -209h59l167 209h142l-218 -258l135 -161h101v-241h-110v132h-43l-173 215h-60l1 -215h-118l1 215h-62l-172 -215h-143l226 265l-217 263h143l167 -209h58l-1 209h118z" />
    <glyph glyph-name="uni0498" unicode="&#x498;" horiz-adv-x="664" 
d="M265 -144l4 135q-130 15 -230 101l73 89q104 -83 216 -83q70 0 113.5 28t43.5 76t-42.5 73.5t-117.5 25.5h-126v104h128q64 0 102 27t38 74v1q0 44 -36 69.5t-99 25.5q-104 0 -206 -86l-75 84q126 112 284 112q119 0 188 -51t69 -137q0 -121 -128 -165q146 -35 146 -165
q0 -80 -61.5 -135.5t-168.5 -67.5l5 -135h-120z" />
    <glyph glyph-name="uni0499" unicode="&#x499;" horiz-adv-x="559" 
d="M36 64l61 82q83 -59 178 -59q56 0 87 18.5t31 51.5q0 64 -111 64h-115v89h114q98 0 98 65q0 30 -27.5 47.5t-76.5 17.5q-87 0 -169 -60l-64 77q101 82 239 82q99 0 158 -41t59 -108v-1q0 -83 -93 -120q107 -28 107 -123v-1q0 -59 -49.5 -102t-137.5 -52l5 -123h-114
l4 123q-104 13 -184 73z" />
    <glyph glyph-name="uni049A" unicode="&#x49a;" horiz-adv-x="740" 
d="M707 700l-319 -338l232 -250h112v-256h-116v144h-50l-274 300h-80l1 -300h-123v700h123l-1 -291h77l263 291h155z" />
    <glyph glyph-name="uni049B" unicode="&#x49b;" horiz-adv-x="595" 
d="M197 528v-209h60l168 209h149l-222 -258l136 -161h95v-241h-110v132h-38l-176 214h-62v-214h-122v528h122z" />
    <glyph glyph-name="uni049C" unicode="&#x49c;" horiz-adv-x="767" 
d="M383 610l-2 -194l207 284h143l-259 -334l272 -366h-148l-215 298l2 -194h-79l2 198h-93v-302h-123v700h123v-291h93l-2 201h79z" />
    <glyph glyph-name="uni049D" unicode="&#x49d;" horiz-adv-x="639" 
d="M615 0h-137l-152 225h-7l1 -152h-64l1 152h-60v-225h-122v528h122v-209h60l-1 148h64l-1 -148h8l151 209h136l-195 -251z" />
    <glyph glyph-name="uni04A0" unicode="&#x4a0;" horiz-adv-x="898" 
d="M37 590v110h341l-1 -291h77l263 291h155l-319 -338l336 -362h-158l-274 300h-80l1 -300h-123v590h-218z" />
    <glyph glyph-name="uni04A1" unicode="&#x4a1;" horiz-adv-x="703" 
d="M28 422v106h280v-209h60l168 209h149l-222 -258l229 -270h-146l-176 214h-62v-214h-122v422h-158z" />
    <glyph glyph-name="uni04A2" unicode="&#x4a2;" horiz-adv-x="786" 
d="M637 -144v144h-90v295h-334v-295h-123v700h123v-291h334v291h123v-588h83v-256h-116z" />
    <glyph glyph-name="uni04A3" unicode="&#x4a3;" horiz-adv-x="654" 
d="M514 -132v132h-73v210h-244v-210h-122v528h122v-207h244v207h121v-419h62v-241h-110z" />
    <glyph glyph-name="uni04A4" unicode="&#x4a4;" horiz-adv-x="1032" 
d="M537 0v295h-324v-295h-123v700h123v-291h324v291h458v-112h-335v-588h-123z" />
    <glyph glyph-name="uni04A5" unicode="&#x4a5;" horiz-adv-x="849" 
d="M197 528v-206h235v206h386v-109h-266v-419h-120v210h-235v-210h-122v528h122z" />
    <glyph glyph-name="uni04AA" unicode="&#x4aa;" horiz-adv-x="739" 
d="M351 -144l4 137q-130 20 -213 119.5t-83 235.5v2q0 152 102 257t258 105q91 0 155 -28t120 -81l-79 -91q-94 86 -197 86q-98 0 -164 -71.5t-66 -174.5v-2q0 -104 66 -176t165 -72q61 0 106.5 22t94.5 68l79 -80q-103 -108 -233 -121l5 -135h-120z" />
    <glyph glyph-name="uni04AB" unicode="&#x4ab;" horiz-adv-x="571" 
d="M257 -132l5 126q-95 19 -155 94t-60 173v2q0 114 78.5 195t196.5 81q127 0 211 -91l-76 -81q-64 66 -136 66q-65 0 -109 -49t-44 -119v-2q0 -71 44.5 -120t113.5 -49q72 0 137 65l73 -72q-75 -83 -170 -96l5 -123h-114z" />
    <glyph glyph-name="uni04AE" unicode="&#x4ae;" horiz-adv-x="716" 
d="M296 0v276l-278 424h146l195 -309l198 309h141l-278 -421v-279h-124z" />
    <glyph glyph-name="uni04AF" unicode="&#x4af;" horiz-adv-x="595" 
d="M358 -160h-121v178l-211 510h131l141 -380l142 380h128l-210 -510v-178z" />
    <glyph glyph-name="uni04B0" unicode="&#x4b0;" horiz-adv-x="716" 
d="M296 0v197h-171v88h165l-272 415h146l195 -309l198 309h141l-274 -415h166v-88h-170v-197h-124z" />
    <glyph glyph-name="uni04B1" unicode="&#x4b1;" horiz-adv-x="595" 
d="M298 148l142 380h128l-188 -455h131v-73h-153v-160h-121v160h-153v73h130l-188 455h131z" />
    <glyph glyph-name="uni04B2" unicode="&#x4b2;" horiz-adv-x="749" 
d="M547 0l-185 267l-184 -267h-141l253 356l-243 344h145l173 -253l176 253h141l-244 -342l174 -246h113v-256h-116v144h-62z" />
    <glyph glyph-name="uni04B3" unicode="&#x4b3;" horiz-adv-x="590" 
d="M169 528l121 -177l123 177h129l-186 -258l115 -161h100v-241h-110v132h-43l-130 188l-129 -188h-129l193 269l-186 259h132z" />
    <glyph glyph-name="uni04B6" unicode="&#x4b6;" horiz-adv-x="735" 
d="M495 0v246q-82 -21 -163 -21q-125 0 -194 59t-69 181v235h123v-220q0 -75 37.5 -109t115.5 -34q75 0 150 22v341h124v-588h83v-256h-116v144h-91z" />
    <glyph glyph-name="uni04B7" unicode="&#x4b7;" horiz-adv-x="610" 
d="M397 0v170q-68 -18 -124 -18q-215 0 -215 197v179h120v-168q0 -52 27.5 -75t84.5 -23q49 0 107 17v249h121v-419h62v-241h-110v132h-73z" />
    <glyph glyph-name="uni04B8" unicode="&#x4b8;" horiz-adv-x="709" 
d="M495 0v246q-47 -12 -111 -19l1 -155h-79l1 153q-113 5 -175.5 64.5t-62.5 175.5v235h123v-220q0 -65 28.5 -99t86.5 -42l-1 201h79l-1 -202q58 5 111 21v341h124v-700h-124z" />
    <glyph glyph-name="uni04B9" unicode="&#x4b9;" horiz-adv-x="593" 
d="M319 49h-64l1 103q-198 8 -198 196v180h120v-166q0 -87 78 -98l-1 140h64v-141q34 2 78 16v249h121v-528h-121v170q-40 -11 -78 -15v-106z" />
    <glyph glyph-name="uni04BA" unicode="&#x4ba;" horiz-adv-x="709" 
d="M213 700v-246q84 21 163 21q126 0 195 -59t69 -181v-235h-124v220q0 75 -37 109t-115 34q-74 0 -151 -22v-341h-123v700h123z" />
    <glyph glyph-name="uni04BB" unicode="&#x4bb;" horiz-adv-x="620" 
d="M75 0v730h122v-283q64 92 165 92q88 0 138 -54.5t50 -147.5v-337h-121v300q0 62 -29.5 95.5t-83.5 33.5q-53 0 -86 -35t-33 -96v-298h-122z" />
    <glyph glyph-name="uni04C0" unicode="&#x4c0;" horiz-adv-x="317" 
d="M97 0v700h123v-700h-123z" />
    <glyph glyph-name="uni04C1" unicode="&#x4c1;" horiz-adv-x="1080" 
d="M30 700h148l246 -293h56l-1 293h122l-1 -293h56l247 293h147l-292 -341l311 -359h-148l-259 302h-62l1 -302h-122l1 302h-65l-258 -302h-145l311 359zM540 756q-73 0 -120 35.5t-53 98.5h86q19 -50 87 -50t87 50h86q-6 -63 -53 -98.5t-120 -35.5z" />
    <glyph glyph-name="uni04C2" unicode="&#x4c2;" horiz-adv-x="892" 
d="M505 528l-1 -209h59l167 209h142l-218 -258l226 -270h-143l-173 215h-60l1 -215h-118l1 215h-62l-172 -215h-143l226 265l-217 263h143l167 -209h58l-1 209h118zM445 593q-73 0 -119.5 38.5t-52.5 106.5h84q20 -61 88 -61t88 61h84q-6 -68 -52.5 -106.5t-119.5 -38.5z
" />
    <glyph glyph-name="uni04CF" unicode="&#x4cf;" horiz-adv-x="286" 
d="M82 0v730h122v-730h-122z" />
    <glyph glyph-name="uni04D0" unicode="&#x4d0;" horiz-adv-x="790" 
d="M30 0l308 705h114l308 -705h-130l-71 169h-331l-72 -169h-126zM273 278h241l-121 280zM395 766q-73 0 -120 35.5t-53 98.5h86q19 -50 87 -50t87 50h86q-6 -63 -53 -98.5t-120 -35.5z" />
    <glyph glyph-name="uni04D1" unicode="&#x4d1;" horiz-adv-x="587" 
d="M228 -11q-79 0 -133.5 43.5t-54.5 119.5v2q0 83 59.5 126.5t159.5 43.5q73 0 142 -22v13q0 56 -33.5 85.5t-97.5 29.5q-72 0 -151 -33l-33 95q98 43 200 43q118 0 175 -59q57 -56 57 -163v-313h-118v66q-64 -77 -172 -77zM262 77q61 0 101 31.5t40 81.5v36
q-54 21 -120 21q-58 0 -91 -23.5t-33 -64.5v-2q0 -37 29 -58.5t74 -21.5zM294 593q-73 0 -119.5 38.5t-52.5 106.5h84q20 -61 88 -61t88 61h84q-6 -68 -52.5 -106.5t-119.5 -38.5z" />
    <glyph glyph-name="uni04D2" unicode="&#x4d2;" horiz-adv-x="790" 
d="M30 0l308 705h114l308 -705h-130l-71 169h-331l-72 -169h-126zM273 278h241l-121 280zM435 768v112h125v-112h-125zM230 768v112h125v-112h-125z" />
    <glyph glyph-name="uni04D3" unicode="&#x4d3;" horiz-adv-x="587" 
d="M228 -11q-79 0 -133.5 43.5t-54.5 119.5v2q0 83 59.5 126.5t159.5 43.5q73 0 142 -22v13q0 56 -33.5 85.5t-97.5 29.5q-72 0 -151 -33l-33 95q98 43 200 43q118 0 175 -59q57 -56 57 -163v-313h-118v66q-64 -77 -172 -77zM262 77q61 0 101 31.5t40 81.5v36
q-54 21 -120 21q-58 0 -91 -23.5t-33 -64.5v-2q0 -37 29 -58.5t74 -21.5zM330 595v119h123v-119h-123zM135 595v119h123v-119h-123z" />
    <glyph glyph-name="uni04D4" unicode="&#x4d4;" horiz-adv-x="1045" 
d="M12 0l391 700h581v-110h-374v-182h329v-111h-329v-187h379v-110h-502v169h-254l-94 -169h-127zM291 278h196v315h-20z" />
    <glyph glyph-name="uni04D5" unicode="&#x4d5;" horiz-adv-x="952" 
d="M239 -11q-85 0 -142 44t-57 119v2q0 83 59 126.5t158 43.5q69 0 140 -22v13q0 56 -33 85.5t-96 29.5q-70 0 -149 -33l-33 95q98 43 198 43q135 0 186 -86q69 90 185 90q118 0 184 -81.5t66 -202.5q0 -22 -1 -34h-388q10 -63 51 -98.5t100 -35.5q79 0 144 63l71 -63
q-84 -99 -217 -99q-127 0 -204 90q-105 -89 -222 -89zM514 301h272q-7 62 -41.5 100.5t-92.5 38.5q-55 0 -92.5 -38.5t-45.5 -100.5zM260 78q84 0 157 68q-16 38 -20 81q-56 20 -116 20q-58 0 -90 -23.5t-32 -64.5v-2q0 -36 29 -57.5t72 -21.5z" />
    <glyph glyph-name="uni04D6" unicode="&#x4d6;" horiz-adv-x="670" 
d="M351 756q-73 0 -120 35.5t-53 98.5h86q19 -50 87 -50t87 50h86q-6 -63 -53 -98.5t-120 -35.5zM90 0v700h519v-110h-396v-182h351v-111h-351v-187h401v-110h-524z" />
    <glyph glyph-name="uni04D7" unicode="&#x4d7;" horiz-adv-x="604" 
d="M318 -12q-116 0 -193.5 76.5t-77.5 197.5v2q0 115 73 195t185 80q120 0 186.5 -81.5t66.5 -202.5q0 -10 -2 -34h-388q10 -63 51 -98.5t101 -35.5q78 0 143 63l71 -63q-82 -99 -216 -99zM167 301h271q-6 61 -41 100t-93 39q-55 0 -92 -38.5t-45 -100.5zM303 593
q-73 0 -119.5 38.5t-52.5 106.5h84q20 -61 88 -61t88 61h84q-6 -68 -52.5 -106.5t-119.5 -38.5z" />
    <glyph glyph-name="uni04D8" unicode="&#x4d8;" horiz-adv-x="797" 
d="M90 581q114 131 296 131q152 0 252 -101t100 -259v-3q0 -152 -98 -256.5t-246 -104.5q-159 0 -247 107.5t-88 265.5q0 28 1 44h545q-15 90 -74 141.5t-145 51.5q-123 0 -216 -97zM394 100q85 0 141.5 55t69.5 144h-415q9 -89 64 -144t140 -55z" />
    <glyph glyph-name="uni04D9" unicode="&#x4d9;" horiz-adv-x="604" 
d="M287 540q116 0 193.5 -76.5t77.5 -196.5v-2q0 -116 -73.5 -196t-185.5 -80q-120 0 -186.5 82t-66.5 202q0 10 2 34h388q-10 64 -51 99t-100 35q-79 0 -144 -63l-71 63q83 99 217 99zM438 227h-272q6 -61 41 -100t93 -39q55 0 92 38.5t46 100.5z" />
    <glyph glyph-name="uni04DC" unicode="&#x4dc;" horiz-adv-x="1080" 
d="M30 700h148l246 -293h56l-1 293h122l-1 -293h56l247 293h147l-292 -341l311 -359h-148l-259 302h-62l1 -302h-122l1 302h-65l-258 -302h-145l311 359zM375 758v112h125v-112h-125zM580 758v112h125v-112h-125z" />
    <glyph glyph-name="uni04DD" unicode="&#x4dd;" horiz-adv-x="892" 
d="M505 528l-1 -209h59l167 209h142l-218 -258l226 -270h-143l-173 215h-60l1 -215h-118l1 215h-62l-172 -215h-143l226 265l-217 263h143l167 -209h58l-1 209h118zM286 595v119h123v-119h-123zM481 595v119h123v-119h-123z" />
    <glyph glyph-name="uni04DE" unicode="&#x4de;" horiz-adv-x="664" 
d="M126 516l-75 84q126 112 284 112q119 0 188 -51t69 -137q0 -121 -128 -165q146 -35 146 -165q0 -91 -77 -148.5t-208 -57.5q-164 0 -286 104l73 89q104 -83 216 -83q70 0 113.5 28t43.5 76t-42.5 73.5t-117.5 25.5h-126v104h128q64 0 102 27t38 74v1q0 44 -36 69.5
t-99 25.5q-104 0 -206 -86zM367 760v112h125v-112h-125zM162 760v112h125v-112h-125z" />
    <glyph glyph-name="uni04DF" unicode="&#x4df;" horiz-adv-x="559" 
d="M36 64l61 82q83 -59 178 -59q56 0 87 18.5t31 51.5q0 64 -111 64h-115v89h114q98 0 98 65q0 30 -27.5 47.5t-76.5 17.5q-87 0 -169 -60l-64 77q101 82 239 82q99 0 158 -41t59 -108v-1q0 -83 -93 -120q107 -28 107 -123v-1q0 -67 -63.5 -112t-173.5 -45q-136 0 -239 76z
M314 595v119h123v-119h-123zM119 595v119h123v-119h-123z" />
    <glyph glyph-name="uni04E2" unicode="&#x4e2;" horiz-adv-x="790" 
d="M215 768v90h360v-90h-360zM700 0h-123v506l-380 -506h-107v700h123v-493l369 493h118v-700z" />
    <glyph glyph-name="uni04E3" unicode="&#x4e3;" horiz-adv-x="638" 
d="M148 606v88h340v-88h-340zM75 0v528h121v-338l252 338h115v-528h-121v346l-257 -346h-110z" />
    <glyph glyph-name="uni04E4" unicode="&#x4e4;" horiz-adv-x="790" 
d="M435 757v112h125v-112h-125zM230 757v112h125v-112h-125zM700 0h-123v506l-380 -506h-107v700h123v-493l369 493h118v-700z" />
    <glyph glyph-name="uni04E5" unicode="&#x4e5;" horiz-adv-x="638" 
d="M354 595v119h123v-119h-123zM159 595v119h123v-119h-123zM75 0v528h121v-338l252 338h115v-528h-121v346l-257 -346h-110z" />
    <glyph glyph-name="uni04E6" unicode="&#x4e6;" horiz-adv-x="850" 
d="M465 768v112h125v-112h-125zM260 768v112h125v-112h-125zM424 -12q-159 0 -262 105t-103 255v2q0 150 104 256t263 106t262 -105t103 -255v-2q0 -150 -104 -256t-263 -106zM426 102q103 0 169.5 71t66.5 175v2q0 104 -67.5 176t-170.5 72t-169.5 -71t-66.5 -175v-2
q0 -104 67.5 -176t170.5 -72z" />
    <glyph glyph-name="uni04E7" unicode="&#x4e7;" horiz-adv-x="657" 
d="M364 595v119h123v-119h-123zM169 595v119h123v-119h-123zM327 -12q-120 0 -200 79.5t-80 193.5v2q0 115 81 195.5t201 80.5t200.5 -80t80.5 -194v-2q0 -114 -81 -194.5t-202 -80.5zM329 94q72 0 116 48.5t44 118.5v2q0 71 -46 120.5t-116 49.5q-71 0 -115 -48.5
t-44 -119.5v-2q0 -70 46 -119.5t115 -49.5z" />
    <glyph glyph-name="uni04E8" unicode="&#x4e8;" horiz-adv-x="846" 
d="M422 -12q-157 0 -260 105t-103 255v2q0 150 104 256t261 106t260 -105t103 -255v-2q0 -150 -104 -256t-261 -106zM424 96q93 0 157.5 56t78.5 146h-474q14 -89 79.5 -145.5t158.5 -56.5zM422 604q-92 0 -156 -54.5t-80 -142.5h473q-16 87 -81 142t-156 55z" />
    <glyph glyph-name="uni04E9" unicode="&#x4e9;" horiz-adv-x="653" 
d="M325 -12q-118 0 -198 79.5t-80 193.5v2q0 114 80.5 195t199.5 81t199 -80t80 -194v-2q0 -114 -81 -194.5t-200 -80.5zM327 87q63 0 106.5 36t55.5 95h-325q13 -59 57.5 -95t105.5 -36zM325 440q-62 0 -105.5 -35.5t-56.5 -93.5h325q-14 58 -58.5 93.5t-104.5 35.5z" />
    <glyph glyph-name="uni04EE" unicode="&#x4ee;" horiz-adv-x="718" 
d="M303 0h-137l140 241l-280 459h140l208 -349l190 349h137zM189 768v90h360v-90h-360z" />
    <glyph glyph-name="uni04EF" unicode="&#x4ef;" horiz-adv-x="596" 
d="M304 136l138 392h126l-210 -542q-31 -82 -70.5 -115.5t-103.5 -33.5q-67 0 -125 33l41 89q37 -20 71 -20q26 0 43 13.5t32 46.5l-220 529h130zM128 606v88h340v-88h-340z" />
    <glyph glyph-name="uni04F0" unicode="&#x4f0;" horiz-adv-x="718" 
d="M303 0h-137l140 241l-280 459h140l208 -349l190 349h137zM204 757v112h125v-112h-125zM409 757v112h125v-112h-125z" />
    <glyph glyph-name="uni04F1" unicode="&#x4f1;" horiz-adv-x="596" 
d="M304 136l138 392h126l-210 -542q-31 -82 -70.5 -115.5t-103.5 -33.5q-67 0 -125 33l41 89q37 -20 71 -20q26 0 43 13.5t32 46.5l-220 529h130zM334 595v119h123v-119h-123zM139 595v119h123v-119h-123z" />
    <glyph glyph-name="uni04F2" unicode="&#x4f2;" horiz-adv-x="718" 
d="M303 0h-137l140 241l-280 459h140l208 -349l190 349h137zM400 757l112 145l106 -48l-127 -97h-91zM225 757l112 145l106 -48l-127 -97h-91z" />
    <glyph glyph-name="uni04F3" unicode="&#x4f3;" horiz-adv-x="596" 
d="M304 136l138 392h126l-210 -542q-31 -82 -70.5 -115.5t-103.5 -33.5q-67 0 -125 33l41 89q37 -20 71 -20q26 0 43 13.5t32 46.5l-220 529h130zM328 595l105 164l106 -49l-123 -115h-88zM158 595l103 164l106 -49l-121 -115h-88z" />
    <glyph glyph-name="uni04F4" unicode="&#x4f4;" horiz-adv-x="709" 
d="M495 0v246q-82 -21 -163 -21q-125 0 -194 59t-69 181v235h123v-220q0 -75 37.5 -109t115.5 -34q75 0 150 22v341h124v-700h-124zM384 757v112h125v-112h-125zM179 757v112h125v-112h-125z" />
    <glyph glyph-name="uni04F5" unicode="&#x4f5;" horiz-adv-x="593" 
d="M323 595v119h123v-119h-123zM128 595v119h123v-119h-123zM397 0v170q-68 -18 -124 -18q-215 0 -215 197v179h120v-168q0 -52 27.5 -75t84.5 -23q49 0 107 17v249h121v-528h-121z" />
    <glyph glyph-name="uni04F8" unicode="&#x4f8;" horiz-adv-x="961" 
d="M90 0v700h123v-233h148q125 0 198 -59.5t73 -169.5v-2q0 -110 -75 -173t-204 -63h-263zM747 0v700h124v-700h-124zM213 112h143q69 0 110 32t41 90v1q0 58 -39.5 89.5t-109.5 31.5h-145v-244zM520 757v112h125v-112h-125zM315 757v112h125v-112h-125z" />
    <glyph glyph-name="uni04F9" unicode="&#x4f9;" horiz-adv-x="810" 
d="M440 595v119h123v-119h-123zM245 595v119h123v-119h-123zM196 528v-163h123q97 0 153.5 -47.5t56.5 -132.5v-1q0 -84 -57.5 -134t-161.5 -50h-235v528h121zM195 267v-167h113q101 0 101 83v1q0 38 -26 60.5t-74 22.5h-114zM613 0v528h121v-528h-121z" />
    <glyph glyph-name="baht" unicode="&#xe3f;" horiz-adv-x="644" 
d="M324 780h81l-10 -82q85 -9 135.5 -55.5t50.5 -121.5q0 -113 -111 -159q63 -24 97 -63t34 -105q0 -93 -67.5 -143.5t-181.5 -50.5h-39l-12 -118h-81l12 118h-157v700h240zM351 308h-7l-23 -206h34q63 0 98.5 27t35.5 77q0 48 -35.5 75t-102.5 27zM185 398h100l22 200h-122
v-200zM469 501q0 40 -24 64.5t-68 30.5l-23 -198q54 3 84.5 29t30.5 74zM185 102h66l23 206h-89v-206z" />
    <glyph glyph-name="Wgrave" unicode="&#x1e80;" horiz-adv-x="1116" 
d="M607 758h-95l-127 97l109 48zM279 -5l-243 705h133l167 -519l172 521h104l172 -521l167 519h129l-243 -705h-107l-172 503l-172 -503h-107z" />
    <glyph glyph-name="wgrave" unicode="&#x1e81;" horiz-adv-x="861" 
d="M203 -4l-172 532h125l106 -362l117 364h104l117 -364l108 362h122l-173 -532h-109l-118 361l-119 -361h-108zM387 595l-123 115l110 49l104 -164h-91z" />
    <glyph glyph-name="Wacute" unicode="&#x1e82;" horiz-adv-x="1116" 
d="M508 758l112 145l110 -48l-128 -97h-94zM279 -5l-243 705h133l167 -519l172 521h104l172 -521l167 519h129l-243 -705h-107l-172 503l-172 -503h-107z" />
    <glyph glyph-name="wacute" unicode="&#x1e83;" horiz-adv-x="861" 
d="M381 595l104 164l110 -49l-123 -115h-91zM203 -4l-172 532h125l106 -362l117 364h104l117 -364l108 362h122l-173 -532h-109l-118 361l-119 -361h-108z" />
    <glyph glyph-name="Wdieresis" unicode="&#x1e84;" horiz-adv-x="1116" 
d="M598 758v112h125v-112h-125zM393 758v112h125v-112h-125zM279 -5l-243 705h133l167 -519l172 521h104l172 -521l167 519h129l-243 -705h-107l-172 503l-172 -503h-107z" />
    <glyph glyph-name="wdieresis" unicode="&#x1e85;" horiz-adv-x="861" 
d="M466 595v119h123v-119h-123zM271 595v119h123v-119h-123zM203 -4l-172 532h125l106 -362l117 364h104l117 -364l108 362h122l-173 -532h-109l-118 361l-119 -361h-108z" />
    <glyph glyph-name="Ygrave" unicode="&#x1ef2;" horiz-adv-x="716" 
d="M296 0v276l-278 424h146l195 -309l198 309h141l-278 -421v-279h-124zM407 757h-95l-127 97l109 48z" />
    <glyph glyph-name="ygrave" unicode="&#x1ef3;" horiz-adv-x="596" 
d="M304 136l138 392h126l-210 -542q-31 -82 -70.5 -115.5t-103.5 -33.5q-67 0 -125 33l41 89q37 -20 71 -20q26 0 43 13.5t32 46.5l-220 529h130zM255 595l-123 115l110 49l104 -164h-91z" />
    <glyph glyph-name="enspace" unicode="&#x2002;" horiz-adv-x="500" 
 />
    <glyph glyph-name="emspace" unicode="&#x2003;" horiz-adv-x="1000" 
 />
    <glyph glyph-name="threeperemspace" unicode="&#x2004;" horiz-adv-x="333" 
 />
    <glyph glyph-name="fourperemspace" unicode="&#x2005;" horiz-adv-x="250" 
 />
    <glyph glyph-name="figurespace" unicode="&#x2007;" horiz-adv-x="600" 
 />
    <glyph glyph-name="thinspace" unicode="&#x2009;" horiz-adv-x="133" 
 />
    <glyph glyph-name="hairspace" unicode="&#x200a;" horiz-adv-x="75" 
 />
    <glyph glyph-name="endash" unicode="&#x2013;" horiz-adv-x="528" 
d="M56 249v115h416v-115h-416z" />
    <glyph glyph-name="emdash" unicode="&#x2014;" horiz-adv-x="898" 
d="M56 249v115h786v-115h-786z" />
    <glyph glyph-name="quoteleft" unicode="&#x2018;" horiz-adv-x="269" 
d="M63 422v117q0 81 38 120.5t116 45.5l13 -52q-92 -17 -85 -94h51v-137h-133z" />
    <glyph glyph-name="quoteright" unicode="&#x2019;" horiz-adv-x="269" 
d="M52 417l-13 52q92 17 86 93h-52v138h133v-117q0 -81 -38 -120.5t-116 -45.5z" />
    <glyph glyph-name="quotesinglbase" unicode="&#x201a;" horiz-adv-x="269" 
d="M47 -146l-13 52q92 18 86 94h-52v138h133v-117q0 -81 -38 -120.5t-116 -46.5z" />
    <glyph glyph-name="quotedblleft" unicode="&#x201c;" horiz-adv-x="501" 
d="M295 422v117q0 81 38 120.5t116 45.5l13 -52q-92 -17 -85 -94h51v-137h-133zM63 422v117q0 81 38 120.5t116 45.5l13 -52q-92 -17 -85 -94h51v-137h-133z" />
    <glyph glyph-name="quotedblright" unicode="&#x201d;" horiz-adv-x="501" 
d="M284 417l-13 52q92 17 85 93h-51v138h133v-117q0 -81 -38 -120.5t-116 -45.5zM52 417l-13 52q92 17 86 93h-52v138h133v-117q0 -81 -38 -120.5t-116 -45.5z" />
    <glyph glyph-name="quotedblbase" unicode="&#x201e;" horiz-adv-x="501" 
d="M279 -146l-13 52q92 18 85 94h-51v138h133v-117q0 -81 -38 -120.5t-116 -46.5zM47 -146l-13 52q92 18 86 94h-52v138h133v-117q0 -81 -38 -120.5t-116 -46.5z" />
    <glyph glyph-name="dagger" unicode="&#x2020;" horiz-adv-x="410" 
d="M169 238l8 275l-121 -9v71l120 -9l-11 134h80l-11 -134l120 9v-71l-121 9l8 -275h-72z" />
    <glyph glyph-name="daggerdbl" unicode="&#x2021;" horiz-adv-x="430" 
d="M175 0l11 134l-120 -9v71l121 -9l-8 163l8 163l-121 -9v71l120 -9l-11 134h80l-11 -134l120 9v-71l-121 9l8 -163l-8 -163l121 9v-71l-120 9l11 -134h-80z" />
    <glyph glyph-name="bullet" unicode="&#x2022;" horiz-adv-x="491" 
d="M246 210q-59 0 -100.5 41.5t-41.5 99.5v2q0 58 42 99.5t100 41.5q57 0 99 -41.5t42 -99.5v-2q0 -58 -41.5 -99.5t-99.5 -41.5z" />
    <glyph glyph-name="ellipsis" unicode="&#x2026;" horiz-adv-x="792" 
d="M594 0v134h130v-134h-130zM331 0v134h130v-134h-130zM68 0v134h130v-134h-130z" />
    <glyph glyph-name="perthousand" unicode="&#x2030;" horiz-adv-x="1228" 
d="M214 427q34 0 54.5 29t20.5 71v2q0 43 -22 72.5t-55 29.5q-34 0 -54.5 -29t-20.5 -71v-2q0 -43 22 -72.5t55 -29.5zM212 350q-72 0 -118 51.5t-46 125.5v2q0 75 46.5 127t119.5 52t118.5 -51.5t45.5 -125.5v-2q0 -75 -46.5 -127t-119.5 -52zM730 700l-276 -373l-236 -327
h-99l275 372l237 328h99zM637 69q34 0 54.5 29t20.5 71v2q0 43 -22 72.5t-55 29.5q-34 0 -54.5 -29t-20.5 -71v-2q0 -43 22 -72.5t55 -29.5zM635 -8q-72 0 -118 51.5t-46 125.5v2q0 75 46.5 127t119.5 52q72 0 118 -51.5t46 -125.5v-2q0 -74 -46.5 -126.5t-119.5 -52.5z
M1016 69q34 0 54.5 29t20.5 71v2q0 43 -22 72.5t-55 29.5q-34 0 -54.5 -29t-20.5 -71v-2q0 -43 22 -72.5t55 -29.5zM1014 -8q-72 0 -118 51.5t-46 125.5v2q0 75 46.5 127t119.5 52q72 0 118 -51.5t46 -125.5v-2q0 -74 -46.5 -126.5t-119.5 -52.5z" />
    <glyph glyph-name="guilsinglleft" unicode="&#x2039;" horiz-adv-x="354" 
d="M217 42l-173 218v8l173 218l85 -43l-125 -178l125 -178z" />
    <glyph glyph-name="guilsinglright" unicode="&#x203a;" horiz-adv-x="354" 
d="M138 42l-86 44l126 177l-126 178l86 45l172 -218v-8z" />
    <glyph glyph-name="fraction" unicode="&#x2044;" horiz-adv-x="100" 
d="M-223 0l251 364l224 336h71l-251 -364l-224 -336h-71z" />
    <glyph glyph-name="zero.sup" unicode="&#x2070;" 
d="M199 411q-68 0 -112.5 56t-44.5 146v4q0 91 44.5 147t113.5 56q68 0 113 -56t45 -146v-4q0 -91 -45 -147t-114 -56zM199 752q-36 0 -58.5 -35.5t-22.5 -97.5v-7q0 -62 22.5 -97.5t59.5 -35.5q36 0 59 35.5t23 97.5v7q0 61 -23.5 97t-59.5 36z" />
    <glyph glyph-name="four.sup" unicode="&#x2074;" 
d="M308 504v-85h-67v85h-188l-10 67l190 243h75v-252h53v-58h-53zM242 562v172l-133 -172h133z" />
    <glyph glyph-name="five.sup" unicode="&#x2075;" 
d="M196 411q-82 0 -150 60l44 54q55 -47 107 -47q34 0 55 18t21 46t-21 44.5t-57 16.5q-41 0 -77 -16l-47 28l16 195h241v-67h-181l-7 -88q28 11 70 11q59 0 98 -31.5t39 -88.5q0 -61 -41.5 -98t-109.5 -37z" />
    <glyph glyph-name="six.sup" unicode="&#x2076;" 
d="M201 411q-62 0 -103 39q-50 52 -50 153v2q0 98 44 156.5t124 58.5q65 0 115 -41l-36 -57q-40 32 -81 32q-37 0 -62 -31.5t-28 -81.5q38 31 90 31q55 0 92 -33t37 -91q0 -60 -40 -98.5t-102 -38.5zM199 474q32 0 53 19.5t21 50.5q0 32 -20 50.5t-53 18.5
q-34 0 -54.5 -18.5t-20.5 -50.5q0 -31 21.5 -50.5t52.5 -19.5z" />
    <glyph glyph-name="seven.sup" unicode="&#x2077;" 
d="M170 419h-82l169 322h-192v69h276v-57z" />
    <glyph glyph-name="eight.sup" unicode="&#x2078;" 
d="M200 411q-66 0 -107 31.5t-41 84.5q0 65 66 96q-55 29 -55 88q0 47 38.5 78t99.5 31q60 0 98 -31t38 -78q0 -57 -55 -88q66 -32 66 -95q0 -53 -41.5 -85t-106.5 -32zM200 761q-31 0 -50 -15.5t-19 -40.5t19.5 -41.5t49.5 -16.5t49.5 16t19.5 42q0 25 -19.5 40.5
t-49.5 15.5zM200 591q-35 0 -57 -17t-22 -44t21.5 -44t57.5 -17t57 16.5t21 44.5q0 27 -22 44t-56 17z" />
    <glyph glyph-name="nine.sup" unicode="&#x2079;" 
d="M199 820q63 0 103 -40q50 -50 50 -152v-2q0 -100 -44 -157.5t-124 -57.5q-70 0 -121 44l36 57q40 -35 87 -35q37 0 62 30t27 79q-39 -32 -88 -32q-55 0 -92.5 33.5t-37.5 93.5q0 61 40 100t102 39zM200 613q34 0 54.5 19.5t20.5 52.5q0 32 -21.5 52t-52.5 20
q-32 0 -53 -20t-21 -52q0 -33 20 -52.5t53 -19.5z" />
    <glyph glyph-name="zero.inf" unicode="&#x2080;" 
d="M199 -142q-68 0 -112.5 56t-44.5 146v4q0 91 44.5 147t113.5 56q68 0 113 -56t45 -146v-4q0 -91 -45 -147t-114 -56zM199 199q-36 0 -58.5 -35.5t-22.5 -97.5v-7q0 -62 22.5 -97.5t59.5 -35.5q36 0 59 35.5t23 97.5v7q0 61 -23.5 97t-59.5 36z" />
    <glyph glyph-name="one.inf" unicode="&#x2081;" horiz-adv-x="325" 
d="M222 -132h-72v318l-79 -30l-20 61l116 45h55v-394z" />
    <glyph glyph-name="two.inf" unicode="&#x2082;" 
d="M55 -132v62l137 116q39 32 55 53.5t16 45.5t-17.5 39.5t-43.5 15.5q-50 0 -93 -59l-52 41q30 42 64.5 63.5t84.5 21.5q59 0 96 -32.5t37 -83.5q0 -39 -19 -69t-66 -68l-100 -82h188v-64h-287z" />
    <glyph glyph-name="three.inf" unicode="&#x2083;" 
d="M197 -142q-89 0 -153 64l45 53q49 -51 109 -51q28 0 48 16t20 42q0 27 -23 42t-61 15h-42l-12 46l113 106h-172v66h264v-57l-116 -106q54 -5 88 -32.5t34 -77.5q0 -56 -39 -91t-103 -35z" />
    <glyph glyph-name="four.inf" unicode="&#x2084;" 
d="M308 -49v-85h-67v85h-188l-10 67l190 243h75v-252h53v-58h-53zM242 9v172l-133 -172h133z" />
    <glyph glyph-name="five.inf" unicode="&#x2085;" 
d="M196 -142q-82 0 -150 60l44 54q55 -47 107 -47q34 0 55 18t21 46t-21 44.5t-57 16.5q-41 0 -77 -16l-47 28l16 195h241v-67h-181l-7 -88q28 11 70 11q59 0 98 -31.5t39 -88.5q0 -61 -41.5 -98t-109.5 -37z" />
    <glyph glyph-name="six.inf" unicode="&#x2086;" 
d="M201 -142q-62 0 -103 39q-50 52 -50 153v2q0 98 44 156.5t124 58.5q65 0 115 -41l-36 -57q-40 32 -81 32q-37 0 -62 -31.5t-28 -81.5q38 31 90 31q55 0 92 -33t37 -91q0 -60 -40 -98.5t-102 -38.5zM199 -79q32 0 53 19.5t21 50.5q0 32 -20 50.5t-53 18.5
q-34 0 -54.5 -18.5t-20.5 -50.5q0 -31 21.5 -50.5t52.5 -19.5z" />
    <glyph glyph-name="seven.inf" unicode="&#x2087;" 
d="M170 -134h-82l169 322h-192v69h276v-57z" />
    <glyph glyph-name="eight.inf" unicode="&#x2088;" 
d="M200 -142q-66 0 -107 31.5t-41 84.5q0 65 66 96q-55 29 -55 88q0 47 38.5 78t99.5 31q60 0 98 -31t38 -78q0 -57 -55 -88q66 -32 66 -95q0 -53 -41.5 -85t-106.5 -32zM200 208q-31 0 -50 -15.5t-19 -40.5t19.5 -41.5t49.5 -16.5t49.5 16t19.5 42q0 25 -19.5 40.5
t-49.5 15.5zM200 38q-35 0 -57 -17t-22 -44t21.5 -44t57.5 -17t57 16.5t21 44.5q0 27 -22 44t-56 17z" />
    <glyph glyph-name="nine.inf" unicode="&#x2089;" 
d="M199 267q63 0 103 -40q50 -50 50 -152v-2q0 -100 -44 -157.5t-124 -57.5q-70 0 -121 44l36 57q40 -35 87 -35q37 0 62 30t27 79q-39 -32 -88 -32q-55 0 -92.5 33.5t-37.5 93.5q0 61 40 100t102 39zM200 60q34 0 54.5 19.5t20.5 52.5q0 32 -21.5 52t-52.5 20
q-32 0 -53 -20t-21 -52q0 -33 20 -52.5t53 -19.5z" />
    <glyph glyph-name="colonmonetary" unicode="&#x20a1;" horiz-adv-x="614" 
d="M456 780h62l-15 -108q32 -14 72 -45l-47 -103q-22 19 -44 35l-63 -451q44 13 98 64l60 -80q-81 -76 -170 -90l-16 -120h-62l16 117q-41 1 -78 12l-17 -129h-61l21 151q-78 41 -123 122t-45 190v9q0 139 73 231t188 111l11 84h62l-11 -79q48 -2 77 -9zM281 114
q35 -14 82 -14h1l68 487q-36 13 -71 13h-12zM157 343q0 -133 74 -197l61 442q-62 -22 -98.5 -83.5t-36.5 -153.5v-8z" />
    <glyph glyph-name="naira" unicode="&#x20a6;" horiz-adv-x="834" 
d="M801 210h-102v-210h-126l-130 210h-192v-210h-116v210h-101v77h101v130h-101v77h101v206h136l126 -206h186v206h116v-206h102v-77h-102v-130h102v-77zM249 527v-243h152l-149 243h-3zM582 187h3v233h-147z" />
    <glyph glyph-name="rupee" unicode="&#x20a8;" horiz-adv-x="1098" 
d="M78 0v700h252q114 0 180.5 -58.5t66.5 -162.5v-4q0 -77 -39 -129t-105 -76l164 -270h-134l-148 246h-121v-246h-116zM864 -10q-120 0 -218 73l51 80q85 -60 170 -60q36 0 59 16t23 42v2q0 24 -22 39.5t-89 37.5q-88 28 -127.5 62.5t-39.5 94.5v2q0 72 52.5 114.5
t132.5 42.5q99 0 185 -55l-44 -85q-79 48 -143 48q-35 0 -56.5 -15.5t-21.5 -38.5v-2q0 -24 23.5 -41t89.5 -38q88 -28 126.5 -62.5t38.5 -94.5v-2q0 -75 -54 -117.5t-136 -42.5zM194 349h131q61 0 97.5 32.5t36.5 89.5v3q0 59 -36 89.5t-100 30.5h-129v-245z" />
    <glyph glyph-name="won" unicode="&#x20a9;" horiz-adv-x="1114" 
d="M1038 700l-58 -213h99v-80h-120l-31 -113h151v-80h-172l-58 -216h-140l-60 216h-185l-59 -216h-140l-58 216h-172v80h150l-30 113h-120v80h98l-57 213h132l50 -213h173l58 215h140l57 -215h174l50 213h128zM554 561l-72 -271h149l-71 271h-6zM336 133h6l72 277h-142z
M776 133h6l63 277h-141z" />
    <glyph glyph-name="sheqel" unicode="&#x20aa;" horiz-adv-x="627" 
d="M233 139l-28 191h66l23 -147q13 -83 97 -83h80v428h93v-528h-174q-71 0 -108.5 34t-48.5 105zM343 344q0 85 -87 85h-100v-429h-93v528h211q65 0 100 -34t35 -99v-194h-66v143z" />
    <glyph glyph-name="Euro" unicode="&#x20ac;" horiz-adv-x="720" 
d="M674 580l-93 -69q-34 47 -69 69t-85 22q-52 0 -92.5 -32.5t-61.5 -89.5h215v-85h-234q-2 -14 -2 -44q0 -27 1 -40h235v-86h-217q21 -60 63.5 -93.5t100.5 -33.5q47 0 81 23t72 73l88 -65q-47 -68 -104.5 -104.5t-137.5 -36.5q-109 0 -185 64t-106 173h-91v86h77
q-1 12 -1 38q0 31 2 46h-78v85h94q31 105 105.5 168.5t178.5 63.5q85 0 142.5 -34.5t101.5 -97.5z" />
    <glyph glyph-name="peso" unicode="&#x20b1;" horiz-adv-x="747" 
d="M131 0v420h-101v74h101v206h235q111 0 181.5 -56.5t82.5 -149.5h97v-74h-97q-12 -99 -90 -155.5t-188 -56.5h-97v-208h-124zM354 313q64 0 104.5 30t49.5 81h-257v-111h103zM251 594v-104h255q-10 51 -49.5 77.5t-103.5 26.5h-102z" />
    <glyph glyph-name="hryvnia" unicode="&#x20b4;" horiz-adv-x="642" 
d="M51 427l7 56l291 -35l6 5q57 46 57 87q0 30 -22.5 48t-63.5 18q-74 0 -157 -65l-64 83q106 88 232 88q95 0 151.5 -47.5t56.5 -117.5q0 -61 -52 -116l118 -14l-7 -57l-167 20l-81 -70l236 -28l-7 -57l-289 35l-10 -9q-36 -30 -48.5 -49.5t-12.5 -42.5q0 -31 25 -48.5
t67 -17.5q82 0 171 68l64 -83q-112 -90 -244 -90q-102 0 -159 47t-57 117q0 66 58 125l-118 15l7 57l168 -21l83 70z" />
    <glyph glyph-name="numero" unicode="&#x2116;" horiz-adv-x="1128" 
d="M76 0v700h107l309 -466v466h114v-700h-99l-317 481v-481h-114zM887 280q-82 0 -133.5 59t-51.5 149v6q0 91 52 150.5t134 59.5q81 0 133 -59.5t52 -149.5v-6q0 -91 -52 -150t-134 -59zM888 358q42 0 68.5 36.5t26.5 92.5v7q0 57 -26.5 94.5t-69.5 37.5t-69.5 -37
t-26.5 -93v-7q0 -57 26.5 -94t70.5 -37zM709 133v71h355v-71h-355z" />
    <glyph glyph-name="published" unicode="&#x2117;" horiz-adv-x="830" 
d="M414 -12q-151 0 -256 105.5t-105 254.5v2q0 149 106 255.5t257 106.5t256 -105.5t105 -254.5v-2q0 -149 -106 -255.5t-257 -106.5zM414 24q138 0 231.5 95.5t93.5 230.5v2q0 135 -93 229.5t-230 94.5q-138 0 -231.5 -95.5t-93.5 -230.5v-2q0 -135 93 -229.5t230 -94.5z
M286 167v380h153q67 0 107 -35t40 -93v-2q0 -62 -44.5 -96t-110.5 -34h-71v-120h-74zM360 352h73q36 0 57 17.5t21 46.5v2q0 30 -20.5 46.5t-57.5 16.5h-73v-129z" />
    <glyph glyph-name="servicemark" unicode="&#x2120;" horiz-adv-x="704" 
d="M356 392v308h63l93 -146l92 146h61v-308h-56v219l-95 -147h-6l-95 147v-219h-57zM168 386q-79 0 -138 51l32 40q55 -43 109 -43q28 0 44 11t16 29q0 17 -15.5 26.5t-57.5 20.5q-57 13 -85 32.5t-28 58.5q0 42 31.5 68t82.5 26q71 0 120 -41l-31 -42q-46 33 -90 33
q-26 0 -41 -10.5t-15 -27.5t16 -27t59 -20q55 -12 83 -33t28 -58q0 -43 -33.5 -68.5t-86.5 -25.5z" />
    <glyph glyph-name="trademark" unicode="&#x2122;" horiz-adv-x="690" 
d="M341 392v308h63l93 -146l93 146h61v-308h-57v219l-95 -147h-6l-95 147v-219h-57zM121 392v254h-95v54h249v-54h-95v-254h-59z" />
    <glyph glyph-name="Omega" unicode="&#x2126;" horiz-adv-x="869" 
d="M435 712q162 0 259 -92t97 -234q0 -164 -158 -280h177v-106h-306v104q76 52 117 113t41 153q0 103 -61.5 165.5t-166.5 62.5q-103 0 -165 -62t-62 -162q0 -90 40.5 -153t117.5 -117v-104h-306v106h177q-158 117 -158 280q0 137 97.5 231.5t259.5 94.5z" />
    <glyph glyph-name="onethird" unicode="&#x2153;" horiz-adv-x="825" 
d="M632 -10q-89 0 -153 64l45 53q49 -51 109 -51q28 0 48 16t20 42q0 27 -23 42t-61 15h-42l-12 46l113 106h-172v66h264v-57l-116 -106q54 -5 88 -32.5t34 -77.5q0 -56 -39 -91t-103 -35zM221 311h-72v318l-79 -30l-20 61l116 46h55v-395zM106 0l251 364l224 336h71
l-251 -364l-224 -336h-71z" />
    <glyph glyph-name="twothirds" unicode="&#x2154;" horiz-adv-x="900" 
d="M707 -10q-89 0 -153 64l45 53q49 -51 109 -51q28 0 48 16t20 42q0 27 -23 42t-61 15h-42l-12 46l113 106h-172v66h264v-57l-116 -106q54 -5 88 -32.5t34 -77.5q0 -56 -39 -91t-103 -35zM45 311v63l137 115q39 32 55 53.5t16 45.5t-17.5 39.5t-43.5 15.5q-50 0 -93 -59
l-52 41q30 43 64 64t85 21q59 0 96 -32.5t37 -83.5q0 -39 -19 -69t-66 -68l-100 -81h188v-65h-287zM177 0l251 364l224 336h71l-251 -364l-224 -336h-71z" />
    <glyph glyph-name="onefifth" unicode="&#x2155;" horiz-adv-x="825" 
d="M631 -10q-82 0 -150 60l44 54q55 -47 107 -47q34 0 55 18t21 46t-21 44.5t-57 16.5q-41 0 -77 -16l-47 28l16 195h241v-67h-181l-7 -88q28 11 70 11q59 0 98 -31.5t39 -88.5q0 -61 -41.5 -98t-109.5 -37zM221 311h-72v318l-79 -30l-20 61l116 46h55v-395zM111 0l251 364
l224 336h71l-251 -364l-224 -336h-71z" />
    <glyph glyph-name="twofifths" unicode="&#x2156;" horiz-adv-x="900" 
d="M706 -10q-82 0 -150 60l44 54q55 -47 107 -47q34 0 55 18t21 46t-21 44.5t-57 16.5q-41 0 -77 -16l-47 28l16 195h241v-67h-181l-7 -88q28 11 70 11q59 0 98 -31.5t39 -88.5q0 -61 -41.5 -98t-109.5 -37zM187 0l251 364l224 336h71l-251 -364l-224 -336h-71zM45 311v63
l137 115q39 32 55 53.5t16 45.5t-17.5 39.5t-43.5 15.5q-50 0 -93 -59l-52 41q30 43 64 64t85 21q59 0 96 -32.5t37 -83.5q0 -39 -19 -69t-66 -68l-100 -81h188v-65h-287z" />
    <glyph glyph-name="threefifths" unicode="&#x2157;" horiz-adv-x="900" 
d="M706 -10q-82 0 -150 60l44 54q55 -47 107 -47q34 0 55 18t21 46t-21 44.5t-57 16.5q-41 0 -77 -16l-47 28l16 195h241v-67h-181l-7 -88q28 11 70 11q59 0 98 -31.5t39 -88.5q0 -61 -41.5 -98t-109.5 -37zM172 0l251 364l224 336h71l-251 -364l-224 -336h-71zM187 301
q-87 0 -153 64l45 53q49 -51 109 -51q28 0 48 16t20 42q0 28 -23 42.5t-61 14.5h-42l-12 46l113 106h-172v66h264v-57l-116 -106q54 -4 88 -32t34 -78q0 -56 -39 -91t-103 -35z" />
    <glyph glyph-name="fourfifths" unicode="&#x2158;" horiz-adv-x="900" 
d="M298 394v-85h-67v85h-188l-10 68l190 243h75v-253h53v-58h-53zM706 -10q-82 0 -150 60l44 54q55 -47 107 -47q34 0 55 18t21 46t-21 44.5t-57 16.5q-41 0 -77 -16l-47 28l16 195h241v-67h-181l-7 -88q28 11 70 11q59 0 98 -31.5t39 -88.5q0 -61 -41.5 -98t-109.5 -37z
M187 0l251 364l224 336h71l-251 -364l-224 -336h-71zM232 452v172l-133 -172h133z" />
    <glyph glyph-name="onesixth" unicode="&#x2159;" horiz-adv-x="825" 
d="M636 -10q-62 0 -103 39q-50 52 -50 153v2q0 98 44 156.5t124 58.5q65 0 115 -41l-36 -57q-40 32 -81 32q-37 0 -62 -31.5t-28 -81.5q38 31 90 31q55 0 92 -33t37 -91q0 -60 -40 -98.5t-102 -38.5zM117 0l251 364l224 336h71l-251 -364l-224 -336h-71zM221 311h-72v318
l-79 -30l-20 61l116 46h55v-395zM634 53q32 0 53 19.5t21 50.5q0 32 -20 50.5t-53 18.5q-34 0 -54.5 -18.5t-20.5 -50.5q0 -31 21.5 -50.5t52.5 -19.5z" />
    <glyph glyph-name="fivesixths" unicode="&#x215a;" horiz-adv-x="900" 
d="M711 -10q-62 0 -103 39q-50 52 -50 153v2q0 98 44 156.5t124 58.5q65 0 115 -41l-36 -57q-40 32 -81 32q-37 0 -62 -31.5t-28 -81.5q38 31 90 31q55 0 92 -33t37 -91q0 -60 -40 -98.5t-102 -38.5zM186 301q-80 0 -150 60l44 55q54 -48 107 -48q34 0 55 18t21 46t-21 44.5
t-57 16.5q-45 0 -77 -16l-47 28l16 195h241v-67h-181l-7 -88q28 11 70 11q59 0 98 -31.5t39 -88.5q0 -61 -41.5 -98t-109.5 -37zM177 0l251 364l224 336h71l-251 -364l-224 -336h-71zM709 53q32 0 53 19.5t21 50.5q0 32 -20 50.5t-53 18.5q-34 0 -54.5 -18.5t-20.5 -50.5
q0 -31 21.5 -50.5t52.5 -19.5z" />
    <glyph glyph-name="oneeighth" unicode="&#x215b;" horiz-adv-x="825" 
d="M635 -10q-66 0 -107 31.5t-41 84.5q0 65 66 96q-55 29 -55 88q0 47 38.5 78t99.5 31q60 0 98 -31t38 -78q0 -57 -55 -88q66 -32 66 -95q0 -53 -41.5 -85t-106.5 -32zM635 340q-31 0 -50 -15.5t-19 -40.5t19.5 -41.5t49.5 -16.5t49.5 16t19.5 42q0 25 -19.5 40.5
t-49.5 15.5zM635 170q-35 0 -57 -17t-22 -44t21.5 -44t57.5 -17t57 16.5t21 44.5q0 27 -22 44t-56 17zM221 311h-72v318l-79 -30l-20 61l116 46h55v-395zM113 0l251 364l224 336h71l-251 -364l-224 -336h-71z" />
    <glyph glyph-name="threeeighths" unicode="&#x215c;" horiz-adv-x="900" 
d="M710 -10q-66 0 -107 31.5t-41 84.5q0 65 66 96q-55 29 -55 88q0 47 38.5 78t99.5 31q60 0 98 -31t38 -78q0 -57 -55 -88q66 -32 66 -95q0 -53 -41.5 -85t-106.5 -32zM710 340q-31 0 -50 -15.5t-19 -40.5t19.5 -41.5t49.5 -16.5t49.5 16t19.5 42q0 25 -19.5 40.5
t-49.5 15.5zM710 170q-35 0 -57 -17t-22 -44t21.5 -44t57.5 -17t57 16.5t21 44.5q0 27 -22 44t-56 17zM177 0l251 364l224 336h71l-251 -364l-224 -336h-71zM187 301q-87 0 -153 64l45 53q49 -51 109 -51q28 0 48 16t20 42q0 28 -23 42.5t-61 14.5h-42l-12 46l113 106h-172
v66h264v-57l-116 -106q54 -4 88 -32t34 -78q0 -56 -39 -91t-103 -35z" />
    <glyph glyph-name="fiveeighths" unicode="&#x215d;" horiz-adv-x="900" 
d="M710 -10q-66 0 -107 31.5t-41 84.5q0 65 66 96q-55 29 -55 88q0 47 38.5 78t99.5 31q60 0 98 -31t38 -78q0 -57 -55 -88q66 -32 66 -95q0 -53 -41.5 -85t-106.5 -32zM710 340q-31 0 -50 -15.5t-19 -40.5t19.5 -41.5t49.5 -16.5t49.5 16t19.5 42q0 25 -19.5 40.5
t-49.5 15.5zM710 170q-35 0 -57 -17t-22 -44t21.5 -44t57.5 -17t57 16.5t21 44.5q0 27 -22 44t-56 17zM177 0l251 364l224 336h71l-251 -364l-224 -336h-71zM186 301q-80 0 -150 60l44 55q54 -48 107 -48q34 0 55 18t21 46t-21 44.5t-57 16.5q-45 0 -77 -16l-47 28l16 195
h241v-67h-181l-7 -88q28 11 70 11q59 0 98 -31.5t39 -88.5q0 -61 -41.5 -98t-109.5 -37z" />
    <glyph glyph-name="seveneighths" unicode="&#x215e;" horiz-adv-x="900" 
d="M710 -10q-66 0 -107 31.5t-41 84.5q0 65 66 96q-55 29 -55 88q0 47 38.5 78t99.5 31q60 0 98 -31t38 -78q0 -57 -55 -88q66 -32 66 -95q0 -53 -41.5 -85t-106.5 -32zM710 340q-31 0 -50 -15.5t-19 -40.5t19.5 -41.5t49.5 -16.5t49.5 16t19.5 42q0 25 -19.5 40.5
t-49.5 15.5zM710 170q-35 0 -57 -17t-22 -44t21.5 -44t57.5 -17t57 16.5t21 44.5q0 27 -22 44t-56 17zM170 309h-82l169 323h-192v68h276v-56zM147 0l251 364l224 336h71l-251 -364l-224 -336h-71z" />
    <glyph glyph-name="Delta" unicode="&#x2206;" horiz-adv-x="787" 
d="M56 0l-10 89l284 616h127l284 -616l-10 -89h-675zM186 110h411l-205 459z" />
    <glyph glyph-name="minus" unicode="&#x2212;" horiz-adv-x="634" 
d="M566 295h-498v114h498v-114z" />
    <glyph glyph-name="Q.alt" horiz-adv-x="850" 
d="M666 -101l-115 110q-63 -21 -127 -21q-159 0 -262 105t-103 255v2q0 150 104 256t263 106t262 -105t103 -255v-2q0 -162 -119 -270l178 -177v-4h-184zM426 102q103 0 169.5 71t66.5 175v2q0 104 -67.5 176t-170.5 72t-169.5 -71t-66.5 -175v-2q0 -104 67.5 -176
t170.5 -72z" />
    <glyph glyph-name="a.alt" horiz-adv-x="671" 
d="M294 -11q-99 0 -172 74.5t-73 199.5v2q0 126 72.5 200t172.5 74q109 0 180 -93v82h121v-528h-121v88q-70 -99 -180 -99zM323 94q63 0 108 47.5t45 121.5v2q0 74 -45 121.5t-108 47.5q-64 0 -108 -46.5t-44 -122.5v-2q0 -75 44.5 -122t107.5 -47z" />
    <glyph glyph-name="uni039E.alt" horiz-adv-x="742" 
d="M686 110v-110h-630v110h256v188h-225v109h225v183h-251v110h620v-110h-251v-183h225v-109h-225v-188h256z" />
    <glyph glyph-name="uni0424.bgr" horiz-adv-x="966" 
d="M421 -100v99q-163 8 -262.5 105.5t-99.5 243.5v2q0 145 100 243t262 108v99h124v-99q163 -8 262.5 -106t99.5 -243v-2q0 -145 -100 -244t-262 -107v-99h-124zM187 350q0 -101 64.5 -167.5t173.5 -72.5v480q-109 -5 -173.5 -71t-64.5 -167v-2zM779 350q0 100 -65 167
t-173 72v-479q110 6 174 71.5t64 166.5v2z" />
    <glyph glyph-name="uni0432.bgr" horiz-adv-x="648" 
d="M341 -12q-132 0 -203.5 67t-71.5 205v217q0 122 69.5 191t192.5 69q112 0 177.5 -54.5t65.5 -145.5q0 -130 -138 -172q81 -19 123.5 -61t42.5 -117q0 -87 -71 -143t-187 -56zM342 89q62 0 99 30.5t37 78.5q0 118 -198 118h-93v-55q0 -172 155 -172zM187 477v-72h92
q81 0 126.5 32.5t45.5 90.5q0 48 -32.5 78t-89.5 30q-66 0 -104 -43t-38 -116z" />
    <glyph glyph-name="uni0433.bgr" horiz-adv-x="518" 
d="M230 -10q-86 0 -136 39.5t-50 110.5v2q0 63 42.5 101t135.5 67q80 26 105 41t25 39q0 23 -18 37t-54 14q-76 0 -169 -55l-49 85q105 66 219 66q87 0 134.5 -40.5t47.5 -109.5v-2q0 -63 -42 -97t-138 -65q-77 -25 -102.5 -41.5t-25.5 -42.5q0 -53 78 -53q87 0 194 70
l51 -82q-119 -84 -248 -84z" />
    <glyph glyph-name="uni0434.bgr" horiz-adv-x="671" 
d="M311 -162q-132 0 -236 63l45 91q90 -55 188 -55q81 0 124 41t43 120v40q-75 -96 -186 -96q-98 0 -169 67.5t-71 179.5v2q0 112 71.5 180t168.5 68q110 0 185 -90v79h121v-420q0 -132 -67 -199q-71 -71 -217 -71zM321 145q64 0 109.5 41t45.5 104v2q0 63 -45 103.5
t-110 40.5q-64 0 -107 -40t-43 -104v-2q0 -64 43.5 -104.5t106.5 -40.5z" />
    <glyph glyph-name="uni0436.bgr" horiz-adv-x="892" 
d="M505 730l-1 -411h59l167 209h142l-218 -258l226 -270h-143l-173 215h-60l1 -215h-118l1 215h-62l-172 -215h-143l226 265l-217 263h143l167 -209h58l-1 411h118z" />
    <glyph glyph-name="uni0438.bgr" horiz-adv-x="620" 
d="M258 -11q-88 0 -138 55t-50 148v336h121v-300q0 -61 29.5 -94.5t83.5 -33.5q53 0 86 34.5t33 95.5v298h122v-528h-122v82q-63 -93 -165 -93z" />
    <glyph glyph-name="uni0439.bgr" horiz-adv-x="620" 
d="M258 -11q-88 0 -138 55t-50 148v336h121v-300q0 -61 29.5 -94.5t83.5 -33.5q53 0 86 34.5t33 95.5v298h122v-528h-122v82q-63 -93 -165 -93zM306 593q-73 0 -119.5 38.5t-52.5 106.5h84q20 -61 88 -61t88 61h84q-6 -68 -52.5 -106.5t-119.5 -38.5z" />
    <glyph glyph-name="uni043A.bgr" horiz-adv-x="592" 
d="M581 0h-146l-176 214h-62v-214h-122v730h122v-411h60l168 209h149l-222 -258z" />
    <glyph glyph-name="uni043F.bgr" horiz-adv-x="620" 
d="M75 0v528h122v-81q64 92 165 92q88 0 138 -54.5t50 -147.5v-337h-121v300q0 62 -29.5 95.5t-83.5 33.5q-53 0 -86 -35t-33 -96v-298h-122z" />
    <glyph glyph-name="uni0442.bgr" horiz-adv-x="949" 
d="M75 0v528h122v-80q66 91 161 91q112 0 158 -93q70 93 178 93q87 0 136 -53t49 -149v-337h-121v300q0 63 -28 96t-79 33t-82 -34.5t-31 -96.5v-298h-121v301q0 61 -28 94.5t-79 33.5t-82 -35.5t-31 -95.5v-298h-122z" />
    <glyph glyph-name="uni0446.bgr" horiz-adv-x="637" 
d="M496 -132v132h-73v82q-63 -93 -165 -93q-88 0 -138 55t-50 148v336h121v-300q0 -61 29.5 -94.5t83.5 -33.5q53 0 86 34.5t33 95.5v298h122v-419h61v-241h-110z" />
    <glyph glyph-name="uni0448.bgr" horiz-adv-x="949" 
d="M874 528v-528h-122v80q-66 -91 -161 -91q-111 0 -157 93q-71 -93 -179 -93q-87 0 -136 53t-49 149v337h121v-300q0 -62 28 -95t79 -33t82 34t31 96v298h121v-301q0 -61 28 -94t79 -33t82 35t31 96v297h122z" />
    <glyph glyph-name="uni0449.bgr" horiz-adv-x="967" 
d="M827 -132v132h-75v80q-66 -91 -161 -91q-111 0 -157 93q-71 -93 -179 -93q-87 0 -136 53t-49 149v337h121v-300q0 -62 28 -95t79 -33t82 34t31 96v298h121v-301q0 -61 28 -94t79 -33t82 35t31 96v297h122v-419h63v-241h-110z" />
    <glyph glyph-name="uni044E.bgr" horiz-adv-x="889" 
d="M197 210v-210h-122v730h122v-408h101q20 94 94.5 155.5t175.5 61.5q117 0 195.5 -80t78.5 -194v-2q0 -114 -79 -194.5t-197 -80.5q-103 0 -177 63t-92 159h-100zM568 94q68 0 110.5 48.5t42.5 118.5v2q0 71 -44 120.5t-111 49.5q-68 0 -110.5 -48.5t-42.5 -119.5v-2
q0 -70 44 -119.5t111 -49.5z" />
    <glyph glyph-name="aacute.alt" horiz-adv-x="671" 
d="M293 595l104 164l110 -49l-123 -115h-91zM294 -11q-99 0 -172 74.5t-73 199.5v2q0 126 72.5 200t172.5 74q109 0 180 -93v82h121v-528h-121v88q-70 -99 -180 -99zM323 94q63 0 108 47.5t45 121.5v2q0 74 -45 121.5t-108 47.5q-64 0 -108 -46.5t-44 -122.5v-2
q0 -75 44.5 -122t107.5 -47z" />
    <glyph glyph-name="abreve.alt" horiz-adv-x="671" 
d="M294 -11q-99 0 -172 74.5t-73 199.5v2q0 126 72.5 200t172.5 74q109 0 180 -93v82h121v-528h-121v88q-70 -99 -180 -99zM323 94q63 0 108 47.5t45 121.5v2q0 74 -45 121.5t-108 47.5q-64 0 -108 -46.5t-44 -122.5v-2q0 -75 44.5 -122t107.5 -47zM341 593
q-73 0 -119.5 38.5t-52.5 106.5h84q20 -61 88 -61t88 61h84q-6 -68 -52.5 -106.5t-119.5 -38.5z" />
    <glyph glyph-name="acircumflex.alt" horiz-adv-x="671" 
d="M168 595l117 147h112l117 -147h-96l-78 67l-78 -67h-94zM294 -11q-99 0 -172 74.5t-73 199.5v2q0 126 72.5 200t172.5 74q109 0 180 -93v82h121v-528h-121v88q-70 -99 -180 -99zM323 94q63 0 108 47.5t45 121.5v2q0 74 -45 121.5t-108 47.5q-64 0 -108 -46.5t-44 -122.5
v-2q0 -75 44.5 -122t107.5 -47z" />
    <glyph glyph-name="adieresis.alt" horiz-adv-x="671" 
d="M377 595v119h123v-119h-123zM182 595v119h123v-119h-123zM294 -11q-99 0 -172 74.5t-73 199.5v2q0 126 72.5 200t172.5 74q109 0 180 -93v82h121v-528h-121v88q-70 -99 -180 -99zM323 94q63 0 108 47.5t45 121.5v2q0 74 -45 121.5t-108 47.5q-64 0 -108 -46.5t-44 -122.5
v-2q0 -75 44.5 -122t107.5 -47z" />
    <glyph glyph-name="agrave.alt" horiz-adv-x="671" 
d="M294 -11q-99 0 -172 74.5t-73 199.5v2q0 126 72.5 200t172.5 74q109 0 180 -93v82h121v-528h-121v88q-70 -99 -180 -99zM323 94q63 0 108 47.5t45 121.5v2q0 74 -45 121.5t-108 47.5q-64 0 -108 -46.5t-44 -122.5v-2q0 -75 44.5 -122t107.5 -47zM298 595l-123 115l110 49
l104 -164h-91z" />
    <glyph glyph-name="amacron.alt" horiz-adv-x="671" 
d="M294 -11q-99 0 -172 74.5t-73 199.5v2q0 126 72.5 200t172.5 74q109 0 180 -93v82h121v-528h-121v88q-70 -99 -180 -99zM323 94q63 0 108 47.5t45 121.5v2q0 74 -45 121.5t-108 47.5q-64 0 -108 -46.5t-44 -122.5v-2q0 -75 44.5 -122t107.5 -47zM171 606v88h340v-88h-340
z" />
    <glyph glyph-name="aogonek.alt" horiz-adv-x="671" 
d="M607 -106v-58q-24 -2 -32 -2q-63 1 -97.5 24t-34.5 61q0 39 40 81h-9v88q-70 -99 -180 -99q-99 0 -172 74.5t-73 199.5v2q0 126 72.5 200t172.5 74q109 0 180 -93v82h121v-528h-27q-33 -33 -33 -63q0 -43 72 -43zM323 94q63 0 108 47.5t45 121.5v2q0 74 -45 121.5
t-108 47.5q-64 0 -108 -46.5t-44 -122.5v-2q0 -75 44.5 -122t107.5 -47z" />
    <glyph glyph-name="aring.alt" horiz-adv-x="671" 
d="M341 593q-48 0 -82 33t-34 79t34 79t82 33t82 -33t34 -79t-34 -79t-82 -33zM341 638q28 0 47.5 19.5t19.5 47.5t-19.5 47.5t-47.5 19.5t-47.5 -19.5t-19.5 -47.5t19.5 -47.5t47.5 -19.5zM294 -11q-99 0 -172 74.5t-73 199.5v2q0 126 72.5 200t172.5 74q109 0 180 -93v82
h121v-528h-121v88q-70 -99 -180 -99zM323 94q63 0 108 47.5t45 121.5v2q0 74 -45 121.5t-108 47.5q-64 0 -108 -46.5t-44 -122.5v-2q0 -75 44.5 -122t107.5 -47z" />
    <glyph glyph-name="aring.alt2" horiz-adv-x="587" 
d="M228 -11q-79 0 -133.5 43.5t-54.5 119.5v2q0 83 59.5 126.5t159.5 43.5q73 0 142 -22v13q0 56 -33.5 85.5t-97.5 29.5q-72 0 -151 -33l-33 95q65 28 124 37q-31 31 -31 74q0 46 34 79t82 33t82 -33t34 -79q0 -48 -38 -79q53 -13 88 -48q57 -56 57 -163v-313h-118v66
q-64 -77 -172 -77zM262 77q61 0 101 31.5t40 81.5v36q-54 21 -120 21q-58 0 -91 -23.5t-33 -64.5v-2q0 -37 29 -58.5t74 -21.5zM228 603q0 -28 19.5 -47.5t47.5 -19.5q27 0 47 19.5t20 47.5q0 27 -20 47t-47 20q-28 0 -47.5 -20t-19.5 -47z" />
    <glyph glyph-name="aringacute.alt" horiz-adv-x="671" 
d="M292 849l110 138l108 -49l-127 -89h-91zM341 593q-48 0 -82 33t-34 79t34 79t82 33t82 -33t34 -79t-34 -79t-82 -33zM341 638q28 0 47.5 19.5t19.5 47.5t-19.5 47.5t-47.5 19.5t-47.5 -19.5t-19.5 -47.5t19.5 -47.5t47.5 -19.5zM294 -11q-99 0 -172 74.5t-73 199.5v2
q0 126 72.5 200t172.5 74q109 0 180 -93v82h121v-528h-121v88q-70 -99 -180 -99zM323 94q63 0 108 47.5t45 121.5v2q0 74 -45 121.5t-108 47.5q-64 0 -108 -46.5t-44 -122.5v-2q0 -75 44.5 -122t107.5 -47z" />
    <glyph glyph-name="aringacute.alt2" horiz-adv-x="587" 
d="M245 750l110 138l108 -49l-126 -89h-92zM228 -11q-79 0 -133.5 43.5t-54.5 119.5v2q0 83 59.5 126.5t159.5 43.5q73 0 142 -22v13q0 56 -33.5 85.5t-97.5 29.5q-72 0 -151 -33l-33 95q65 28 124 37q-31 31 -31 74q0 46 34 79t82 33t82 -33t34 -79q0 -48 -38 -79
q53 -13 88 -48q57 -56 57 -163v-313h-118v66q-64 -77 -172 -77zM262 77q61 0 101 31.5t40 81.5v36q-54 21 -120 21q-58 0 -91 -23.5t-33 -64.5v-2q0 -37 29 -58.5t74 -21.5zM228 603q0 -28 19.5 -47.5t47.5 -19.5q27 0 47 19.5t20 47.5q0 27 -20 47t-47 20q-28 0 -47.5 -20
t-19.5 -47z" />
    <glyph glyph-name="atilde.alt" horiz-adv-x="671" 
d="M294 -11q-99 0 -172 74.5t-73 199.5v2q0 126 72.5 200t172.5 74q109 0 180 -93v82h121v-528h-121v88q-70 -99 -180 -99zM323 94q63 0 108 47.5t45 121.5v2q0 74 -45 121.5t-108 47.5q-64 0 -108 -46.5t-44 -122.5v-2q0 -75 44.5 -122t107.5 -47zM422 595q-32 0 -84 21
q-42 19 -60 19q-20 0 -31.5 -11t-23.5 -39l-67 21q17 64 42.5 94t69.5 30q32 0 84 -21q42 -19 60 -19q20 0 31.5 11t23.5 39l67 -20q-17 -64 -42.5 -94.5t-69.5 -30.5z" />
    <glyph glyph-name="i.dot" horiz-adv-x="286" 
d="M78 609v115h130v-115h-130zM82 0v528h122v-528h-122z" />
    <glyph glyph-name="uni0386.calt" horiz-adv-x="790" 
d="M30 0l308 705h114l308 -705h-130l-71 169h-331l-72 -169h-126zM273 278h241l-121 280z" />
    <glyph glyph-name="uni0388.calt" horiz-adv-x="670" 
d="M90 0v700h519v-110h-396v-182h351v-111h-351v-187h401v-110h-524z" />
    <glyph glyph-name="uni0389.calt" horiz-adv-x="760" 
d="M90 0v700h123v-291h334v291h123v-700h-123v295h-334v-295h-123z" />
    <glyph glyph-name="uni038A.calt" horiz-adv-x="317" 
d="M97 0v700h123v-700h-123z" />
    <glyph glyph-name="uni038C.calt" horiz-adv-x="850" 
d="M424 -12q-159 0 -262 105t-103 255v2q0 150 104 256t263 106t262 -105t103 -255v-2q0 -150 -104 -256t-263 -106zM426 102q103 0 169.5 71t66.5 175v2q0 104 -67.5 176t-170.5 72t-169.5 -71t-66.5 -175v-2q0 -104 67.5 -176t170.5 -72z" />
    <glyph glyph-name="uni038E.calt" horiz-adv-x="716" 
d="M296 0v276l-278 424h146l195 -309l198 309h141l-278 -421v-279h-124z" />
    <glyph glyph-name="uni038F.calt" horiz-adv-x="869" 
d="M435 712q162 0 259 -92t97 -234q0 -164 -158 -280h177v-106h-306v104q76 52 117 113t41 153q0 103 -61.5 165.5t-166.5 62.5q-103 0 -165 -62t-62 -162q0 -90 40.5 -153t117.5 -117v-104h-306v106h177q-158 117 -158 280q0 137 97.5 231.5t259.5 94.5z" />
    <glyph glyph-name="uni0399.calt" horiz-adv-x="317" 
d="M97 0v700h123v-700h-123zM199 758v112h125v-112h-125zM-6 758v112h125v-112h-125z" />
    <glyph glyph-name="uni03A5.calt" horiz-adv-x="716" 
d="M296 0v276l-278 424h146l195 -309l198 309h141l-278 -421v-279h-124zM398 757v112h125v-112h-125zM193 757v112h125v-112h-125z" />
    <glyph glyph-name="uni0431.srb" horiz-adv-x="643" 
d="M318 -12q-118 0 -195 72.5t-77 179.5q0 92 55.5 154.5t153.5 76.5l-42 23q-57 31 -81.5 58.5t-24.5 71.5q0 46 38.5 76t117.5 30h272v-104l-273 2q-39 0 -39 -26q0 -19 37 -39l153 -79q90 -45 136.5 -101t46.5 -139q0 -108 -77 -182t-201 -74zM322 91q69 0 112 43t43 110
t-44.5 109.5t-110.5 42.5q-70 0 -113 -44.5t-43 -109.5q0 -66 44 -108.5t112 -42.5z" />
    <glyph glyph-name="three.alt" horiz-adv-x="610" 
d="M311 -12q-165 0 -272 122l85 79q80 -90 189 -90q57 0 91 27.5t34 74.5v2q0 47 -40.5 72.5t-113.5 25.5h-75v104h78q60 0 96 27.5t36 72.5v2q0 42 -32.5 68t-88.5 26q-85 0 -158 -89l-87 71q49 63 107 96t140 33q108 0 174.5 -52.5t66.5 -134.5v-2q0 -113 -104 -164
q123 -47 123 -158v-2q0 -92 -67.5 -151.5t-181.5 -59.5z" />
    <glyph glyph-name="registered.alt" horiz-adv-x="830" 
d="M414 -12q-151 0 -256 105.5t-105 254.5v2q0 149 106 255.5t257 106.5t256 -105.5t105 -254.5v-2q0 -149 -106 -255.5t-257 -106.5zM414 24q138 0 231.5 95.5t93.5 230.5v2q0 135 -93 229.5t-230 94.5q-138 0 -231.5 -95.5t-93.5 -230.5v-2q0 -135 93 -229.5t230 -94.5z
M269 171v379h169q75 0 115 -40q31 -31 31 -80v-2q0 -88 -88 -115l102 -142h-86l-92 131h-79v-131h-72zM341 365h94q35 0 55 16t20 43v2q0 28 -20 43.5t-55 15.5h-94v-120z" />
    <glyph glyph-name="one.sup_alt" 
d="M352 421h-280v63h109v255l-95 -35l-20 61l132 50h55v-331h99v-63z" />
    <glyph glyph-name="one.inf_alt" 
d="M352 -132h-280v63h109v255l-95 -35l-20 61l132 50h55v-331h99v-63z" />
    <glyph glyph-name="zero.num" 
d="M199 301q-68 0 -112.5 56t-44.5 146v4q0 91 44.5 147t113.5 56q68 0 113 -56t45 -146v-4q0 -91 -45 -147t-114 -56zM199 642q-36 0 -58.5 -35.5t-22.5 -97.5v-7q0 -62 22.5 -97.5t59.5 -35.5q36 0 59 35.5t23 97.5v7q0 61 -23.5 97t-59.5 36z" />
    <glyph glyph-name="one.num" horiz-adv-x="325" 
d="M222 311h-72v318l-79 -30l-20 61l116 46h55v-395z" />
    <glyph glyph-name="one.num_alt" 
d="M352 311h-280v64h109v254l-95 -35l-20 61l132 51h55v-331h99v-64z" />
    <glyph glyph-name="two.num" 
d="M55 311v63l137 115q39 32 55 53.5t16 45.5t-17.5 39.5t-43.5 15.5q-50 0 -93 -59l-52 41q30 43 64 64t85 21q59 0 96 -32.5t37 -83.5q0 -39 -19 -69t-66 -68l-100 -81h188v-65h-287z" />
    <glyph glyph-name="three.num" 
d="M197 301q-87 0 -153 64l45 53q49 -51 109 -51q28 0 48 16t20 42q0 28 -23 42.5t-61 14.5h-42l-12 46l113 106h-172v66h264v-57l-116 -106q54 -4 88 -32t34 -78q0 -56 -39 -91t-103 -35z" />
    <glyph glyph-name="four.num" 
d="M308 394v-85h-67v85h-188l-10 68l190 243h75v-253h53v-58h-53zM242 452v172l-133 -172h133z" />
    <glyph glyph-name="five.num" 
d="M196 301q-80 0 -150 60l44 55q54 -48 107 -48q34 0 55 18t21 46t-21 44.5t-57 16.5q-45 0 -77 -16l-47 28l16 195h241v-67h-181l-7 -88q28 11 70 11q59 0 98 -31.5t39 -88.5q0 -61 -41.5 -98t-109.5 -37z" />
    <glyph glyph-name="six.num" 
d="M201 301q-63 0 -103 40q-50 50 -50 152v2q0 99 44 157t124 58q65 0 115 -41l-36 -57q-38 32 -81 32q-37 0 -62 -31.5t-28 -81.5q39 32 90 32q55 0 92 -33.5t37 -91.5q0 -60 -40 -98.5t-102 -38.5zM199 364q32 0 53 19.5t21 50.5q0 32 -20 51t-53 19q-34 0 -54.5 -19
t-20.5 -51q0 -31 21.5 -50.5t52.5 -19.5z" />
    <glyph glyph-name="seven.num" 
d="M170 309h-82l169 323h-192v68h276v-56z" />
    <glyph glyph-name="eight.num" 
d="M200 301q-66 0 -107 31.5t-41 84.5q0 65 66 96q-55 29 -55 89q0 46 38.5 77t99.5 31q59 0 97.5 -31t38.5 -77q0 -58 -55 -89q66 -32 66 -95q0 -53 -41.5 -85t-106.5 -32zM200 651q-31 0 -50 -15.5t-19 -40.5t19.5 -41.5t49.5 -16.5t49.5 16t19.5 42q0 25 -19.5 40.5
t-49.5 15.5zM200 481q-35 0 -57 -17t-22 -44t21.5 -44t57.5 -17t57 17t21 44t-22 44t-56 17z" />
    <glyph glyph-name="nine.num" 
d="M199 710q62 0 103 -39q50 -52 50 -153v-2q0 -100 -44 -157.5t-124 -57.5q-70 0 -121 44l36 57q42 -35 87 -35q36 0 61.5 30.5t27.5 78.5q-38 -31 -88 -31q-55 0 -92.5 33t-37.5 93q0 61 40 100t102 39zM200 504q34 0 54.5 19t20.5 52q0 32 -21.5 52t-52.5 20
q-32 0 -53 -20t-21 -52q0 -33 20 -52t53 -19z" />
    <glyph glyph-name="zero.den" 
d="M199 -10q-68 0 -112.5 56t-44.5 146v4q0 91 44.5 147t113.5 56q68 0 113 -56t45 -146v-4q0 -91 -45 -147t-114 -56zM199 331q-36 0 -58.5 -35.5t-22.5 -97.5v-7q0 -62 22.5 -97.5t59.5 -35.5q36 0 59 35.5t23 97.5v7q0 61 -23.5 97t-59.5 36z" />
    <glyph glyph-name="one.den" horiz-adv-x="325" 
d="M222 0h-72v318l-79 -30l-20 61l116 45h55v-394z" />
    <glyph glyph-name="one.den_alt" 
d="M352 0h-280v63h109v255l-95 -35l-20 61l132 50h55v-331h99v-63z" />
    <glyph glyph-name="two.den" 
d="M55 0v62l137 116q39 32 55 53.5t16 45.5t-17.5 39.5t-43.5 15.5q-50 0 -93 -59l-52 41q30 42 64.5 63.5t84.5 21.5q59 0 96 -32.5t37 -83.5q0 -39 -19 -69t-66 -68l-100 -82h188v-64h-287z" />
    <glyph glyph-name="three.den" 
d="M197 -10q-89 0 -153 64l45 53q49 -51 109 -51q28 0 48 16t20 42q0 27 -23 42t-61 15h-42l-12 46l113 106h-172v66h264v-57l-116 -106q54 -5 88 -32.5t34 -77.5q0 -56 -39 -91t-103 -35z" />
    <glyph glyph-name="four.den" 
d="M308 83v-85h-67v85h-188l-10 67l190 243h75v-252h53v-58h-53zM242 141v172l-133 -172h133z" />
    <glyph glyph-name="five.den" 
d="M196 -10q-82 0 -150 60l44 54q55 -47 107 -47q34 0 55 18t21 46t-21 44.5t-57 16.5q-41 0 -77 -16l-47 28l16 195h241v-67h-181l-7 -88q28 11 70 11q59 0 98 -31.5t39 -88.5q0 -61 -41.5 -98t-109.5 -37z" />
    <glyph glyph-name="six.den" 
d="M201 -10q-62 0 -103 39q-50 52 -50 153v2q0 98 44 156.5t124 58.5q65 0 115 -41l-36 -57q-40 32 -81 32q-37 0 -62 -31.5t-28 -81.5q38 31 90 31q55 0 92 -33t37 -91q0 -60 -40 -98.5t-102 -38.5zM199 53q32 0 53 19.5t21 50.5q0 32 -20 50.5t-53 18.5q-34 0 -54.5 -18.5
t-20.5 -50.5q0 -31 21.5 -50.5t52.5 -19.5z" />
    <glyph glyph-name="seven.den" 
d="M170 -2h-82l169 322h-192v69h276v-57z" />
    <glyph glyph-name="eight.den" 
d="M200 -10q-66 0 -107 31.5t-41 84.5q0 65 66 96q-55 29 -55 88q0 47 38.5 78t99.5 31q60 0 98 -31t38 -78q0 -57 -55 -88q66 -32 66 -95q0 -53 -41.5 -85t-106.5 -32zM200 340q-31 0 -50 -15.5t-19 -40.5t19.5 -41.5t49.5 -16.5t49.5 16t19.5 42q0 25 -19.5 40.5
t-49.5 15.5zM200 170q-35 0 -57 -17t-22 -44t21.5 -44t57.5 -17t57 16.5t21 44.5q0 27 -22 44t-56 17z" />
    <glyph glyph-name="nine.den" 
d="M199 399q63 0 103 -40q50 -50 50 -152v-2q0 -100 -44 -157.5t-124 -57.5q-70 0 -121 44l36 57q40 -35 87 -35q37 0 62 30t27 79q-39 -32 -88 -32q-55 0 -92.5 33.5t-37.5 93.5q0 61 40 100t102 39zM200 192q34 0 54.5 19.5t20.5 52.5q0 32 -21.5 52t-52.5 20
q-32 0 -53 -20t-21 -52q0 -33 20 -52.5t53 -19.5z" />
    <glyph glyph-name="onehalf.alt" horiz-adv-x="900" 
d="M347 311h-280v64h109v254l-95 -35l-20 61l132 51h55v-331h99v-64zM565 0v62l137 116q39 32 55 53.5t16 45.5t-17.5 39.5t-43.5 15.5q-50 0 -93 -59l-52 41q30 42 64.5 63.5t84.5 21.5q59 0 96 -32.5t37 -83.5q0 -39 -19 -69t-66 -68l-100 -82h188v-64h-287zM197 0
l251 364l224 336h71l-251 -364l-224 -336h-71z" />
    <glyph glyph-name="onethird.alt" horiz-adv-x="900" 
d="M347 311h-280v64h109v254l-95 -35l-20 61l132 51h55v-331h99v-64zM707 -10q-89 0 -153 64l45 53q49 -51 109 -51q28 0 48 16t20 42q0 27 -23 42t-61 15h-42l-12 46l113 106h-172v66h264v-57l-116 -106q54 -5 88 -32.5t34 -77.5q0 -56 -39 -91t-103 -35zM187 0l251 364
l224 336h71l-251 -364l-224 -336h-71z" />
    <glyph glyph-name="onequarter.alt" horiz-adv-x="900" 
d="M808 83v-85h-67v85h-188l-10 67l190 243h75v-252h53v-58h-53zM347 311h-280v64h109v254l-95 -35l-20 61l132 51h55v-331h99v-64zM202 0l251 364l224 336h71l-251 -364l-224 -336h-71zM742 141v172l-133 -172h133z" />
    <glyph glyph-name="onefifth.alt" horiz-adv-x="900" 
d="M347 311h-280v64h109v254l-95 -35l-20 61l132 51h55v-331h99v-64zM706 -10q-82 0 -150 60l44 54q55 -47 107 -47q34 0 55 18t21 46t-21 44.5t-57 16.5q-41 0 -77 -16l-47 28l16 195h241v-67h-181l-7 -88q28 11 70 11q59 0 98 -31.5t39 -88.5q0 -61 -41.5 -98t-109.5 -37z
M192 0l251 364l224 336h71l-251 -364l-224 -336h-71z" />
    <glyph glyph-name="onesixth.alt" horiz-adv-x="900" 
d="M711 -10q-62 0 -103 39q-50 52 -50 153v2q0 98 44 156.5t124 58.5q65 0 115 -41l-36 -57q-40 32 -81 32q-37 0 -62 -31.5t-28 -81.5q38 31 90 31q55 0 92 -33t37 -91q0 -60 -40 -98.5t-102 -38.5zM347 311h-280v64h109v254l-95 -35l-20 61l132 51h55v-331h99v-64zM192 0
l251 364l224 336h71l-251 -364l-224 -336h-71zM709 53q32 0 53 19.5t21 50.5q0 32 -20 50.5t-53 18.5q-34 0 -54.5 -18.5t-20.5 -50.5q0 -31 21.5 -50.5t52.5 -19.5z" />
    <glyph glyph-name="oneeighth.alt" horiz-adv-x="900" 
d="M347 311h-280v64h109v254l-95 -35l-20 61l132 51h55v-331h99v-64zM710 -10q-66 0 -107 31.5t-41 84.5q0 65 66 96q-55 29 -55 88q0 47 38.5 78t99.5 31q60 0 98 -31t38 -78q0 -57 -55 -88q66 -32 66 -95q0 -53 -41.5 -85t-106.5 -32zM710 340q-31 0 -50 -15.5t-19 -40.5
t19.5 -41.5t49.5 -16.5t49.5 16t19.5 42q0 25 -19.5 40.5t-49.5 15.5zM710 170q-35 0 -57 -17t-22 -44t21.5 -44t57.5 -17t57 16.5t21 44.5q0 27 -22 44t-56 17zM192 0l251 364l224 336h71l-251 -364l-224 -336h-71z" />
    <glyph glyph-name="zero.tab" horiz-adv-x="600" 
d="M299 -11q-115 0 -184.5 95t-69.5 258v14q0 164 70 259.5t185 95.5t185 -95.5t70 -257.5v-14q0 -163 -70.5 -259t-185.5 -96zM299 606q-62 0 -98.5 -63.5t-36.5 -185.5v-13q0 -121 37 -185.5t99 -64.5t99 64t37 185v13q0 121 -37 185.5t-100 64.5z" />
    <glyph glyph-name="one.tab" horiz-adv-x="600" 
d="M562 0h-484v101h192v478l-170 -61l-29 100l233 87h84v-604h174v-101z" />
    <glyph glyph-name="two.tab" horiz-adv-x="600" 
d="M542 0h-493v96l235 209q72 65 99.5 104.5t27.5 84.5q0 49 -32 77.5t-82 28.5q-47 0 -84 -25.5t-78 -80.5l-83 71q52 74 109.5 109.5t143.5 35.5q104 0 167 -57t63 -149v-2q0 -69 -32.5 -120.5t-107.5 -117.5l-178 -157h325v-107z" />
    <glyph glyph-name="three.tab" horiz-adv-x="600" 
d="M294 -12q-153 0 -258 110l78 88q85 -88 182 -88q53 0 89.5 30t36.5 79v2q0 50 -40.5 76.5t-113.5 26.5h-64l-24 76l200 206h-308v106h460v-97l-203 -201q94 -7 154 -53t60 -135v-2q0 -98 -70 -161t-179 -63z" />
    <glyph glyph-name="three.tab_alt" horiz-adv-x="600" 
d="M298 -12q-78 0 -145 31.5t-114 86.5l81 79q74 -89 183 -89q58 0 93 29t35 77q0 49 -40.5 75t-114.5 26h-72v101h81q61 0 97 28t36 75q0 43 -33 70t-87 27q-93 0 -166 -88l-81 70q95 126 249 126q109 0 174 -52t65 -140q0 -110 -110 -161q122 -47 122 -165q0 -92 -70 -149
t-183 -57z" />
    <glyph glyph-name="four.tab" horiz-adv-x="600" 
d="M372 0v153h-323l-22 111l319 440h138v-455h91v-96h-91v-153h-112zM373 248v328l-236 -328h236z" />
    <glyph glyph-name="five.tab" horiz-adv-x="600" 
d="M290 -12q-139 0 -252 101l71 89q93 -82 183 -82q61 0 99.5 33t38.5 88v2q0 53 -38.5 85t-104.5 32t-134 -31l-74 48l24 347h415v-109h-315l-12 -170q59 19 115 19q105 0 174.5 -55.5t69.5 -160.5v-2q0 -105 -73 -169.5t-187 -64.5z" />
    <glyph glyph-name="six.tab" horiz-adv-x="600" 
d="M330 450q94 0 158 -59t64 -161v-3q0 -105 -69.5 -172t-174.5 -67q-109 0 -173 66q-43 43 -63.5 104.5t-20.5 168.5v4q0 175 73 277.5t211 102.5q111 0 190 -68l-56 -95q-68 55 -137 55q-56 0 -93.5 -36.5t-52 -83.5t-15.5 -100q59 67 159 67zM304 90q58 0 94 37t36 95
t-35.5 93.5t-92.5 35.5q-60 0 -96 -36.5t-36 -93.5t37 -94t93 -37z" />
    <glyph glyph-name="seven.tab" horiz-adv-x="600" 
d="M413 590h-347v110h484v-94l-304 -606h-137z" />
    <glyph glyph-name="eight.tab" horiz-adv-x="600" 
d="M300 -10q-111 0 -182.5 55.5t-71.5 144.5v3q0 120 120 170q-100 56 -100 157v2q0 81 66.5 134.5t167.5 53.5q100 0 166.5 -53.5t66.5 -134.5v-2q0 -102 -100 -157q120 -54 120 -168v-2q0 -93 -71 -148t-182 -55zM300 403q51 0 84.5 29.5t33.5 75.5v2q0 43 -33 72t-85 29
t-85.5 -28.5t-33.5 -71.5v-3q0 -45 34 -75t85 -30zM300 89q63 0 99 30.5t36 78.5v2q0 49 -38 78.5t-97 29.5t-97.5 -29.5t-38.5 -78.5v-2q0 -48 36.5 -78.5t99.5 -30.5z" />
    <glyph glyph-name="nine.tab" horiz-adv-x="600" 
d="M269 244q-93 0 -157 59.5t-64 163.5v3q0 106 69.5 174t174.5 68q109 0 173 -66q43 -43 63.5 -104.5t20.5 -168.5v-4q0 -175 -73 -277.5t-211 -102.5q-115 0 -200 72l56 95q77 -59 147 -59q78 0 117 64.5t43 148.5q-60 -66 -159 -66zM296 610q-58 0 -94 -38t-36 -97
q0 -60 35.5 -96t92.5 -36q61 0 96.5 37t35.5 96t-36.5 96.5t-93.5 37.5z" />
    <glyph glyph-name="dollar.tab" horiz-adv-x="600" 
d="M404 780l-11 -88q76 -15 144 -63l-48 -90q-56 39 -112 56l-24 -199q101 -28 149.5 -75.5t48.5 -121.5q0 -92 -67 -146.5t-173 -54.5h-3l-14 -116h-83l16 124q-102 22 -188 88l54 87q75 -60 149 -78l26 206q-103 29 -150.5 74.5t-47.5 120.5q0 90 65 144t168 54h8l10 78
h83zM443 191q0 34 -23 58t-80 41l-24 -196q60 0 93.5 25.5t33.5 71.5zM178 513q0 -34 22.5 -57.5t79.5 -41.5l24 193h-8h-1q-55 0 -86 -26t-31 -68z" />
    <glyph glyph-name="sterling.tab" horiz-adv-x="600" 
d="M131 382v92q0 112 64 176q60 60 161 60q124 0 199 -97l-81 -79q-53 64 -115 64q-46 0 -75 -29q-32 -30 -32 -95v-92h229v-100h-229v-177h302v-105h-497v76l74 23v183h-74v100h74z" />
    <glyph glyph-name="Euro.tab" horiz-adv-x="600" 
d="M33 396v81h81q26 107 95 170.5t168 63.5q117 0 193 -91l-70 -81q-57 68 -124 68q-51 0 -88 -34t-55 -96h188v-81h-201q-2 -14 -2 -42v-6q0 -26 1 -39h202v-81h-190q17 -64 54.5 -99.5t88.5 -35.5q69 0 129 71l71 -74q-84 -101 -205 -101q-96 0 -164.5 64t-91.5 175h-80
v81h70q-1 12 -1 37v7q0 28 1 43h-70z" />
    <glyph glyph-name="yen.tab" horiz-adv-x="600" 
d="M80 181h163v84h-163v81h142l-210 354h132l158 -287l158 287h128l-211 -354h143v-81h-162v-84h162v-81h-162v-100h-115v100h-163v81z" />
    <glyph glyph-name="cent.tab" horiz-adv-x="600" 
d="M445 706l-19 -95q64 -19 119 -79l-68 -73q-40 41 -74 56l-66 -333q76 3 144 71l65 -65q-90 -102 -220 -102h-4l-18 -92h-88l21 106q-79 26 -128 93t-49 156v2q0 115 77.5 194t194.5 79h9l16 82h88zM170 348q0 -54 24 -94t66 -58l66 332q-68 -2 -112 -51.5t-44 -126.5v-2z
" />
    <glyph glyph-name="numbersign.tab" horiz-adv-x="600" 
d="M30 262h92l27 180h-88v99h102l24 159h94l-24 -159h141l23 159h94l-24 -159h79v-99h-93l-27 -180h89v-99h-103l-24 -163h-94l24 163h-141l-23 -163h-94l24 163h-78v99zM241 444l-27 -184h144l27 184h-144z" />
    <glyph glyph-name="paragraph.tab" horiz-adv-x="600" 
d="M378 0v244h-42q-128 0 -206.5 59t-78.5 168q0 107 75.5 168t200.5 61h174v-700h-123z" />
    <glyph glyph-name="section.tab" horiz-adv-x="600" 
d="M306 -10q-130 0 -217 82l61 74q75 -65 156 -65q36 0 54 13.5t18 34.5q0 24 -24.5 39.5t-97.5 36.5q-116 33 -161.5 65t-45.5 85q0 45 31 74t85 40q-56 40 -56 101q0 60 51.5 100t133.5 40q130 0 217 -82l-61 -74q-75 65 -156 65q-36 0 -54 -13.5t-18 -34.5
q0 -24 24.5 -39.5t97.5 -36.5q116 -33 161.5 -65t45.5 -85q0 -45 -31 -74t-85 -40q56 -40 56 -101q0 -60 -51.5 -100t-133.5 -40zM225 423q-32 1 -51.5 -13.5t-19.5 -37.5q0 -24 23 -39.5t81 -31.5q90 -24 117 -24q32 -1 51.5 13.5t19.5 37.5q0 24 -23 39.5t-81 31.5
q-90 24 -117 24z" />
    <glyph glyph-name="degree.tab" horiz-adv-x="600" 
d="M299 302q-84 0 -145 60t-61 144t62 143.5t146 59.5t145 -59.5t61 -143.5t-62 -144t-146 -60zM301 374q56 0 92.5 38t36.5 94q0 55 -37.5 93.5t-93.5 38.5t-92.5 -38t-36.5 -94t37 -94t94 -38z" />
    <glyph glyph-name="percent.tab" horiz-adv-x="600" 
d="M148 707q53 0 86 -48.5t33 -128.5v-8q0 -80 -33 -128.5t-86 -48.5t-86 48t-33 128v8q0 81 33 129.5t86 48.5zM452 355q53 0 86 -48t33 -128v-8q0 -81 -33 -129.5t-86 -48.5t-86 48.5t-33 128.5v8q0 80 33 128.5t86 48.5zM444 700h66l-190 -362l-164 -338h-66l190 362z
M148 639q-49 0 -49 -106v-15q0 -106 49 -106t49 106v15q0 106 -49 106zM452 288q-49 0 -49 -106v-15q0 -106 49 -106t49 106v15q0 106 -49 106z" />
    <glyph glyph-name="quotedbl.tab" horiz-adv-x="600" 
d="M339 400l46 300h137v-5l-120 -295h-63zM104 400l46 300h137v-5l-120 -295h-63z" />
    <glyph glyph-name="quotesingle.tab" horiz-adv-x="300" 
d="M71 400l46 300h139v-5l-121 -295h-64z" />
    <glyph glyph-name="period.tab" horiz-adv-x="300" 
d="M80 0v143h140v-143h-140z" />
    <glyph glyph-name="comma.tab" horiz-adv-x="300" 
d="M62 -146l-13 52q92 18 86 94h-55v143h140v-122q0 -81 -39.5 -120.5t-118.5 -46.5z" />
    <glyph glyph-name="colon.tab" horiz-adv-x="300" 
d="M81 388v140h138v-140h-138zM81 0v141h138v-141h-138z" />
    <glyph glyph-name="semicolon.tab" horiz-adv-x="300" 
d="M81 388v140h138v-140h-138zM62 -146l-13 52q92 18 86 94h-54v141h138v-120q0 -81 -39 -120.5t-118 -46.5z" />
    <glyph glyph-name="twodotleader.tab" horiz-adv-x="600" 
d="M383 0v136h134v-136h-134zM83 0v136h134v-136h-134z" />
    <glyph glyph-name="periodcentered.tab" horiz-adv-x="300" 
d="M80 235v143h140v-143h-140z" />
    <glyph glyph-name="slash.tab" horiz-adv-x="600" 
d="M591 798l-491 -926h-106l492 926h105z" />
    <glyph glyph-name="bar.tab" horiz-adv-x="300" 
d="M101 -128v926h98v-926h-98z" />
    <glyph glyph-name="underscore.tab" horiz-adv-x="600" 
d="M-2 -160v94h604v-94h-604z" />
    <glyph glyph-name="plus.tab" horiz-adv-x="600" 
d="M539 299h-185l1 -188h-110l1 188h-185v106h185l-1 188h110l-1 -188h185v-106z" />
    <glyph glyph-name="minus.tab" horiz-adv-x="600" 
d="M539 295h-478v114h478v-114z" />
    <glyph glyph-name="divide.tab" horiz-adv-x="600" 
d="M233 496v128h134v-128h-134zM539 300h-478v104h478v-104zM233 80v128h134v-128h-134z" />
    <glyph glyph-name="equal.tab" horiz-adv-x="600" 
d="M523 420h-446v108h446v-108zM523 176h-446v108h446v-108z" />
    <glyph glyph-name="multiply.tab" horiz-adv-x="600" 
d="M455 120l-156 159l-156 -159l-75 75l159 156l-159 156l77 77l156 -159l156 159l75 -75l-159 -156l159 -156z" />
    <glyph glyph-name="less.tab" horiz-adv-x="600" 
d="M515 79l-451 219v108l451 219v-115l-336 -157l336 -157v-117z" />
    <glyph glyph-name="greater.tab" horiz-adv-x="600" 
d="M536 298l-451 -219v115l336 157l-336 157v117l451 -219v-108z" />
    <glyph glyph-name="plusminus.tab" horiz-adv-x="600" 
d="M539 373h-185l1 -181h-110l1 181h-185v107l185 -1l-1 181h110l-1 -181l185 1v-107zM539 0h-478v103h478v-103z" />
    <glyph glyph-name="R_p" horiz-adv-x="1201" 
d="M78 0v700h252q114 0 180.5 -58.5t66.5 -162.5v-4q0 -77 -39 -129t-105 -76l164 -270h-134l-148 246h-121v-246h-116zM684 -160v689h114v-84q61 95 157 95q86 0 147.5 -70.5t61.5 -197.5v-14q0 -126 -61 -197t-148 -71q-94 0 -157 90v-240h-114zM924 90q53 0 89 46t36 123
v11q0 77 -36 123.5t-89 46.5t-90.5 -47t-37.5 -123v-11q0 -76 37.5 -122.5t90.5 -46.5zM194 349h131q61 0 97.5 32.5t36.5 89.5v3q0 59 -36 89.5t-100 30.5h-129v-245z" />
    <glyph glyph-name="hcoslug" horiz-adv-x="694" 
d="M273 18h-26q0 -12 10 -12q8 0 9 7h7q-3 -14 -18 -14q-21 0 -21 20q0 9 6 15t14 6q21 0 19 -22zM254 35q-7 0 -7 -12h14q0 12 -7 12zM195 78q8 0 8 16q0 15 -8 15t-8 -15q0 -16 8 -16zM210 4q8 0 8 16q0 15 -8 15t-8 -15q0 -16 8 -16zM210 -1q-21 0 -21 21q0 20 21 20
t21 -20q0 -9 -6 -15t-15 -6zM546 4q8 0 8 16q0 15 -8 15t-8 -15q0 -16 8 -16zM546 -1q-21 0 -21 21q0 20 21 20t21 -20q0 -9 -6 -15t-15 -6zM125 74v7h7v41h-7v7h51v-20h-8q-2 13 -11 13h-12v-18h4q5 0 6 8h7v-23h-7q-1 8 -6 8h-4v-16h10v-7h-30zM195 73q-21 0 -21 21
q0 20 21 20t21 -20q0 -9 -6 -15t-15 -6zM644 -100v800h-594v-800h594zM498 -1q-29 0 -29 28q0 13 8 21.5t19 8.5q9 0 16 -7l1 6h8v-22h-8q-5 16 -15 16q-14 0 -14 -22t16 -22q12 0 14 16h8q-2 -23 -24 -23zM372 80q7 0 7 13t-7 13q-8 0 -8 -13t8 -13zM276 0v7h6v25h-7v7h7v1
q0 19 19 19q5 0 9 -2l10 2v-52h6v-7h-23v7h5v25h-14v-25h5v-7h-23zM368 0v7h6v25h-6v7h18v-10q4 11 12 11t8 -8q0 -7 -7 -7q-6 0 -6 6v1q-3 0 -7 -9v-16h8v-7h-26zM352 73v52h-6v7h18v-27q3 9 13 9q15 0 15 -20q0 -21 -16 -21q-9 0 -14 8l-4 -8h-6zM400 75q5 0 6.5 -4
t-1.5 -6q6 0 8 8l-16 33h-5v7h25v-7h-6l9 -20l8 20h-5v7h17v-7h-5l-13 -31q-6 -16 -18 -16q-11 0 -11 9q0 7 7 7zM247 428q0 13 7.5 21t19.5 8q13 0 21 -10.5t8 -27.5q0 -22 -18 -50q-15 14 -21 20.5t-11.5 17t-5.5 21.5zM302 74v14h7q6 -9 12 -9q5 0 5 4q0 3 -12 6.5
t-12 12.5q0 12 14 12q8 0 11 -5l2 5h6v-13h-7q-5 7 -10 7t-5 -4q0 -3 12 -6t12 -12q0 -13 -14 -13q-5 0 -13 5l-1 -4h-7zM261 219q-22 0 -37 15.5t-15 38.5q0 24 16 40q34 -32 74 -82q-15 -12 -38 -12zM274 122l12 2v-11h13v-7h-13v-20q0 -5 4 -5t5 7l5 -2q-3 -13 -14 -13
q-12 0 -12 13v20h-7v7h7v9zM428 306q-26 -16 -46 -42q35 -41 62 -41q26 0 43 29l7 -2q-1 -43 -24 -68.5t-56 -25.5q-41 0 -85 45q-41 -45 -104 -45q-45 0 -77 27t-32 66q0 63 82 91q-31 32 -31 69q0 34 30.5 59.5t78.5 25.5q44 0 69.5 -22.5t25.5 -51.5q0 -19 -9 -34
q46 2 49 -37q25 38 60 38q21 0 35.5 -14.5t14.5 -37.5t-14.5 -38.5t-35.5 -15.5q-28 0 -43 25zM219 74v7h6v25h-6v7h17v-10q5 11 14 11q12 0 12 -14v-19h6v-7h-22v7h4v18q0 7 -6 7q-7 0 -7 -10v-15h4v-7h-22zM446 33h18v-7h-5q-3 -6 -9 -14q3 -5 6 -5t4 5l5 -1
q-3 -12 -13 -12q-7 0 -12 6q-6 -6 -15 -6q-18 0 -18 14q0 11 13 15q-6 6 -6 12q0 14 17 14q14 0 14 -12q0 -7 -11 -12q3 -3 6.5 -7t5.5 -6q4 5 6 9h-6v7zM429 6q3 0 8 3q-10 12 -14 16q-4 -4 -4 -9q0 -10 10 -10zM294 42v-3h14v5q-6 0 -6 6l1 3q-1 1 -3 1q-6 0 -6 -12z
M425 43q0 -4 6 -10q5 3 5 9t-6 6q-5 0 -5 -5zM312 342q30 20 42 34q29 -29 -1 -80q-33 38 -41 46zM366 18h-26q0 -12 10 -12q8 0 9 7h7q-4 -14 -18 -14q-21 0 -21 20q0 9 6 15t14 6q21 0 19 -22zM347 35q-7 0 -7 -12h14q0 12 -7 12zM124 0v7h8v41h-8v7h29v-7h-8v-16h22v16
h-8v7h29v-7h-8v-41h8v-7h-29v7h8v18h-22v-18h8v-7h-29zM576 13q7 0 7 -7t-7 -7t-7 7t7 7z" />
    <glyph glyph-name="space.tab" horiz-adv-x="300" 
 />
    <glyph glyph-name="NUL" horiz-adv-x="0" 
 />
    <glyph glyph-name="caron.alt" horiz-adv-x="500" 
d="M203 589l12 190h94v-3l-56 -187h-50z" />
    <glyph glyph-name="descendercyrillic" horiz-adv-x="500" 
d="M193 -132l7 183h100l7 -183h-114z" />
    <glyph glyph-name="descendercyrillic.cap" horiz-adv-x="500" 
d="M190 -144l7 205h106l7 -205h-120z" />
    <glyph glyph-name="straightdescendercyrillic" horiz-adv-x="500" 
d="M195 -132v132h-7v109h117v-241h-110z" />
    <glyph glyph-name="straightdescendercyrillic.cap" horiz-adv-x="500" 
d="M192 -144v144h-7v112h123v-256h-116z" />
    <glyph glyph-name="acute.cap" horiz-adv-x="500" 
d="M157 758l112 145l110 -48l-128 -97h-94z" />
    <glyph glyph-name="hungarumlaut.cap" horiz-adv-x="500" 
d="M56 758l112 145l106 -48l-127 -97h-91zM231 758l112 145l106 -48l-127 -97h-91z" />
    <glyph glyph-name="grave.cap" horiz-adv-x="500" 
d="M342 758h-95l-127 97l109 48z" />
    <glyph glyph-name="circumflex.cap" horiz-adv-x="500" 
d="M72 758l121 135h114l121 -135h-102l-77 57l-77 -57h-100z" />
    <glyph glyph-name="caron.cap" horiz-adv-x="500" 
d="M428 893l-121 -135h-114l-121 135h102l77 -57l77 57h100z" />
    <glyph glyph-name="breve.cap" horiz-adv-x="500" 
d="M250 756q-73 0 -120 35.5t-53 98.5h86q19 -50 87 -50t87 50h86q-6 -63 -53 -98.5t-120 -35.5z" />
    <glyph glyph-name="tilde.cap" horiz-adv-x="500" 
d="M329 758q-33 0 -89 22q-42 17 -58 17q-21 0 -32.5 -11t-23.5 -38l-67 21q17 62 42.5 92.5t69.5 30.5q30 0 89 -23q44 -16 58 -16q21 0 32.5 11t22.5 37l68 -20q-18 -62 -43.5 -92.5t-68.5 -30.5z" />
    <glyph glyph-name="macron.cap" horiz-adv-x="500" 
d="M70 769v90h360v-90h-360z" />
    <glyph glyph-name="dieresis.cap" horiz-adv-x="500" 
d="M290 758v112h125v-112h-125zM85 758v112h125v-112h-125z" />
    <glyph glyph-name="dotaccent.cap" horiz-adv-x="500" 
d="M186 758v112h128v-112h-128z" />
    <glyph glyph-name="ring.cap" horiz-adv-x="500" 
d="M250 756q-49 0 -84 30t-35 76q0 45 35 75t84 30t84 -30t35 -75q0 -46 -35 -76t-84 -30zM250 803q28 0 46 17t18 42q0 24 -18 41t-46 17t-46 -17t-18 -41q0 -25 18 -42t46 -17z" />
    <glyph glyph-name="uni0384.cap" horiz-adv-x="500" 
d="M153 503l13 197h120l-69 -197h-64z" />
    <glyph glyph-name="commaaccent.rot" horiz-adv-x="500" 
d="M317 803l8 -39q-38 -5 -55 -21.5t-15 -45.5h54v-102h-118v87q0 60 31.5 89t94.5 32z" />
    </font>
</defs>
</svg>
