<?xml version="1.0" standalone="no"?>
<!DOCTYPE svg PUBLIC "-//W3C//DTD SVG 1.1//EN" "http://www.w3.org/Graphics/SVG/1.1/DTD/svg11.dtd" >
<svg xmlns="http://www.w3.org/2000/svg" xmlns:xlink="http://www.w3.org/1999/xlink" version="1.1">
<metadata>
Created by FontForge 20161003 at Thu Jul 26 16:46:01 2018
 By www-data
Copyright (C) 2001, 2011 Hoefler &#38; Co. http://www.typography.com
</metadata>
<defs>
<font id="GothamLight" horiz-adv-x="400" >
  <font-face 
    font-family="GothamLight"
    font-weight="300"
    font-stretch="normal"
    units-per-em="1000"
    panose-1="0 0 0 0 0 0 0 0 0 0"
    ascent="800"
    descent="-200"
    x-height="510"
    cap-height="700"
    bbox="-210 -225 1145 986"
    underline-thickness="50"
    underline-position="-150"
    unicode-range="U+0020-FB04"
  />
<missing-glyph horiz-adv-x="500" 
d="M0 -200v1000h500v-1000h-500zM71 750l179 -390l179 390h-358zM50 -76l172 376l-172 376v-752zM450 676l-172 -376l172 -376v752zM250 240l-179 -390h358z" />
    <glyph glyph-name="f_f" unicode="ff" horiz-adv-x="724" 
d="M485 0v465h-74v45h74v50q0 88 45 133q40 40 107 40q41 0 76 -12v-46q-42 13 -76 13q-103 0 -103 -129v-49h178v-45h-178v-465h-49zM123 0v465h-74v45h74v50q0 88 45 133q40 40 107 40q41 0 76 -12v-46q-42 13 -76 13q-103 0 -103 -129v-49h178v-45h-178v-465h-49z" />
    <glyph glyph-name="fi" unicode="fi" horiz-adv-x="611" 
d="M123 0v465h-74v45h74v50q0 88 45 133q40 40 107 40q41 0 76 -12v-46q-42 13 -76 13q-103 0 -103 -129v-49h178v-45h-178v-465h-49zM462 0v510h49v-510h-49zM456 643v67h61v-67h-61z" />
    <glyph glyph-name="fl" unicode="fl" horiz-adv-x="611" 
d="M123 0v465h-74v45h74v50q0 88 45 133q40 40 107 40q41 0 76 -12v-46q-42 13 -76 13q-103 0 -103 -129v-49h178v-45h-178v-465h-49zM462 0v730h49v-730h-49z" />
    <glyph glyph-name="f_f_i" unicode="ffi" horiz-adv-x="973" 
d="M485 0v465h-74v45h74v50q0 88 45 133q40 40 107 40q41 0 76 -12v-46q-42 13 -76 13q-103 0 -103 -129v-49h178v-45h-178v-465h-49zM123 0v465h-74v45h74v50q0 88 45 133q40 40 107 40q41 0 76 -12v-46q-42 13 -76 13q-103 0 -103 -129v-49h178v-45h-178v-465h-49zM824 0
v510h49v-510h-49zM818 643v67h61v-67h-61z" />
    <glyph glyph-name="f_f_l" unicode="ffl" horiz-adv-x="973" 
d="M485 0v465h-74v45h74v50q0 88 45 133q40 40 107 40q41 0 76 -12v-46q-42 13 -76 13q-103 0 -103 -129v-49h178v-45h-178v-465h-49zM123 0v465h-74v45h74v50q0 88 45 133q40 40 107 40q41 0 76 -12v-46q-42 13 -76 13q-103 0 -103 -129v-49h178v-45h-178v-465h-49zM824 0
v730h49v-730h-49z" />
    <glyph glyph-name=".notdef" horiz-adv-x="500" 
d="M0 -200v1000h500v-1000h-500zM71 750l179 -390l179 390h-358zM50 -76l172 376l-172 376v-752zM450 676l-172 -376l172 -376v752zM250 240l-179 -390h358z" />
    <glyph glyph-name=".null" horiz-adv-x="0" 
 />
    <glyph glyph-name="nonmarkingreturn" horiz-adv-x="333" 
 />
    <glyph glyph-name="space" unicode=" " horiz-adv-x="300" 
 />
    <glyph glyph-name="exclam" unicode="!" horiz-adv-x="252" 
d="M112 183l-15 447v70h58v-70l-15 -447h-28zM93 0v85h66v-85h-66z" />
    <glyph glyph-name="quotedbl" unicode="&#x22;" horiz-adv-x="410" 
d="M248 446l35 254h65v-5l-71 -249h-29zM68 446l35 254h65v-5l-71 -249h-29z" />
    <glyph glyph-name="numbersign" unicode="#" horiz-adv-x="700" 
d="M610 234v-47h-137l-32 -187h-48l32 187h-207l-32 -187h-48l32 187h-121v47h129l40 236h-129v47h137l32 183h48l-31 -183h207l31 183h48l-32 -183h121v-47h-129l-40 -236h129zM266 470l-40 -236h207l40 236h-207z" />
    <glyph glyph-name="dollar" unicode="$" horiz-adv-x="632" 
d="M538 616l-33 -39q-76 66 -162 76v-281q114 -24 165 -68.5t51 -118.5q0 -79 -60 -130.5t-154 -54.5v-98h-48v99q-129 11 -237 107l33 39q95 -90 206 -101v285q-112 25 -162 69t-50 119q0 76 59.5 127.5t150.5 53.5v58h48v-60q102 -9 193 -82zM508 181q0 54 -35 86t-130 54
v-276q74 1 119.5 39.5t45.5 96.5zM138 523q0 -54 33.5 -86t127.5 -55v273q-72 -1 -116.5 -39t-44.5 -93z" />
    <glyph glyph-name="percent" unicode="%" horiz-adv-x="824" 
d="M208 350q-67 0 -110 52.5t-43 124.5v2q0 73 43.5 126t111.5 53q67 0 110 -52.5t43 -124.5v-2q0 -73 -43.5 -126t-111.5 -53zM208 665q-44 0 -72.5 -39t-28.5 -95v-2q0 -58 30 -97t73 -39q44 0 72.5 38.5t28.5 95.5v2q0 58 -30 97t-73 39zM393 360l249 340h54l-267 -363
l-247 -337h-54zM614 -8q-67 0 -110 52.5t-43 124.5v2q0 73 43.5 126t111.5 53q67 0 110 -52.5t43 -124.5v-2q0 -73 -43.5 -126t-111.5 -53zM616 35q44 0 72.5 38.5t28.5 95.5v2q0 58 -30 97t-73 39q-44 0 -72.5 -39t-28.5 -95v-2q0 -58 30 -97t73 -39z" />
    <glyph glyph-name="ampersand" unicode="&#x26;" horiz-adv-x="696" 
d="M622 -14l-121 125q-104 -121 -237 -121q-93 0 -154 54.5t-61 139.5v2q0 138 181 205q-42 46 -60 82t-18 78v2q0 68 49.5 113.5t125.5 45.5q68 0 114.5 -44.5t46.5 -107.5v-2q0 -122 -172 -181l184 -189q48 67 91 170l47 -19q-51 -115 -104 -186l129 -133zM285 409
q151 48 151 147v2q0 47 -32 78.5t-79 31.5q-53 0 -87 -32.5t-34 -80.5v-2q0 -33 17.5 -64t63.5 -80zM265 35q109 0 203 110l-207 214q-80 -27 -120 -72.5t-40 -98.5v-2q0 -64 46.5 -107.5t117.5 -43.5z" />
    <glyph glyph-name="quotesingle" unicode="'" horiz-adv-x="230" 
d="M68 446l35 254h65v-5l-71 -249h-29z" />
    <glyph glyph-name="parenleft" unicode="(" horiz-adv-x="430" 
d="M348 -141q-134 76 -205.5 185t-71.5 243t71.5 243t205.5 185l21 -33q-246 -151 -246 -395t246 -395z" />
    <glyph glyph-name="parenright" unicode=")" horiz-adv-x="430" 
d="M82 -141l-21 33q246 151 246 395t-246 395l21 33q134 -76 205.5 -185t71.5 -243t-71.5 -243t-205.5 -185z" />
    <glyph glyph-name="asterisk" unicode="*" horiz-adv-x="430" 
d="M194 406l9 127l-106 -72l-22 37l118 56l-118 56l22 37l106 -72l-9 127h42l-9 -127l106 72l22 -37l-118 -56l118 -56l-22 -37l-106 72l9 -127h-42z" />
    <glyph glyph-name="plus" unicode="+" horiz-adv-x="620" 
d="M285 113v215h-217v48h217v215h50v-215h217v-48h-217v-215h-50z" />
    <glyph glyph-name="comma" unicode="," horiz-adv-x="230" 
d="M65 -107l-12 25q33 17 45.5 35.5t10.5 46.5h-27v85h66v-74q0 -47 -19 -74t-64 -44z" />
    <glyph glyph-name="hyphen" unicode="-" horiz-adv-x="408" 
d="M70 269v56h268v-56h-268z" />
    <glyph glyph-name="period" unicode="." horiz-adv-x="230" 
d="M82 0v85h66v-85h-66z" />
    <glyph glyph-name="slash" unicode="/" horiz-adv-x="500" 
d="M-18 -128l472 926h49l-472 -926h-49z" />
    <glyph glyph-name="zero" unicode="0" horiz-adv-x="710" 
d="M354 -12q-130 0 -209.5 105t-79.5 255v2q0 97 35 179t102.5 132.5t153.5 50.5q130 0 209.5 -105t79.5 -255v-2q0 -97 -35 -179t-102.5 -132.5t-153.5 -50.5zM356 35q105 0 170 93t65 220v2q0 128 -66 221.5t-171 93.5t-170 -92.5t-65 -220.5v-2q0 -127 66 -221t171 -94z
" />
    <glyph glyph-name="one" unicode="1" horiz-adv-x="335" 
d="M179 0v651l-135 -46l-14 41l160 59h40v-705h-51z" />
    <glyph glyph-name="two" unicode="2" horiz-adv-x="590" 
d="M48 0v39l261 236q87 79 121 131.5t34 107.5q0 66 -46.5 108t-111.5 42q-64 0 -111.5 -32t-93.5 -98l-39 26q50 76 106 113t143 37q89 0 148.5 -55t59.5 -137v-2q0 -69 -38.5 -126t-136.5 -146l-214 -194h396v-50h-478z" />
    <glyph glyph-name="three" unicode="3" horiz-adv-x="610" 
d="M311 -12q-160 0 -257 126l40 33q88 -112 218 -112q72 0 122.5 43.5t50.5 111.5v2q0 72 -60.5 112t-157.5 40h-38l-13 29l241 278h-367v49h438v-37l-237 -271q108 -6 178 -56.5t70 -141.5v-2q0 -89 -67.5 -146.5t-160.5 -57.5z" />
    <glyph glyph-name="four" unicode="4" horiz-adv-x="664" 
d="M445 0v171h-379l-18 39l400 495h47v-489h114v-45h-114v-171h-50zM111 216h334v414z" />
    <glyph glyph-name="five" unicode="5" horiz-adv-x="605" 
d="M302 -12q-68 0 -132 31.5t-113 81.5l37 37q103 -103 210 -103q82 0 135 50.5t53 125.5v2q0 73 -53.5 119.5t-138.5 46.5q-77 0 -158 -44l-40 26l20 339h393v-50h-347l-17 -262q78 38 155 38q103 0 171.5 -59t68.5 -152v-2q0 -99 -69 -162t-175 -63z" />
    <glyph glyph-name="six" unicode="6" horiz-adv-x="642" 
d="M331 -12q-108 0 -178 70q-46 46 -67.5 107.5t-21.5 165.5v2q0 162 78.5 270.5t206.5 108.5q103 0 202 -81l-33 -40q-83 74 -173 74q-104 0 -166.5 -96.5t-62.5 -246.5v-20q77 130 219 130q98 0 169.5 -60.5t71.5 -151.5v-2q0 -99 -70.5 -164.5t-174.5 -65.5zM335 35
q83 0 135 52.5t52 128.5v2q0 72 -53.5 120t-136.5 48t-139 -53t-56 -120v-2q0 -75 56.5 -125.5t141.5 -50.5z" />
    <glyph glyph-name="seven" unicode="7" horiz-adv-x="587" 
d="M156 0l318 650h-406v50h464v-38l-319 -662h-57z" />
    <glyph glyph-name="eight" unicode="8" horiz-adv-x="630" 
d="M315 -10q-111 0 -185.5 55.5t-74.5 141.5v2q0 59 43 104.5t112 68.5q-131 53 -131 163v2q0 79 71 131t165 52t165 -52t71 -131v-2q0 -110 -131 -163q69 -23 112 -68.5t43 -104.5v-2q0 -86 -74.5 -141.5t-185.5 -55.5zM315 381q76 0 129 40.5t53 103.5v2q0 59 -52.5 97.5
t-129.5 38.5t-129.5 -38.5t-52.5 -97.5v-2q0 -63 53 -103.5t129 -40.5zM315 37q94 0 150 43t56 105v2q0 65 -60 107.5t-146 42.5t-146 -42.5t-60 -107.5v-2q0 -62 56 -105t150 -43z" />
    <glyph glyph-name="nine" unicode="9" horiz-adv-x="642" 
d="M294 35q103 0 167.5 95.5t64.5 237.5v27q-77 -134 -218 -134q-105 0 -173.5 61.5t-68.5 152.5v2q0 99 69 167t177 68q107 0 178 -71q88 -88 88 -273v-2q0 -164 -81 -271t-204 -107q-108 0 -211 87l33 40q89 -80 179 -80zM310 307q85 0 140 54t55 124v2q0 75 -56.5 126.5
t-142.5 51.5q-83 0 -134.5 -55t-51.5 -131v-2q0 -74 53.5 -122t136.5 -48z" />
    <glyph glyph-name="colon" unicode=":" horiz-adv-x="240" 
d="M87 425v85h66v-85h-66zM87 0v85h66v-85h-66z" />
    <glyph glyph-name="semicolon" unicode=";" horiz-adv-x="240" 
d="M87 425v85h66v-85h-66zM70 -107l-12 25q33 17 45.5 35.5t10.5 46.5h-27v85h66v-74q0 -47 -19 -74t-64 -44z" />
    <glyph glyph-name="less" unicode="&#x3c;" horiz-adv-x="620" 
d="M527 91l-464 241v40l464 241v-54l-403 -206l403 -208v-54z" />
    <glyph glyph-name="equal" unicode="=" horiz-adv-x="620" 
d="M83 439v51h454v-51h-454zM83 214v51h454v-51h-454z" />
    <glyph glyph-name="greater" unicode="&#x3e;" horiz-adv-x="620" 
d="M93 91v54l403 206l-403 208v54l464 -241v-40z" />
    <glyph glyph-name="question" unicode="?" horiz-adv-x="534" 
d="M229 183l-13 162l5 5q98 2 153 45t55 115v2q0 63 -46 107t-120 44q-109 0 -193 -103l-36 30q46 58 101 88.5t130 30.5q97 0 157 -56.5t60 -138.5v-2q0 -88 -59.5 -140.5t-152.5 -63.5l-9 -125h-32zM212 0v85h66v-85h-66z" />
    <glyph glyph-name="at" unicode="@" horiz-adv-x="980" 
d="M499 -162q-190 0 -318 127.5t-128 308.5q0 180 127.5 309t310.5 129q182 0 309 -118t127 -278q0 -119 -55 -181t-127 -62q-52 0 -87.5 25t-48.5 68q-75 -93 -171 -93q-74 0 -125.5 50t-51.5 128q0 103 72.5 176t160.5 73q102 0 149 -89l14 75l48 -6l-37 -211
q-9 -52 -9 -72q0 -43 23.5 -65.5t66.5 -22.5q58 0 101 53t43 154q0 91 -51.5 174.5t-145.5 136.5t-205 53q-172 0 -288 -118.5t-116 -287.5q0 -170 116.5 -287t295.5 -117q134 0 250 68l15 -25q-123 -75 -265 -75zM446 120q66 0 119 53q61 61 61 140q0 59 -37.5 99t-94.5 40
q-68 0 -122 -54q-59 -59 -59 -143q0 -63 36.5 -99t96.5 -36z" />
    <glyph glyph-name="A" unicode="A" horiz-adv-x="790" 
d="M44 0l326 705h50l326 -705h-57l-89 196h-413l-89 -196h-54zM209 243h369l-184 405z" />
    <glyph glyph-name="B" unicode="B" horiz-adv-x="722" 
d="M104 0v700h289q120 0 182 -62q45 -45 45 -110v-2q0 -118 -119 -166q158 -41 158 -167v-2q0 -87 -68.5 -139t-182.5 -52h-304zM567 521v2q0 59 -46 94t-129 35h-236v-275h231q81 0 130.5 38t49.5 106zM606 193q0 65 -55 100.5t-158 35.5h-237v-281h254q90 0 143 38.5
t53 104.5v2z" />
    <glyph glyph-name="C" unicode="C" horiz-adv-x="743" 
d="M421 -12q-149 0 -248.5 104t-99.5 256v2q0 150 100 256t250 106q87 0 149.5 -28.5t122.5 -83.5l-37 -38q-106 103 -236 103q-126 0 -210.5 -90.5t-84.5 -222.5v-2q0 -133 85.5 -224t210.5 -91q73 0 129 27t112 82l35 -34q-61 -60 -126 -91t-152 -31z" />
    <glyph glyph-name="D" unicode="D" horiz-adv-x="782" 
d="M104 0v700h233q163 0 267.5 -99.5t104.5 -248.5v-2q0 -150 -104.5 -250t-267.5 -100h-233zM337 652h-181v-604h181q143 0 230.5 86t87.5 214v2q0 128 -87.5 215t-230.5 87z" />
    <glyph glyph-name="E" unicode="E" horiz-adv-x="670" 
d="M104 0v700h498v-48h-446v-275h401v-48h-401v-281h451v-48h-503z" />
    <glyph glyph-name="F" unicode="F" horiz-adv-x="656" 
d="M104 0v700h493v-48h-441v-287h396v-48h-396v-317h-52z" />
    <glyph glyph-name="G" unicode="G" horiz-adv-x="784" 
d="M425 -12q-161 0 -256.5 103.5t-95.5 256.5v2q0 147 97 254.5t249 107.5q81 0 140.5 -23t115.5 -69l-34 -39q-96 84 -225 84q-125 0 -207 -92t-82 -221v-2q0 -139 81 -227.5t219 -88.5q63 0 122.5 22.5t100.5 57.5v201h-234v48h284v-270q-52 -46 -123.5 -75.5
t-151.5 -29.5z" />
    <glyph glyph-name="H" unicode="H" horiz-adv-x="760" 
d="M104 0v700h52v-324h448v324h52v-700h-52v328h-448v-328h-52z" />
    <glyph glyph-name="I" unicode="I" horiz-adv-x="274" 
d="M111 0v700h52v-700h-52z" />
    <glyph glyph-name="J" unicode="J" horiz-adv-x="549" 
d="M249 -10q-139 0 -212 131l43 27q34 -57 73.5 -84t98.5 -27q67 0 109.5 49t42.5 138v476h52v-472q0 -118 -64 -182q-56 -56 -143 -56z" />
    <glyph glyph-name="K" unicode="K" horiz-adv-x="715" 
d="M104 0v700h52v-460l446 460h71l-306 -309l319 -391h-68l-288 354l-174 -176v-178h-52z" />
    <glyph glyph-name="L" unicode="L" horiz-adv-x="614" 
d="M104 0v700h52v-652h411v-48h-463z" />
    <glyph glyph-name="M" unicode="M" horiz-adv-x="868" 
d="M104 0v700h49l281 -414l281 414h49v-700h-52v608l-277 -403h-4l-277 403v-608h-50z" />
    <glyph glyph-name="N" unicode="N" horiz-adv-x="790" 
d="M104 0v700h49l483 -609v609h50v-700h-39l-493 622v-622h-50z" />
    <glyph glyph-name="O" unicode="O" horiz-adv-x="850" 
d="M424 -12q-155 0 -253 106t-98 254v2q0 148 99 255t254 107t253 -106t98 -254v-2q0 -148 -99 -255t-254 -107zM426 35q128 0 212.5 91t84.5 222v2q0 131 -85.5 223t-213.5 92t-212.5 -91t-84.5 -222v-2q0 -131 85.5 -223t213.5 -92z" />
    <glyph glyph-name="P" unicode="P" horiz-adv-x="668" 
d="M104 0v700h254q117 0 188.5 -57t71.5 -157v-2q0 -106 -78.5 -164.5t-194.5 -58.5h-189v-261h-52zM156 309h192q98 0 158 47t60 125v2q0 81 -57.5 125t-154.5 44h-198v-343z" />
    <glyph glyph-name="Q" unicode="Q" horiz-adv-x="850" 
d="M785 19l-37 -40l-99 89q-94 -80 -225 -80q-155 0 -253 106t-98 254v2q0 148 99 255t254 107t253 -106t98 -254v-2q0 -144 -92 -247zM426 35q107 0 186 66l-136 116l37 41l134 -122q76 87 76 212v2q0 131 -85.5 223t-213.5 92t-212.5 -91t-84.5 -222v-2q0 -131 85.5 -223
t213.5 -92z" />
    <glyph glyph-name="R" unicode="R" horiz-adv-x="723" 
d="M104 0v700h294q128 0 197 -69q53 -53 53 -130v-2q0 -85 -56 -136t-149 -64l231 -299h-66l-223 290h-229v-290h-52zM156 337h236q90 0 147 43t57 117v2q0 71 -53 112t-148 41h-239v-315z" />
    <glyph glyph-name="S" unicode="S" horiz-adv-x="640" 
d="M341 -10q-157 0 -282 112l34 39q59 -55 117 -79.5t134 -24.5q78 0 127.5 39.5t49.5 99.5v2q0 58 -41.5 92t-156.5 57q-126 25 -181 71t-55 126v2q0 78 64 131t161 53q74 0 129.5 -20.5t110.5 -64.5l-33 -41q-91 79 -209 79q-76 0 -123.5 -38t-47.5 -94v-2q0 -59 42.5 -94
t161.5 -59q121 -25 175.5 -70.5t54.5 -122.5v-2q0 -84 -65 -137.5t-167 -53.5z" />
    <glyph glyph-name="T" unicode="T" horiz-adv-x="638" 
d="M293 0v652h-244v48h540v-48h-244v-652h-52z" />
    <glyph glyph-name="U" unicode="U" horiz-adv-x="760" 
d="M380 -11q-129 0 -208 79t-79 223v409h52v-404q0 -123 63 -191.5t174 -68.5q109 0 171 65.5t62 189.5v409h52v-403q0 -147 -78 -227.5t-209 -80.5z" />
    <glyph glyph-name="V" unicode="V" horiz-adv-x="750" 
d="M352 -5l-308 705h58l274 -644l275 644h55l-308 -705h-46z" />
    <glyph glyph-name="W" unicode="W" horiz-adv-x="1102" 
d="M304 -5l-254 705h58l220 -623l205 625h40l205 -625l220 623h54l-254 -705h-42l-205 608l-205 -608h-42z" />
    <glyph glyph-name="X" unicode="X" horiz-adv-x="722" 
d="M600 700h61l-269 -343l279 -357h-62l-249 323l-248 -323h-61l278 357l-268 343h62l239 -309z" />
    <glyph glyph-name="Y" unicode="Y" horiz-adv-x="716" 
d="M332 0v277l-300 423h65l262 -376l263 376h62l-300 -422v-278h-52z" />
    <glyph glyph-name="Z" unicode="Z" horiz-adv-x="688" 
d="M68 0v29l479 624h-462v47h536v-29l-479 -624h479v-47h-553z" />
    <glyph glyph-name="bracketleft" unicode="[" horiz-adv-x="430" 
d="M98 -130v830h273v-38h-227v-754h227v-38h-273z" />
    <glyph glyph-name="backslash" unicode="\" horiz-adv-x="500" 
d="M469 -128l-472 926h49l472 -926h-49z" />
    <glyph glyph-name="bracketright" unicode="]" horiz-adv-x="430" 
d="M59 -130v38h227v754h-227v38h273v-830h-273z" />
    <glyph glyph-name="asciicircum" unicode="^" horiz-adv-x="500" 
d="M70 493l158 210h44l158 -210h-53l-128 167l-128 -167h-51z" />
    <glyph glyph-name="underscore" unicode="_" horiz-adv-x="600" 
d="M-2 -160v44h604v-44h-604z" />
    <glyph glyph-name="grave" unicode="`" horiz-adv-x="500" 
d="M264 595l-107 103l61 30l88 -133h-42z" />
    <glyph glyph-name="a" unicode="a" horiz-adv-x="574" 
d="M248 -12q-78 0 -137.5 42.5t-59.5 117.5v2q0 78 61 122t162 44q86 0 169 -22v22q0 76 -44 116t-124 40t-160 -41l-18 43q95 44 181 44q105 0 161 -56q52 -52 52 -144v-318h-48v85q-69 -97 -195 -97zM251 34q80 0 136.5 44.5t56.5 112.5v58q-90 23 -173 23
q-80 0 -124 -32.5t-44 -86.5v-2q0 -53 43.5 -85t104.5 -32z" />
    <glyph glyph-name="b" unicode="b" horiz-adv-x="660" 
d="M352 -12q-130 0 -210 122v-110h-49v730h49v-334q83 126 210 126q98 0 173 -73t75 -192v-2q0 -119 -75 -193t-173 -74zM347 35q86 0 143 59t57 159v2q0 98 -58.5 159t-141.5 61t-145.5 -62.5t-62.5 -156.5v-2q0 -95 62.5 -157t145.5 -62z" />
    <glyph glyph-name="c" unicode="c" horiz-adv-x="571" 
d="M318 -12q-109 0 -184.5 78.5t-75.5 186.5v2q0 108 76 187.5t184 79.5q114 0 204 -94l-35 -36q-82 84 -170 84q-87 0 -146.5 -63.5t-59.5 -155.5v-2q0 -92 61 -156.5t149 -64.5q95 0 171 85l34 -30q-89 -101 -208 -101z" />
    <glyph glyph-name="d" unicode="d" horiz-adv-x="660" 
d="M308 -12q-98 0 -173 73t-75 192v2q0 119 75 193t173 74q130 0 210 -122v330h49v-730h-49v114q-83 -126 -210 -126zM313 35q83 0 145.5 62.5t62.5 156.5v2q0 95 -62.5 157t-145.5 62q-86 0 -143 -59t-57 -159v-2q0 -98 58.5 -159t141.5 -61z" />
    <glyph glyph-name="e" unicode="e" horiz-adv-x="584" 
d="M308 -12q-103 0 -176.5 75t-73.5 191v2q0 112 69.5 189t172.5 77q105 0 169.5 -76t64.5 -191q0 -12 -1 -20h-423q7 -92 64.5 -146.5t135.5 -54.5q100 0 175 80l34 -30q-89 -96 -211 -96zM110 279h371q-6 84 -53 141t-130 57q-75 0 -128 -56.5t-60 -141.5z" />
    <glyph glyph-name="f" unicode="f" horiz-adv-x="362" 
d="M123 0v465h-74v45h74v50q0 88 45 133q40 40 107 40q41 0 76 -12v-46q-42 13 -76 13q-103 0 -103 -129v-49h178v-45h-178v-465h-49z" />
    <glyph glyph-name="g" unicode="g" horiz-adv-x="660" 
d="M317 -162q-129 0 -234 78l29 40q93 -72 206 -72q91 0 145.5 51t54.5 147v74q-82 -118 -213 -118q-97 0 -171 67.5t-74 172.5v2q0 106 74 174t171 68q133 0 213 -114v102h49v-431q0 -108 -65 -173q-68 -68 -185 -68zM310 85q83 0 147 55t64 139v2q0 85 -63.5 139.5
t-147.5 54.5q-83 0 -140 -53t-57 -140v-2q0 -84 58 -139.5t139 -55.5z" />
    <glyph glyph-name="h" unicode="h" horiz-adv-x="613" 
d="M93 0v730h49v-315q61 107 184 107q95 0 149.5 -58.5t54.5 -151.5v-312h-49v303q0 80 -43 127t-119 47t-126.5 -51.5t-50.5 -130.5v-295h-49z" />
    <glyph glyph-name="i" unicode="i" horiz-adv-x="249" 
d="M94 643v67h61v-67h-61zM100 0v510h49v-510h-49z" />
    <glyph glyph-name="j" unicode="j" horiz-adv-x="249" 
d="M94 643v67h61v-67h-61zM40 -163q-21 0 -41 4v43q18 -3 40 -3q28 0 44.5 18t16.5 53v558h49v-555q0 -58 -29 -88t-80 -30z" />
    <glyph glyph-name="k" unicode="k" horiz-adv-x="560" 
d="M93 0v730h49v-547l316 327h65l-223 -226l230 -284h-62l-202 249l-124 -125v-124h-49z" />
    <glyph glyph-name="l" unicode="l" horiz-adv-x="249" 
d="M100 0v730h49v-730h-49z" />
    <glyph glyph-name="m" unicode="m" horiz-adv-x="947" 
d="M93 0v510h49v-91q30 48 69 75.5t101 27.5q120 0 172 -110q64 110 184 110q90 0 143 -58t53 -155v-309h-49v303q0 82 -40 128t-111 46q-67 0 -114 -49t-47 -131v-297h-49v306q0 79 -40.5 125t-108.5 46t-115.5 -53t-47.5 -130v-294h-49z" />
    <glyph glyph-name="n" unicode="n" horiz-adv-x="613" 
d="M93 0v510h49v-95q61 107 184 107q95 0 149.5 -58.5t54.5 -151.5v-312h-49v303q0 80 -43 127t-119 47t-126.5 -51.5t-50.5 -130.5v-295h-49z" />
    <glyph glyph-name="o" unicode="o" horiz-adv-x="640" 
d="M319 -12q-112 0 -186.5 78t-74.5 187v2q0 109 75.5 188t187.5 79t186.5 -78t74.5 -187v-2q0 -109 -75.5 -188t-187.5 -79zM321 34q90 0 149 64t59 155v2q0 92 -61 156.5t-149 64.5q-90 0 -149 -64t-59 -155v-2q0 -92 61 -156.5t149 -64.5z" />
    <glyph glyph-name="p" unicode="p" horiz-adv-x="660" 
d="M93 -160v670h49v-114q83 126 210 126q98 0 173 -73t75 -192v-2q0 -119 -75 -193t-173 -74q-130 0 -210 122v-270h-49zM347 35q86 0 143 59t57 159v2q0 98 -58.5 159t-141.5 61t-145.5 -62.5t-62.5 -156.5v-2q0 -95 62.5 -157t145.5 -62z" />
    <glyph glyph-name="q" unicode="q" horiz-adv-x="660" 
d="M518 -160v274q-83 -126 -210 -126q-98 0 -173 73t-75 192v2q0 119 75 193t173 74q130 0 210 -122v110h49v-670h-49zM313 35q83 0 145.5 62.5t62.5 156.5v2q0 95 -62.5 157t-145.5 62q-86 0 -143 -59t-57 -159v-2q0 -98 58.5 -159t141.5 -61z" />
    <glyph glyph-name="r" unicode="r" 
d="M93 0v510h49v-145q31 70 91.5 113t134.5 40v-54h-5q-93 0 -157 -68t-64 -187v-209h-49z" />
    <glyph glyph-name="s" unicode="s" horiz-adv-x="497" 
d="M258 -10q-55 0 -111.5 20.5t-97.5 53.5l29 39q87 -67 183 -67q53 0 88 27t35 70v2q0 41 -34.5 62t-100.5 40q-35 10 -51 15t-45 18t-42.5 25.5t-25 34t-11.5 47.5v2q0 62 47 101.5t121 39.5q97 0 181 -56l-26 -41q-77 51 -157 51q-52 0 -84 -25t-32 -64v-2q0 -16 8.5 -30
t20 -23t33 -18.5t37 -14.5t43.5 -13q38 -11 62 -20t51.5 -25.5t41 -41t13.5 -56.5v-2q0 -67 -50.5 -108t-125.5 -41z" />
    <glyph glyph-name="t" unicode="t" 
d="M263 -9q-63 0 -103 35.5t-40 104.5v334h-74v45h74v163h49v-163h179v-45h-179v-329q0 -99 102 -99q35 0 75 18v-46q-39 -18 -83 -18z" />
    <glyph glyph-name="u" unicode="u" horiz-adv-x="613" 
d="M287 -12q-95 0 -149.5 58.5t-54.5 151.5v312h49v-303q0 -80 43 -127t119 -47t126.5 51.5t50.5 130.5v295h49v-510h-49v95q-61 -107 -184 -107z" />
    <glyph glyph-name="v" unicode="v" horiz-adv-x="582" 
d="M270 -4l-229 514h57l193 -455l195 455h55l-229 -514h-42z" />
    <glyph glyph-name="w" unicode="w" horiz-adv-x="861" 
d="M236 -4l-187 514h55l154 -448l154 450h39l154 -450l154 448h53l-187 -514h-42l-152 437l-153 -437h-42z" />
    <glyph glyph-name="x" unicode="x" horiz-adv-x="570" 
d="M114 510l171 -216l173 216h59l-201 -249l209 -261h-61l-180 227l-180 -227h-59l208 260l-200 250h61z" />
    <glyph glyph-name="y" unicode="y" horiz-adv-x="588" 
d="M308 54l184 456h54l-221 -528q-33 -78 -73.5 -111.5t-96.5 -33.5q-51 0 -101 22l17 43q39 -19 87 -19q40 0 69 27t57 93l-245 507h57z" />
    <glyph glyph-name="z" unicode="z" horiz-adv-x="554" 
d="M58 0v28l368 438h-354v44h427v-28l-368 -438h368v-44h-441z" />
    <glyph glyph-name="braceleft" unicode="{" horiz-adv-x="480" 
d="M416 -141q-66 12 -108.5 30.5t-64.5 45t-30 56t-8 71.5v79q0 63 -26.5 95t-93.5 32h-26v38h26q67 0 93.5 32t26.5 95v79q0 42 8 71.5t30 56t64.5 45t108.5 30.5l7 -32q-58 -15 -91 -29.5t-50.5 -36.5t-22.5 -45.5t-5 -65.5v-75q0 -63 -26.5 -96t-77.5 -48
q54 -18 79 -49.5t25 -94.5v-75q0 -42 5 -65.5t22.5 -45.5t50.5 -36.5t91 -29.5z" />
    <glyph glyph-name="bar" unicode="|" horiz-adv-x="286" 
d="M121 -128v926h44v-926h-44z" />
    <glyph glyph-name="braceright" unicode="}" horiz-adv-x="480" 
d="M64 -141l-7 32q58 15 91 29.5t50.5 36.5t22.5 45.5t5 65.5v75q0 63 26.5 96t77.5 48q-54 18 -79 49.5t-25 94.5v75q0 42 -5 65.5t-22.5 45.5t-50.5 36.5t-91 29.5l7 32q66 -12 108.5 -30.5t64.5 -45t30 -56t8 -71.5v-79q0 -63 26.5 -95t93.5 -32h26v-38h-26
q-67 0 -93.5 -32t-26.5 -95v-79q0 -42 -8 -71.5t-30 -56t-64.5 -45t-108.5 -30.5z" />
    <glyph glyph-name="asciitilde" unicode="~" horiz-adv-x="460" 
d="M294 251q-20 0 -65 20q-46 21 -63 21q-18 0 -28.5 -10.5t-21.5 -39.5l-34 9q14 52 33.5 72.5t50.5 20.5q20 0 65 -20q46 -21 63 -21q18 0 28.5 10.5t21.5 39.5l34 -9q-14 -52 -33.5 -72.5t-50.5 -20.5z" />
    <glyph glyph-name="uni00A0" unicode="&#xa0;" horiz-adv-x="300" 
 />
    <glyph glyph-name="exclamdown" unicode="&#xa1;" horiz-adv-x="252" 
d="M93 615v85h66v-85h-66zM97 0v70l15 447h28l15 -447v-70h-58z" />
    <glyph glyph-name="cent" unicode="&#xa2;" horiz-adv-x="581" 
d="M403 706l-18 -91q76 -19 141 -87l-35 -36q-61 63 -117 77l-85 -432q17 -3 36 -3q95 0 171 85l34 -30q-89 -101 -208 -101q-21 0 -39 3l-19 -97h-50l21 109q-77 27 -125 96t-48 154v2q0 108 76 187.5t184 79.5h14l17 84h50zM115 355q0 -70 36 -125.5t95 -79.5l84 426h-9
q-87 0 -146.5 -63.5t-59.5 -155.5v-2z" />
    <glyph glyph-name="sterling" unicode="&#xa3;" horiz-adv-x="644" 
d="M70 0v25l86 20v260h-86v48h86v118q0 116 65 181q58 58 150 58q129 0 210 -106l-40 -31q-35 44 -74 67t-97 23q-70 0 -113 -43q-50 -50 -50 -148v-119h298v-48h-298v-258h374v-47h-511z" />
    <glyph glyph-name="yen" unicode="&#xa5;" horiz-adv-x="686" 
d="M105 268v45h195l-268 387h63l249 -373l250 373h60l-269 -387h196v-45h-213v-98h213v-45h-213v-125h-50v125h-213v45h213v98h-213z" />
    <glyph glyph-name="section" unicode="&#xa7;" horiz-adv-x="632" 
d="M419 222q86 -38 86 -105v-2q0 -56 -48.5 -90.5t-127.5 -34.5q-65 0 -124.5 26t-102.5 69l38 36q80 -82 194 -82q57 0 86.5 21.5t29.5 55.5v2q0 33 -41 57.5t-142 48.5q-111 27 -156.5 58.5t-45.5 80.5v2q0 44 40 74.5t108 38.5q-86 38 -86 105v2q0 56 48.5 90.5
t127.5 34.5q65 0 124.5 -26t102.5 -69l-38 -36q-80 82 -194 82q-57 0 -86.5 -21.5t-29.5 -55.5v-2q0 -33 41 -57.5t142 -48.5q111 -27 156.5 -58.5t45.5 -80.5v-2q0 -44 -40 -74.5t-108 -38.5zM386 253q57 0 93 23.5t36 54.5v2q0 29 -34.5 52.5t-122.5 45.5q-64 16 -112 16
q-57 0 -93 -23.5t-36 -54.5v-2q0 -29 34.5 -52.5t122.5 -45.5q63 -16 112 -16z" />
    <glyph glyph-name="dieresis" unicode="&#xa8;" horiz-adv-x="500" 
d="M297 595v80h69v-80h-69zM134 595v80h69v-80h-69z" />
    <glyph glyph-name="copyright" unicode="&#xa9;" horiz-adv-x="830" 
d="M414 -12q-151 0 -256 105.5t-105 254.5v2q0 149 106 255.5t257 106.5t256 -105.5t105 -254.5v-2q0 -149 -106 -255.5t-257 -106.5zM414 16q141 0 237 97.5t96 236.5v2q0 138 -95 235t-236 97t-237 -97.5t-96 -236.5v-2q0 -138 95 -235t236 -97zM419 166q-77 0 -129.5 55
t-52.5 133v2q0 77 53 133t130 56t141 -61l-30 -31q-54 52 -112 52q-59 0 -98.5 -43.5t-39.5 -104.5v-2q0 -61 40.5 -105t98.5 -44q60 0 115 52l28 -28q-66 -64 -144 -64z" />
    <glyph glyph-name="ordfeminine" unicode="&#xaa;" horiz-adv-x="390" 
d="M174 411q-43 0 -76 24t-33 66v2q0 43 34 68t90 25q41 0 83 -11v5q0 38 -22 57.5t-61 19.5q-37 0 -88 -24l-13 34q55 26 103 26q58 0 90 -32q28 -28 28 -80v-174h-37v41q-36 -47 -98 -47zM176 447q39 0 67.5 21.5t28.5 55.5v27q-36 11 -85 11q-38 0 -60 -16t-22 -41v-2
q0 -26 20.5 -41t50.5 -15zM62 293v40h252v-40h-252z" />
    <glyph glyph-name="guillemotleft" unicode="&#xab;" horiz-adv-x="515" 
d="M415 42l-160 209v8l160 209l37 -24l-137 -188l137 -190zM211 42l-160 209v8l160 209l37 -24l-137 -188l137 -190z" />
    <glyph glyph-name="registered" unicode="&#xae;" horiz-adv-x="416" 
d="M208 360q-73 0 -123.5 51t-50.5 123v1q0 72 51 123.5t123 51.5q73 0 123.5 -51t50.5 -123v-1q0 -72 -51 -123.5t-123 -51.5zM208 379q65 0 109.5 46t44.5 110v1q0 64 -44.5 109.5t-109.5 45.5t-109.5 -46t-44.5 -110v-1q0 -64 44.5 -109.5t109.5 -45.5zM143 451v175h78
q28 0 46.5 -14.5t18.5 -39.5q0 -40 -43 -53l49 -68h-35l-44 64h-42v-64h-28zM171 538h47q39 0 39 32q0 31 -39 31h-47v-63z" />
    <glyph glyph-name="macron" unicode="&#xaf;" horiz-adv-x="500" 
d="M103 621v47h294v-47h-294z" />
    <glyph glyph-name="degree" unicode="&#xb0;" horiz-adv-x="450" 
d="M225 412q-60 0 -105.5 44t-45.5 102v2q0 58 45.5 102t105.5 44t105.5 -44t45.5 -102v-2q0 -58 -45.5 -102t-105.5 -44zM225 456q43 0 72 30.5t29 71.5v2q0 41 -29 71.5t-72 30.5t-72 -30.5t-29 -71.5v-2q0 -41 29 -71.5t72 -30.5z" />
    <glyph glyph-name="plusminus" unicode="&#xb1;" horiz-adv-x="620" 
d="M542 358h-207v-203h-50v203h-207v48h207v203h50v-203h207v-48zM542 0h-464v48h464v-48z" />
    <glyph glyph-name="two.sup" unicode="&#xb2;" 
d="M61 426v33l149 132q43 38 61.5 64.5t18.5 56.5q0 32 -23.5 53.5t-58.5 21.5q-64 0 -110 -72l-30 18q55 89 143 89q50 0 84.5 -31.5t34.5 -76.5q0 -39 -21 -69.5t-72 -75.5l-122 -106h219v-37h-273z" />
    <glyph glyph-name="three.sup" unicode="&#xb3;" 
d="M198 416q-89 0 -143 74l29 24q46 -63 115 -63q37 0 63 23t26 58q0 37 -31.5 58.5t-80.5 21.5h-28l-8 24l133 139h-198v37h248v-32l-128 -134q59 -5 96 -34t37 -80q0 -50 -38.5 -83t-91.5 -33z" />
    <glyph glyph-name="acute" unicode="&#xb4;" horiz-adv-x="500" 
d="M194 595l88 133l61 -30l-107 -103h-42z" />
    <glyph glyph-name="mu" unicode="&#xb5;" horiz-adv-x="663" 
d="M645 42v-45q-22 -5 -44 -5q-108 0 -117 104q-28 -50 -73 -79t-99 -29q-118 0 -174 113h-1q5 -51 5 -130v-131h-49v670h49v-295q0 -76 49.5 -129t121.5 -53t121 53t49 129v295h49v-391q0 -82 73 -82q22 0 40 5z" />
    <glyph glyph-name="paragraph" unicode="&#xb6;" horiz-adv-x="480" 
d="M333 0v277h-6q-119 0 -196.5 56.5t-77.5 154.5v2q0 97 72 153.5t187 56.5h74v-700h-53z" />
    <glyph glyph-name="periodcentered" unicode="&#xb7;" horiz-adv-x="230" 
d="M82 255v85h66v-85h-66z" />
    <glyph glyph-name="cedilla" unicode="&#xb8;" horiz-adv-x="500" 
d="M217 -148l-55 26l90 132h43z" />
    <glyph glyph-name="one.sup" unicode="&#xb9;" horiz-adv-x="325" 
d="M204 426h-39v352l-90 -34l-9 35l105 40h33v-393z" />
    <glyph glyph-name="ordmasculine" unicode="&#xba;" horiz-adv-x="390" 
d="M194 411q-61 0 -102 42.5t-41 102.5v2q0 60 41.5 103.5t103.5 43.5q61 0 102 -42.5t41 -102.5v-2q0 -60 -41.5 -103.5t-103.5 -43.5zM51 293v40h288v-40h-288zM196 450q44 0 72 31t28 75v2q0 45 -29.5 76.5t-72.5 31.5q-44 0 -72 -31t-28 -75v-2q0 -45 29.5 -76.5
t72.5 -31.5z" />
    <glyph glyph-name="guillemotright" unicode="&#xbb;" horiz-adv-x="515" 
d="M304 42l-37 24l137 188l-137 190l37 24l160 -209v-8zM100 42l-37 24l137 188l-137 190l37 24l160 -209v-8z" />
    <glyph glyph-name="onequarter" unicode="&#xbc;" horiz-adv-x="825" 
d="M720 89v-91h-37v91h-190l-12 32l194 271h45v-269h55v-34h-55zM140 0l246 356l231 344h43l-246 -356l-231 -344h-43zM199 314h-39v352l-90 -34l-9 35l105 40h33v-393zM683 123v219l-158 -219h158z" />
    <glyph glyph-name="onehalf" unicode="&#xbd;" horiz-adv-x="825" 
d="M496 0v33l149 132q43 38 61.5 64.5t18.5 56.5q0 32 -23.5 53.5t-58.5 21.5q-63 0 -110 -72l-30 18q55 89 143 89q50 0 84.5 -31.5t34.5 -76.5q0 -39 -21 -69.5t-72 -75.5l-122 -106h219v-37h-273zM130 0l246 356l231 344h43l-246 -356l-231 -344h-43zM199 314h-39v352
l-90 -34l-9 35l105 40h33v-393z" />
    <glyph glyph-name="threequarters" unicode="&#xbe;" horiz-adv-x="900" 
d="M795 89v-91h-37v91h-190l-12 32l194 271h45v-269h55v-34h-55zM198 304q-89 0 -143 74l29 24q46 -63 115 -63q37 0 63 23t26 58q0 37 -31.5 58.5t-80.5 21.5h-28l-8 24l133 139h-198v37h248v-32l-128 -134q59 -5 96 -34t37 -80q0 -50 -38.5 -83t-91.5 -33zM210 0l246 356
l231 344h43l-246 -356l-231 -344h-43zM758 123v219l-158 -219h158z" />
    <glyph glyph-name="questiondown" unicode="&#xbf;" horiz-adv-x="534" 
d="M256 615v85h66v-85h-66zM269 -9q-97 0 -157 56.5t-60 138.5v2q0 88 59.5 140.5t152.5 63.5l9 125h32l13 -162l-5 -5q-98 -2 -153 -45t-55 -115v-2q0 -63 46 -107t120 -44q109 0 193 103l36 -30q-46 -58 -101 -88.5t-130 -30.5z" />
    <glyph glyph-name="Agrave" unicode="&#xc0;" horiz-adv-x="790" 
d="M44 0l326 705h50l326 -705h-57l-89 196h-413l-89 -196h-54zM209 243h369l-184 405zM416 775h-45l-107 90l59 28z" />
    <glyph glyph-name="Aacute" unicode="&#xc1;" horiz-adv-x="790" 
d="M44 0l326 705h50l326 -705h-57l-89 196h-413l-89 -196h-54zM209 243h369l-184 405zM374 775l93 118l59 -28l-107 -90h-45z" />
    <glyph glyph-name="Acircumflex" unicode="&#xc2;" horiz-adv-x="790" 
d="M44 0l326 705h50l326 -705h-57l-89 196h-413l-89 -196h-54zM209 243h369l-184 405zM269 775l103 107h46l103 -107h-54l-73 61l-73 -61h-52z" />
    <glyph glyph-name="Atilde" unicode="&#xc3;" horiz-adv-x="790" 
d="M44 0l326 705h50l326 -705h-57l-89 196h-413l-89 -196h-54zM209 243h369l-184 405zM463 775q-20 0 -70 21q-40 17 -56 17q-18 0 -28.5 -10t-21.5 -37l-37 10q14 47 33.5 67.5t48.5 20.5q20 0 70 -21q40 -17 56 -17q18 0 28 10t22 36l37 -10q-14 -47 -33.5 -67t-48.5 -20z
" />
    <glyph glyph-name="Adieresis" unicode="&#xc4;" horiz-adv-x="790" 
d="M44 0l326 705h50l326 -705h-57l-89 196h-413l-89 -196h-54zM209 243h369l-184 405zM447 775v76h73v-76h-73zM271 775v76h74v-76h-74z" />
    <glyph glyph-name="Aring" unicode="&#xc5;" horiz-adv-x="790" 
d="M44 0l307 666q-28 11 -45 34t-17 53q0 40 31 67.5t75 27.5t75 -27.5t31 -67.5q0 -29 -17.5 -52.5t-45.5 -34.5l308 -666h-57l-89 196h-413l-89 -196h-54zM209 243h369l-184 405zM395 690q29 0 48.5 18t19.5 45t-19.5 45t-48.5 18t-48.5 -18t-19.5 -45t19.5 -45t48.5 -18z
" />
    <glyph glyph-name="AE" unicode="&#xc6;" horiz-adv-x="1045" 
d="M20 0l424 700h533v-48h-431v-275h386v-48h-386v-281h436v-48h-488v196h-300l-118 -196h-56zM222 243h272v410h-26z" />
    <glyph glyph-name="Ccedilla" unicode="&#xc7;" horiz-adv-x="743" 
d="M367 -148l-55 26l76 112q-137 12 -226 113.5t-89 244.5v2q0 150 100 256t250 106q87 0 149.5 -28.5t122.5 -83.5l-37 -38q-106 103 -236 103q-126 0 -210.5 -90.5t-84.5 -222.5v-2q0 -133 85.5 -224t210.5 -91q73 0 129 27t112 82l35 -34q-59 -58 -121 -88.5t-144 -33.5z
" />
    <glyph glyph-name="Egrave" unicode="&#xc8;" horiz-adv-x="670" 
d="M104 0v700h498v-48h-446v-275h401v-48h-401v-281h451v-48h-503zM376 765h-45l-107 90l59 28z" />
    <glyph glyph-name="Eacute" unicode="&#xc9;" horiz-adv-x="670" 
d="M104 0v700h498v-48h-446v-275h401v-48h-401v-281h451v-48h-503zM334 765l93 118l59 -28l-107 -90h-45z" />
    <glyph glyph-name="Ecircumflex" unicode="&#xca;" horiz-adv-x="670" 
d="M104 0v700h498v-48h-446v-275h401v-48h-401v-281h451v-48h-503zM229 765l103 107h46l103 -107h-54l-73 61l-73 -61h-52z" />
    <glyph glyph-name="Edieresis" unicode="&#xcb;" horiz-adv-x="670" 
d="M104 0v700h498v-48h-446v-275h401v-48h-401v-281h451v-48h-503zM407 765v76h73v-76h-73zM231 765v76h74v-76h-74z" />
    <glyph glyph-name="Igrave" unicode="&#xcc;" horiz-adv-x="274" 
d="M111 0v700h52v-700h-52zM158 765h-45l-107 90l59 28z" />
    <glyph glyph-name="Iacute" unicode="&#xcd;" horiz-adv-x="274" 
d="M111 0v700h52v-700h-52zM116 765l93 118l59 -28l-107 -90h-45z" />
    <glyph glyph-name="Icircumflex" unicode="&#xce;" horiz-adv-x="274" 
d="M111 0v700h52v-700h-52zM11 765l103 107h46l103 -107h-54l-73 61l-73 -61h-52z" />
    <glyph glyph-name="Idieresis" unicode="&#xcf;" horiz-adv-x="274" 
d="M111 0v700h52v-700h-52zM189 765v76h73v-76h-73zM13 765v76h74v-76h-74z" />
    <glyph glyph-name="Eth" unicode="&#xd0;" horiz-adv-x="812" 
d="M59 328v48h75v324h233q163 0 267.5 -99.5t104.5 -248.5v-2q0 -150 -104.5 -250t-267.5 -100h-233v328h-75zM685 348v2q0 128 -87.5 215t-230.5 87h-181v-276h232v-48h-232v-280h181q143 0 230.5 86t87.5 214z" />
    <glyph glyph-name="Ntilde" unicode="&#xd1;" horiz-adv-x="790" 
d="M104 0v700h49l483 -609v609h50v-700h-39l-493 622v-622h-50zM463 760q-20 0 -70 21q-40 17 -56 17q-18 0 -28.5 -10t-21.5 -37l-37 10q14 47 33.5 67.5t48.5 20.5q20 0 70 -21q40 -17 56 -17q18 0 28 10t22 36l37 -10q-14 -47 -33.5 -67t-48.5 -20z" />
    <glyph glyph-name="Ograve" unicode="&#xd2;" horiz-adv-x="850" 
d="M424 -12q-155 0 -253 106t-98 254v2q0 148 99 255t254 107t253 -106t98 -254v-2q0 -148 -99 -255t-254 -107zM426 35q128 0 212.5 91t84.5 222v2q0 131 -85.5 223t-213.5 92t-212.5 -91t-84.5 -222v-2q0 -131 85.5 -223t213.5 -92zM446 775h-45l-107 90l59 28z" />
    <glyph glyph-name="Oacute" unicode="&#xd3;" horiz-adv-x="850" 
d="M424 -12q-155 0 -253 106t-98 254v2q0 148 99 255t254 107t253 -106t98 -254v-2q0 -148 -99 -255t-254 -107zM426 35q128 0 212.5 91t84.5 222v2q0 131 -85.5 223t-213.5 92t-212.5 -91t-84.5 -222v-2q0 -131 85.5 -223t213.5 -92zM404 775l93 118l59 -28l-107 -90h-45z
" />
    <glyph glyph-name="Ocircumflex" unicode="&#xd4;" horiz-adv-x="850" 
d="M424 -12q-155 0 -253 106t-98 254v2q0 148 99 255t254 107t253 -106t98 -254v-2q0 -148 -99 -255t-254 -107zM426 35q128 0 212.5 91t84.5 222v2q0 131 -85.5 223t-213.5 92t-212.5 -91t-84.5 -222v-2q0 -131 85.5 -223t213.5 -92zM299 775l103 107h46l103 -107h-54
l-73 61l-73 -61h-52z" />
    <glyph glyph-name="Otilde" unicode="&#xd5;" horiz-adv-x="850" 
d="M424 -12q-155 0 -253 106t-98 254v2q0 148 99 255t254 107t253 -106t98 -254v-2q0 -148 -99 -255t-254 -107zM426 35q128 0 212.5 91t84.5 222v2q0 131 -85.5 223t-213.5 92t-212.5 -91t-84.5 -222v-2q0 -131 85.5 -223t213.5 -92zM493 775q-20 0 -70 21q-40 17 -56 17
q-18 0 -28.5 -10t-21.5 -37l-37 10q14 47 33.5 67.5t48.5 20.5q20 0 70 -21q40 -17 56 -17q18 0 28 10t22 36l37 -10q-14 -47 -33.5 -67t-48.5 -20z" />
    <glyph glyph-name="Odieresis" unicode="&#xd6;" horiz-adv-x="850" 
d="M424 -12q-155 0 -253 106t-98 254v2q0 148 99 255t254 107t253 -106t98 -254v-2q0 -148 -99 -255t-254 -107zM426 35q128 0 212.5 91t84.5 222v2q0 131 -85.5 223t-213.5 92t-212.5 -91t-84.5 -222v-2q0 -131 85.5 -223t213.5 -92zM477 775v76h73v-76h-73zM301 775v76h74
v-76h-74z" />
    <glyph glyph-name="multiply" unicode="&#xd7;" horiz-adv-x="620" 
d="M490 136l-181 183l-181 -183l-34 34l183 181l-183 181l36 36l181 -183l181 183l34 -34l-183 -181l183 -181z" />
    <glyph glyph-name="Oslash" unicode="&#xd8;" horiz-adv-x="850" 
d="M725 705h60l-100 -107q92 -101 92 -246v-2q0 -148 -99 -255t-254 -107q-133 0 -228 82l-71 -75h-60l99 106q-91 104 -91 247v2q0 148 99 255t254 107q132 0 228 -83zM426 34q129 0 213.5 91t84.5 223q0 122 -75 213l-420 -452q81 -75 197 -75zM126 352q0 -125 74 -213
l421 452q-83 75 -197 75q-129 0 -213.5 -91t-84.5 -223z" />
    <glyph glyph-name="Ugrave" unicode="&#xd9;" horiz-adv-x="760" 
d="M380 -11q-129 0 -208 79t-79 223v409h52v-404q0 -123 63 -191.5t174 -68.5q109 0 171 65.5t62 189.5v409h52v-403q0 -147 -78 -227.5t-209 -80.5zM401 760h-45l-107 90l59 28z" />
    <glyph glyph-name="Uacute" unicode="&#xda;" horiz-adv-x="760" 
d="M380 -11q-129 0 -208 79t-79 223v409h52v-404q0 -123 63 -191.5t174 -68.5q109 0 171 65.5t62 189.5v409h52v-403q0 -147 -78 -227.5t-209 -80.5zM359 760l93 118l59 -28l-107 -90h-45z" />
    <glyph glyph-name="Ucircumflex" unicode="&#xdb;" horiz-adv-x="760" 
d="M380 -11q-129 0 -208 79t-79 223v409h52v-404q0 -123 63 -191.5t174 -68.5q109 0 171 65.5t62 189.5v409h52v-403q0 -147 -78 -227.5t-209 -80.5zM254 760l103 107h46l103 -107h-54l-73 61l-73 -61h-52z" />
    <glyph glyph-name="Udieresis" unicode="&#xdc;" horiz-adv-x="760" 
d="M380 -11q-129 0 -208 79t-79 223v409h52v-404q0 -123 63 -191.5t174 -68.5q109 0 171 65.5t62 189.5v409h52v-403q0 -147 -78 -227.5t-209 -80.5zM432 760v76h73v-76h-73zM256 760v76h74v-76h-74z" />
    <glyph glyph-name="Yacute" unicode="&#xdd;" horiz-adv-x="716" 
d="M332 0v277l-300 423h65l262 -376l263 376h62l-300 -422v-278h-52zM337 760l93 118l59 -28l-107 -90h-45z" />
    <glyph glyph-name="Thorn" unicode="&#xde;" horiz-adv-x="668" 
d="M104 0v700h52v-127h202q117 0 188.5 -57t71.5 -157v-2q0 -106 -78.5 -165t-194.5 -59h-189v-133h-52zM156 181h192q98 0 158 47.5t60 125.5v2q0 81 -57.5 125t-154.5 44h-198v-344z" />
    <glyph glyph-name="germandbls" unicode="&#xdf;" horiz-adv-x="620" 
d="M289 -2v43q101 2 158 39.5t57 106.5v2q0 130 -215 153v41q170 52 170 175v2q0 57 -41.5 94t-107.5 37q-74 0 -121 -52t-47 -139v-500h-49v500q0 105 60 171t160 66q89 0 144 -50t55 -125v-2q0 -68 -45.5 -117t-111.5 -73q88 -15 145 -59.5t57 -119.5v-2q0 -90 -72 -140.5
t-196 -50.5z" />
    <glyph glyph-name="agrave" unicode="&#xe0;" horiz-adv-x="574" 
d="M248 -12q-78 0 -137.5 42.5t-59.5 117.5v2q0 78 61 122t162 44q86 0 169 -22v22q0 76 -44 116t-124 40t-160 -41l-18 43q95 44 181 44q105 0 161 -56q52 -52 52 -144v-318h-48v85q-69 -97 -195 -97zM251 34q80 0 136.5 44.5t56.5 112.5v58q-90 23 -173 23
q-80 0 -124 -32.5t-44 -86.5v-2q0 -53 43.5 -85t104.5 -32zM266 595l-107 103l61 30l88 -133h-42z" />
    <glyph glyph-name="aacute" unicode="&#xe1;" horiz-adv-x="574" 
d="M248 -12q-78 0 -137.5 42.5t-59.5 117.5v2q0 78 61 122t162 44q86 0 169 -22v22q0 76 -44 116t-124 40t-160 -41l-18 43q95 44 181 44q105 0 161 -56q52 -52 52 -144v-318h-48v85q-69 -97 -195 -97zM251 34q80 0 136.5 44.5t56.5 112.5v58q-90 23 -173 23
q-80 0 -124 -32.5t-44 -86.5v-2q0 -53 43.5 -85t104.5 -32zM266 595l88 133l61 -30l-107 -103h-42z" />
    <glyph glyph-name="acircumflex" unicode="&#xe2;" horiz-adv-x="574" 
d="M248 -12q-78 0 -137.5 42.5t-59.5 117.5v2q0 78 61 122t162 44q86 0 169 -22v22q0 76 -44 116t-124 40t-160 -41l-18 43q95 44 181 44q105 0 161 -56q52 -52 52 -144v-318h-48v85q-69 -97 -195 -97zM251 34q80 0 136.5 44.5t56.5 112.5v58q-90 23 -173 23
q-80 0 -124 -32.5t-44 -86.5v-2q0 -53 43.5 -85t104.5 -32zM167 595l100 122h40l100 -122h-47l-74 68l-74 -68h-45z" />
    <glyph glyph-name="atilde" unicode="&#xe3;" horiz-adv-x="574" 
d="M248 -12q-78 0 -137.5 42.5t-59.5 117.5v2q0 78 61 122t162 44q86 0 169 -22v22q0 76 -44 116t-124 40t-160 -41l-18 43q95 44 181 44q105 0 161 -56q52 -52 52 -144v-318h-48v85q-69 -97 -195 -97zM251 34q80 0 136.5 44.5t56.5 112.5v58q-90 23 -173 23
q-80 0 -124 -32.5t-44 -86.5v-2q0 -53 43.5 -85t104.5 -32zM354 595q-20 0 -65 20q-46 21 -63 21q-18 0 -28.5 -10.5t-21.5 -39.5l-34 9q14 52 33.5 72.5t50.5 20.5q20 0 65 -20q46 -21 63 -21q18 0 28.5 10.5t21.5 39.5l34 -9q-14 -52 -33.5 -72.5t-50.5 -20.5z" />
    <glyph glyph-name="adieresis" unicode="&#xe4;" horiz-adv-x="574" 
d="M248 -12q-78 0 -137.5 42.5t-59.5 117.5v2q0 78 61 122t162 44q86 0 169 -22v22q0 76 -44 116t-124 40t-160 -41l-18 43q95 44 181 44q105 0 161 -56q52 -52 52 -144v-318h-48v85q-69 -97 -195 -97zM251 34q80 0 136.5 44.5t56.5 112.5v58q-90 23 -173 23
q-80 0 -124 -32.5t-44 -86.5v-2q0 -53 43.5 -85t104.5 -32zM334 595v80h69v-80h-69zM171 595v80h69v-80h-69z" />
    <glyph glyph-name="aring" unicode="&#xe5;" horiz-adv-x="574" 
d="M248 -12q-78 0 -137.5 42.5t-59.5 117.5v2q0 78 61 122t162 44q86 0 169 -22v22q0 76 -44 116t-124 40t-160 -41l-18 43q95 44 181 44q105 0 161 -56q52 -52 52 -144v-318h-48v85q-69 -97 -195 -97zM251 34q80 0 136.5 44.5t56.5 112.5v58q-90 23 -173 23
q-80 0 -124 -32.5t-44 -86.5v-2q0 -53 43.5 -85t104.5 -32zM287 593q-43 0 -73.5 29.5t-30.5 70.5t30.5 70.5t73.5 29.5t73.5 -29.5t30.5 -70.5t-30.5 -70.5t-73.5 -29.5zM287 623q29 0 49.5 20.5t20.5 49.5t-20.5 49.5t-49.5 20.5t-49.5 -20.5t-20.5 -49.5t20.5 -49.5
t49.5 -20.5z" />
    <glyph glyph-name="ae" unicode="&#xe6;" horiz-adv-x="954" 
d="M243 -12q-77 0 -134.5 42.5t-57.5 117.5v2q0 78 60 122t158 44q77 0 160 -22v22q0 76 -42 116t-119 40q-73 0 -153 -41l-18 43q93 44 174 44q158 0 193 -128q31 60 85.5 96t120.5 36q105 0 169.5 -76t64.5 -191q0 -12 -1 -20h-423q7 -92 64.5 -146.5t135.5 -54.5
q100 0 175 80l34 -30q-89 -96 -211 -96q-63 0 -117.5 29.5t-88.5 82.5q-97 -112 -229 -112zM480 279h371q-6 84 -53 141t-130 57q-75 0 -128 -56.5t-60 -141.5zM246 34q118 0 204 107q-21 52 -22 109q-95 22 -162 22q-77 0 -120 -32.5t-43 -86.5v-2q0 -54 41 -85.5
t102 -31.5z" />
    <glyph glyph-name="ccedilla" unicode="&#xe7;" horiz-adv-x="571" 
d="M263 -148l-55 26l76 112q-97 13 -161.5 88.5t-64.5 174.5v2q0 108 76 187.5t184 79.5q114 0 204 -94l-35 -36q-82 84 -170 84q-87 0 -146.5 -63.5t-59.5 -155.5v-2q0 -92 61 -156.5t149 -64.5q95 0 171 85l34 -30q-84 -96 -196 -101z" />
    <glyph glyph-name="egrave" unicode="&#xe8;" horiz-adv-x="584" 
d="M308 -12q-103 0 -176.5 75t-73.5 191v2q0 112 69.5 189t172.5 77q105 0 169.5 -76t64.5 -191q0 -12 -1 -20h-423q7 -92 64.5 -146.5t135.5 -54.5q100 0 175 80l34 -30q-89 -96 -211 -96zM110 279h371q-6 84 -53 141t-130 57q-75 0 -128 -56.5t-60 -141.5zM279 595
l-107 103l61 30l88 -133h-42z" />
    <glyph glyph-name="eacute" unicode="&#xe9;" horiz-adv-x="584" 
d="M308 -12q-103 0 -176.5 75t-73.5 191v2q0 112 69.5 189t172.5 77q105 0 169.5 -76t64.5 -191q0 -12 -1 -20h-423q7 -92 64.5 -146.5t135.5 -54.5q100 0 175 80l34 -30q-89 -96 -211 -96zM110 279h371q-6 84 -53 141t-130 57q-75 0 -128 -56.5t-60 -141.5zM279 595l88 133
l61 -30l-107 -103h-42z" />
    <glyph glyph-name="ecircumflex" unicode="&#xea;" horiz-adv-x="584" 
d="M308 -12q-103 0 -176.5 75t-73.5 191v2q0 112 69.5 189t172.5 77q105 0 169.5 -76t64.5 -191q0 -12 -1 -20h-423q7 -92 64.5 -146.5t135.5 -54.5q100 0 175 80l34 -30q-89 -96 -211 -96zM110 279h371q-6 84 -53 141t-130 57q-75 0 -128 -56.5t-60 -141.5zM180 595
l100 122h40l100 -122h-47l-74 68l-74 -68h-45z" />
    <glyph glyph-name="edieresis" unicode="&#xeb;" horiz-adv-x="584" 
d="M308 -12q-103 0 -176.5 75t-73.5 191v2q0 112 69.5 189t172.5 77q105 0 169.5 -76t64.5 -191q0 -12 -1 -20h-423q7 -92 64.5 -146.5t135.5 -54.5q100 0 175 80l34 -30q-89 -96 -211 -96zM110 279h371q-6 84 -53 141t-130 57q-75 0 -128 -56.5t-60 -141.5zM347 595v80h69
v-80h-69zM184 595v80h69v-80h-69z" />
    <glyph glyph-name="igrave" unicode="&#xec;" horiz-adv-x="249" 
d="M100 0v510h49v-510h-49zM103 595l-107 103l61 30l88 -133h-42z" />
    <glyph glyph-name="iacute" unicode="&#xed;" horiz-adv-x="249" 
d="M100 0v510h49v-510h-49zM103 595l88 133l61 -30l-107 -103h-42z" />
    <glyph glyph-name="icircumflex" unicode="&#xee;" horiz-adv-x="249" 
d="M100 0v510h49v-510h-49zM4 595l100 122h40l100 -122h-47l-74 68l-74 -68h-45z" />
    <glyph glyph-name="idieresis" unicode="&#xef;" horiz-adv-x="249" 
d="M100 0v510h49v-510h-49zM171 595v80h69v-80h-69zM8 595v80h69v-80h-69z" />
    <glyph glyph-name="eth" unicode="&#xf0;" horiz-adv-x="639" 
d="M476 697l-88 -44q192 -187 192 -372v-2q0 -130 -73.5 -210.5t-191.5 -80.5q-107 0 -182 78.5t-75 188.5v2q0 111 73.5 182t172.5 71q114 0 200 -86q-40 95 -161 206l-110 -55l-22 36l99 49q-33 30 -86 70h77q35 -30 54 -47l99 50zM320 34q90 0 148.5 63t58.5 157v2
q0 91 -61 150.5t-156 59.5q-88 0 -143.5 -60t-55.5 -152v-2q0 -90 60.5 -154t148.5 -64z" />
    <glyph glyph-name="ntilde" unicode="&#xf1;" horiz-adv-x="613" 
d="M93 0v510h49v-95q61 107 184 107q95 0 149.5 -58.5t54.5 -151.5v-312h-49v303q0 80 -43 127t-119 47t-126.5 -51.5t-50.5 -130.5v-295h-49zM378 595q-20 0 -65 20q-46 21 -63 21q-18 0 -28.5 -10.5t-21.5 -39.5l-34 9q14 52 33.5 72.5t50.5 20.5q20 0 65 -20
q46 -21 63 -21q18 0 28.5 10.5t21.5 39.5l34 -9q-14 -52 -33.5 -72.5t-50.5 -20.5z" />
    <glyph glyph-name="ograve" unicode="&#xf2;" horiz-adv-x="640" 
d="M319 -12q-112 0 -186.5 78t-74.5 187v2q0 109 75.5 188t187.5 79t186.5 -78t74.5 -187v-2q0 -109 -75.5 -188t-187.5 -79zM321 34q90 0 149 64t59 155v2q0 92 -61 156.5t-149 64.5q-90 0 -149 -64t-59 -155v-2q0 -92 61 -156.5t149 -64.5zM299 595l-107 103l61 30
l88 -133h-42z" />
    <glyph glyph-name="oacute" unicode="&#xf3;" horiz-adv-x="640" 
d="M319 -12q-112 0 -186.5 78t-74.5 187v2q0 109 75.5 188t187.5 79t186.5 -78t74.5 -187v-2q0 -109 -75.5 -188t-187.5 -79zM321 34q90 0 149 64t59 155v2q0 92 -61 156.5t-149 64.5q-90 0 -149 -64t-59 -155v-2q0 -92 61 -156.5t149 -64.5zM299 595l88 133l61 -30
l-107 -103h-42z" />
    <glyph glyph-name="ocircumflex" unicode="&#xf4;" horiz-adv-x="640" 
d="M319 -12q-112 0 -186.5 78t-74.5 187v2q0 109 75.5 188t187.5 79t186.5 -78t74.5 -187v-2q0 -109 -75.5 -188t-187.5 -79zM321 34q90 0 149 64t59 155v2q0 92 -61 156.5t-149 64.5q-90 0 -149 -64t-59 -155v-2q0 -92 61 -156.5t149 -64.5zM200 595l100 122h40l100 -122
h-47l-74 68l-74 -68h-45z" />
    <glyph glyph-name="otilde" unicode="&#xf5;" horiz-adv-x="640" 
d="M319 -12q-112 0 -186.5 78t-74.5 187v2q0 109 75.5 188t187.5 79t186.5 -78t74.5 -187v-2q0 -109 -75.5 -188t-187.5 -79zM321 34q90 0 149 64t59 155v2q0 92 -61 156.5t-149 64.5q-90 0 -149 -64t-59 -155v-2q0 -92 61 -156.5t149 -64.5zM387 595q-20 0 -65 20
q-46 21 -63 21q-18 0 -28.5 -10.5t-21.5 -39.5l-34 9q14 52 33.5 72.5t50.5 20.5q20 0 65 -20q46 -21 63 -21q18 0 28.5 10.5t21.5 39.5l34 -9q-14 -52 -33.5 -72.5t-50.5 -20.5z" />
    <glyph glyph-name="odieresis" unicode="&#xf6;" horiz-adv-x="640" 
d="M319 -12q-112 0 -186.5 78t-74.5 187v2q0 109 75.5 188t187.5 79t186.5 -78t74.5 -187v-2q0 -109 -75.5 -188t-187.5 -79zM321 34q90 0 149 64t59 155v2q0 92 -61 156.5t-149 64.5q-90 0 -149 -64t-59 -155v-2q0 -92 61 -156.5t149 -64.5zM367 595v80h69v-80h-69z
M204 595v80h69v-80h-69z" />
    <glyph glyph-name="divide" unicode="&#xf7;" horiz-adv-x="620" 
d="M270 500v89h80v-89h-80zM552 328h-484v48h484v-48zM270 115v89h80v-89h-80z" />
    <glyph glyph-name="oslash" unicode="&#xf8;" horiz-adv-x="640" 
d="M540 517h57l-80 -84q65 -75 65 -176v-2q0 -109 -75.5 -188t-187.5 -79q-96 0 -167 60l-52 -53h-57l79 82q-64 77 -64 176v2q0 109 75.5 188t187.5 79q96 0 167 -61zM321 33q90 0 149.5 64t59.5 156q0 84 -49 144l-297 -312q57 -52 137 -52zM110 257q0 -83 47 -144
l299 311q-58 53 -137 53q-90 0 -149.5 -64t-59.5 -156z" />
    <glyph glyph-name="ugrave" unicode="&#xf9;" horiz-adv-x="613" 
d="M287 -12q-95 0 -149.5 58.5t-54.5 151.5v312h49v-303q0 -80 43 -127t119 -47t126.5 51.5t50.5 130.5v295h49v-510h-49v95q-61 -107 -184 -107zM280 595l-107 103l61 30l88 -133h-42z" />
    <glyph glyph-name="uacute" unicode="&#xfa;" horiz-adv-x="613" 
d="M287 -12q-95 0 -149.5 58.5t-54.5 151.5v312h49v-303q0 -80 43 -127t119 -47t126.5 51.5t50.5 130.5v295h49v-510h-49v95q-61 -107 -184 -107zM280 595l88 133l61 -30l-107 -103h-42z" />
    <glyph glyph-name="ucircumflex" unicode="&#xfb;" horiz-adv-x="613" 
d="M287 -12q-95 0 -149.5 58.5t-54.5 151.5v312h49v-303q0 -80 43 -127t119 -47t126.5 51.5t50.5 130.5v295h49v-510h-49v95q-61 -107 -184 -107zM181 595l100 122h40l100 -122h-47l-74 68l-74 -68h-45z" />
    <glyph glyph-name="udieresis" unicode="&#xfc;" horiz-adv-x="613" 
d="M287 -12q-95 0 -149.5 58.5t-54.5 151.5v312h49v-303q0 -80 43 -127t119 -47t126.5 51.5t50.5 130.5v295h49v-510h-49v95q-61 -107 -184 -107zM348 595v80h69v-80h-69zM185 595v80h69v-80h-69z" />
    <glyph glyph-name="yacute" unicode="&#xfd;" horiz-adv-x="588" 
d="M308 54l184 456h54l-221 -528q-33 -78 -73.5 -111.5t-96.5 -33.5q-51 0 -101 22l17 43q39 -19 87 -19q40 0 69 27t57 93l-245 507h57zM277 595l88 133l61 -30l-107 -103h-42z" />
    <glyph glyph-name="thorn" unicode="&#xfe;" horiz-adv-x="660" 
d="M93 -160v890h49v-334q83 126 210 126q98 0 173 -73t75 -192v-2q0 -119 -75 -193t-173 -74q-130 0 -210 122v-270h-49zM347 35q86 0 143 59t57 159v2q0 98 -58.5 159t-141.5 61t-145.5 -62.5t-62.5 -156.5v-2q0 -95 62.5 -157t145.5 -62z" />
    <glyph glyph-name="ydieresis" unicode="&#xff;" horiz-adv-x="588" 
d="M308 54l184 456h54l-221 -528q-33 -78 -73.5 -111.5t-96.5 -33.5q-51 0 -101 22l17 43q39 -19 87 -19q40 0 69 27t57 93l-245 507h57zM345 595v80h69v-80h-69zM182 595v80h69v-80h-69z" />
    <glyph glyph-name="Amacron" unicode="&#x100;" horiz-adv-x="790" 
d="M44 0l326 705h50l326 -705h-57l-89 196h-413l-89 -196h-54zM209 243h369l-184 405zM240 801v49h310v-49h-310z" />
    <glyph glyph-name="amacron" unicode="&#x101;" horiz-adv-x="574" 
d="M248 -12q-78 0 -137.5 42.5t-59.5 117.5v2q0 78 61 122t162 44q86 0 169 -22v22q0 76 -44 116t-124 40t-160 -41l-18 43q95 44 181 44q105 0 161 -56q52 -52 52 -144v-318h-48v85q-69 -97 -195 -97zM251 34q80 0 136.5 44.5t56.5 112.5v58q-90 23 -173 23
q-80 0 -124 -32.5t-44 -86.5v-2q0 -53 43.5 -85t104.5 -32zM140 621v47h294v-47h-294z" />
    <glyph glyph-name="Abreve" unicode="&#x102;" horiz-adv-x="790" 
d="M44 0l326 705h50l326 -705h-57l-89 196h-413l-89 -196h-54zM209 243h369l-184 405zM395 773q-56 0 -92.5 26.5t-40.5 73.5h44q18 -52 89 -52t89 52h44q-4 -47 -40.5 -73.5t-92.5 -26.5z" />
    <glyph glyph-name="abreve" unicode="&#x103;" horiz-adv-x="574" 
d="M248 -12q-78 0 -137.5 42.5t-59.5 117.5v2q0 78 61 122t162 44q86 0 169 -22v22q0 76 -44 116t-124 40t-160 -41l-18 43q95 44 181 44q105 0 161 -56q52 -52 52 -144v-318h-48v85q-69 -97 -195 -97zM251 34q80 0 136.5 44.5t56.5 112.5v58q-90 23 -173 23
q-80 0 -124 -32.5t-44 -86.5v-2q0 -53 43.5 -85t104.5 -32zM287 593q-56 0 -92.5 30t-40.5 82h39q21 -64 94 -64t94 64h39q-4 -52 -40.5 -82t-92.5 -30z" />
    <glyph glyph-name="Aogonek" unicode="&#x104;" horiz-adv-x="790" 
d="M755 -128v-36q-61 2 -93.5 23t-32.5 56q0 44 57 90l-86 191h-413l-89 -196h-54l326 705h50l326 -705h-11q-31 -24 -43.5 -41.5t-12.5 -37.5q0 -42 76 -49zM209 243h369l-184 405z" />
    <glyph glyph-name="aogonek" unicode="&#x105;" horiz-adv-x="574" 
d="M507 -128v-36q-61 2 -93.5 23t-32.5 56q0 46 62 94v76q-69 -97 -195 -97q-78 0 -137.5 42.5t-59.5 117.5v2q0 78 61 122t162 44q86 0 169 -22v22q0 76 -44 116t-124 40t-160 -41l-18 43q95 44 181 44q105 0 161 -56q52 -52 52 -144v-318h-4q-31 -24 -43.5 -41.5
t-12.5 -37.5q0 -42 76 -49zM251 34q80 0 136.5 44.5t56.5 112.5v58q-90 23 -173 23q-80 0 -124 -32.5t-44 -86.5v-2q0 -53 43.5 -85t104.5 -32z" />
    <glyph glyph-name="Cacute" unicode="&#x106;" horiz-adv-x="743" 
d="M421 -12q-149 0 -248.5 104t-99.5 256v2q0 150 100 256t250 106q87 0 149.5 -28.5t122.5 -83.5l-37 -38q-106 103 -236 103q-126 0 -210.5 -90.5t-84.5 -222.5v-2q0 -133 85.5 -224t210.5 -91q73 0 129 27t112 82l35 -34q-61 -60 -126 -91t-152 -31zM397 775l93 118
l59 -28l-107 -90h-45z" />
    <glyph glyph-name="cacute" unicode="&#x107;" horiz-adv-x="571" 
d="M318 -12q-109 0 -184.5 78.5t-75.5 186.5v2q0 108 76 187.5t184 79.5q114 0 204 -94l-35 -36q-82 84 -170 84q-87 0 -146.5 -63.5t-59.5 -155.5v-2q0 -92 61 -156.5t149 -64.5q95 0 171 85l34 -30q-89 -101 -208 -101zM292 595l88 133l61 -30l-107 -103h-42z" />
    <glyph glyph-name="Cdotaccent" unicode="&#x10a;" horiz-adv-x="743" 
d="M421 -12q-149 0 -248.5 104t-99.5 256v2q0 150 100 256t250 106q87 0 149.5 -28.5t122.5 -83.5l-37 -38q-106 103 -236 103q-126 0 -210.5 -90.5t-84.5 -222.5v-2q0 -133 85.5 -224t210.5 -91q73 0 129 27t112 82l35 -34q-61 -60 -126 -91t-152 -31zM380 775v76h76v-76
h-76z" />
    <glyph glyph-name="cdotaccent" unicode="&#x10b;" horiz-adv-x="571" 
d="M318 -12q-109 0 -184.5 78.5t-75.5 186.5v2q0 108 76 187.5t184 79.5q114 0 204 -94l-35 -36q-82 84 -170 84q-87 0 -146.5 -63.5t-59.5 -155.5v-2q0 -92 61 -156.5t149 -64.5q95 0 171 85l34 -30q-89 -101 -208 -101zM277 595v81h72v-81h-72z" />
    <glyph glyph-name="Ccaron" unicode="&#x10c;" horiz-adv-x="743" 
d="M421 -12q-149 0 -248.5 104t-99.5 256v2q0 150 100 256t250 106q87 0 149.5 -28.5t122.5 -83.5l-37 -38q-106 103 -236 103q-126 0 -210.5 -90.5t-84.5 -222.5v-2q0 -133 85.5 -224t210.5 -91q73 0 129 27t112 82l35 -34q-61 -60 -126 -91t-152 -31zM544 882l-103 -107
h-46l-103 107h54l73 -61l73 61h52z" />
    <glyph glyph-name="ccaron" unicode="&#x10d;" horiz-adv-x="571" 
d="M318 -12q-109 0 -184.5 78.5t-75.5 186.5v2q0 108 76 187.5t184 79.5q114 0 204 -94l-35 -36q-82 84 -170 84q-87 0 -146.5 -63.5t-59.5 -155.5v-2q0 -92 61 -156.5t149 -64.5q95 0 171 85l34 -30q-89 -101 -208 -101zM433 717l-100 -122h-40l-100 122h47l74 -68l74 68
h45z" />
    <glyph glyph-name="Dcaron" unicode="&#x10e;" horiz-adv-x="782" 
d="M104 0v700h233q163 0 267.5 -99.5t104.5 -248.5v-2q0 -150 -104.5 -250t-267.5 -100h-233zM337 652h-181v-604h181q143 0 230.5 86t87.5 214v2q0 128 -87.5 215t-230.5 87zM501 872l-103 -107h-46l-103 107h54l73 -61l73 61h52z" />
    <glyph glyph-name="dcaron" unicode="&#x10f;" horiz-adv-x="660" 
d="M308 -12q-98 0 -173 73t-75 192v2q0 119 75 193t173 74q130 0 210 -122v330h49v-730h-49v114q-83 -126 -210 -126zM313 35q83 0 145.5 62.5t62.5 156.5v2q0 95 -62.5 157t-145.5 62q-86 0 -143 -59t-57 -159v-2q0 -98 58.5 -159t141.5 -61zM637 581l17 149h61v-3
l-49 -146h-29z" />
    <glyph glyph-name="Dcroat" unicode="&#x110;" horiz-adv-x="812" 
d="M59 328v48h75v324h233q163 0 267.5 -99.5t104.5 -248.5v-2q0 -150 -104.5 -250t-267.5 -100h-233v328h-75zM685 348v2q0 128 -87.5 215t-230.5 87h-181v-276h232v-48h-232v-280h181q143 0 230.5 86t87.5 214z" />
    <glyph glyph-name="dcroat" unicode="&#x111;" horiz-adv-x="660" 
d="M333 618v45h185v67h49v-67h70v-45h-70v-618h-49v114q-83 -126 -210 -126q-98 0 -173 73t-75 192v2q0 119 75 193t173 74q130 0 210 -122v218h-185zM313 35q83 0 145.5 62.5t62.5 156.5v2q0 95 -62.5 157t-145.5 62q-86 0 -143 -59t-57 -159v-2q0 -98 58.5 -159t141.5 -61
z" />
    <glyph glyph-name="Emacron" unicode="&#x112;" horiz-adv-x="670" 
d="M104 0v700h498v-48h-446v-275h401v-48h-401v-281h451v-48h-503zM200 791v49h310v-49h-310z" />
    <glyph glyph-name="emacron" unicode="&#x113;" horiz-adv-x="584" 
d="M308 -12q-103 0 -176.5 75t-73.5 191v2q0 112 69.5 189t172.5 77q105 0 169.5 -76t64.5 -191q0 -12 -1 -20h-423q7 -92 64.5 -146.5t135.5 -54.5q100 0 175 80l34 -30q-89 -96 -211 -96zM110 279h371q-6 84 -53 141t-130 57q-75 0 -128 -56.5t-60 -141.5zM153 621v47h294
v-47h-294z" />
    <glyph glyph-name="Ebreve" unicode="&#x114;" horiz-adv-x="670" 
d="M104 0v700h498v-48h-446v-275h401v-48h-401v-281h451v-48h-503zM355 763q-56 0 -92.5 26.5t-40.5 73.5h44q18 -52 89 -52t89 52h44q-4 -47 -40.5 -73.5t-92.5 -26.5z" />
    <glyph glyph-name="ebreve" unicode="&#x115;" horiz-adv-x="584" 
d="M308 -12q-103 0 -176.5 75t-73.5 191v2q0 112 69.5 189t172.5 77q105 0 169.5 -76t64.5 -191q0 -12 -1 -20h-423q7 -92 64.5 -146.5t135.5 -54.5q100 0 175 80l34 -30q-89 -96 -211 -96zM110 279h371q-6 84 -53 141t-130 57q-75 0 -128 -56.5t-60 -141.5zM300 593
q-56 0 -92.5 30t-40.5 82h39q21 -64 94 -64t94 64h39q-4 -52 -40.5 -82t-92.5 -30z" />
    <glyph glyph-name="Edotaccent" unicode="&#x116;" horiz-adv-x="670" 
d="M104 0v700h498v-48h-446v-275h401v-48h-401v-281h451v-48h-503zM317 765v76h76v-76h-76z" />
    <glyph glyph-name="edotaccent" unicode="&#x117;" horiz-adv-x="584" 
d="M308 -12q-103 0 -176.5 75t-73.5 191v2q0 112 69.5 189t172.5 77q105 0 169.5 -76t64.5 -191q0 -12 -1 -20h-423q7 -92 64.5 -146.5t135.5 -54.5q100 0 175 80l34 -30q-89 -96 -211 -96zM110 279h371q-6 84 -53 141t-130 57q-75 0 -128 -56.5t-60 -141.5zM264 595v81h72
v-81h-72z" />
    <glyph glyph-name="Eogonek" unicode="&#x118;" horiz-adv-x="670" 
d="M104 0v700h498v-48h-446v-275h401v-48h-401v-281h451v-48h-21q-31 -24 -43.5 -41.5t-12.5 -37.5q0 -42 76 -49v-36q-61 2 -93.5 23t-32.5 56q0 42 51 85h-427z" />
    <glyph glyph-name="eogonek" unicode="&#x119;" horiz-adv-x="584" 
d="M485 114l34 -30q-22 -23 -51 -47q-45 -38 -61.5 -62t-16.5 -48q0 -25 17.5 -38t59.5 -17v-36q-126 5 -126 84q0 38 38 76q-35 -8 -71 -8q-103 0 -176.5 75t-73.5 191v2q0 112 69.5 189t172.5 77q105 0 169.5 -76t64.5 -191q0 -12 -1 -20h-423q7 -92 64.5 -146.5
t135.5 -54.5q100 0 175 80zM110 279h371q-6 84 -53 141t-130 57q-75 0 -128 -56.5t-60 -141.5z" />
    <glyph glyph-name="Ecaron" unicode="&#x11a;" horiz-adv-x="670" 
d="M104 0v700h498v-48h-446v-275h401v-48h-401v-281h451v-48h-503zM481 872l-103 -107h-46l-103 107h54l73 -61l73 61h52z" />
    <glyph glyph-name="ecaron" unicode="&#x11b;" horiz-adv-x="584" 
d="M308 -12q-103 0 -176.5 75t-73.5 191v2q0 112 69.5 189t172.5 77q105 0 169.5 -76t64.5 -191q0 -12 -1 -20h-423q7 -92 64.5 -146.5t135.5 -54.5q100 0 175 80l34 -30q-89 -96 -211 -96zM110 279h371q-6 84 -53 141t-130 57q-75 0 -128 -56.5t-60 -141.5zM420 717
l-100 -122h-40l-100 122h47l74 -68l74 68h45z" />
    <glyph glyph-name="Gbreve" unicode="&#x11e;" horiz-adv-x="784" 
d="M425 -12q-161 0 -256.5 103.5t-95.5 256.5v2q0 147 97 254.5t249 107.5q81 0 140.5 -23t115.5 -69l-34 -39q-96 84 -225 84q-125 0 -207 -92t-82 -221v-2q0 -139 81 -227.5t219 -88.5q63 0 122.5 22.5t100.5 57.5v201h-234v48h284v-270q-52 -46 -123.5 -75.5
t-151.5 -29.5zM412 773q-56 0 -92.5 26.5t-40.5 73.5h44q18 -52 89 -52t89 52h44q-4 -47 -40.5 -73.5t-92.5 -26.5z" />
    <glyph glyph-name="gbreve" unicode="&#x11f;" horiz-adv-x="660" 
d="M317 -162q-129 0 -234 78l29 40q93 -72 206 -72q91 0 145.5 51t54.5 147v74q-82 -118 -213 -118q-97 0 -171 67.5t-74 172.5v2q0 106 74 174t171 68q133 0 213 -114v102h49v-431q0 -108 -65 -173q-68 -68 -185 -68zM310 85q83 0 147 55t64 139v2q0 85 -63.5 139.5
t-147.5 54.5q-83 0 -140 -53t-57 -140v-2q0 -84 58 -139.5t139 -55.5zM332 593q-56 0 -92.5 30t-40.5 82h39q21 -64 94 -64t94 64h39q-4 -52 -40.5 -82t-92.5 -30z" />
    <glyph glyph-name="Gdotaccent" unicode="&#x120;" horiz-adv-x="784" 
d="M425 -12q-161 0 -256.5 103.5t-95.5 256.5v2q0 147 97 254.5t249 107.5q81 0 140.5 -23t115.5 -69l-34 -39q-96 84 -225 84q-125 0 -207 -92t-82 -221v-2q0 -139 81 -227.5t219 -88.5q63 0 122.5 22.5t100.5 57.5v201h-234v48h284v-270q-52 -46 -123.5 -75.5
t-151.5 -29.5zM374 775v76h76v-76h-76z" />
    <glyph glyph-name="gdotaccent" unicode="&#x121;" horiz-adv-x="660" 
d="M317 -162q-129 0 -234 78l29 40q93 -72 206 -72q91 0 145.5 51t54.5 147v74q-82 -118 -213 -118q-97 0 -171 67.5t-74 172.5v2q0 106 74 174t171 68q133 0 213 -114v102h49v-431q0 -108 -65 -173q-68 -68 -185 -68zM310 85q83 0 147 55t64 139v2q0 85 -63.5 139.5
t-147.5 54.5q-83 0 -140 -53t-57 -140v-2q0 -84 58 -139.5t139 -55.5zM296 595v81h72v-81h-72z" />
    <glyph glyph-name="Gcommaaccent" unicode="&#x122;" horiz-adv-x="784" 
d="M425 -12q-161 0 -256.5 103.5t-95.5 256.5v2q0 147 97 254.5t249 107.5q81 0 140.5 -23t115.5 -69l-34 -39q-96 84 -225 84q-125 0 -207 -92t-82 -221v-2q0 -139 81 -227.5t219 -88.5q63 0 122.5 22.5t100.5 57.5v201h-234v48h284v-270q-52 -46 -123.5 -75.5
t-151.5 -29.5zM357 -225l-6 24q31 7 44 20t11 36h-31v71h72v-62q0 -76 -90 -89z" />
    <glyph glyph-name="gcommaaccent" unicode="&#x123;" horiz-adv-x="660" 
d="M317 -162q-129 0 -234 78l29 40q93 -72 206 -72q91 0 145.5 51t54.5 147v74q-82 -118 -213 -118q-97 0 -171 67.5t-74 172.5v2q0 106 74 174t171 68q133 0 213 -114v102h49v-431q0 -108 -65 -173q-68 -68 -185 -68zM310 85q83 0 147 55t64 139v2q0 85 -63.5 139.5
t-147.5 54.5q-83 0 -140 -53t-57 -140v-2q0 -84 58 -139.5t139 -55.5zM386 746l6 -24q-31 -7 -44 -20t-11 -36h31v-71h-72v62q0 76 90 89z" />
    <glyph glyph-name="Hbar" unicode="&#x126;" horiz-adv-x="820" 
d="M59 509v45h75v146h52v-146h448v146h52v-146h75v-45h-75v-509h-52v323h-448v-323h-52v509h-75zM186 371h448v138h-448v-138z" />
    <glyph glyph-name="hbar" unicode="&#x127;" horiz-adv-x="613" 
d="M327 618h-185v-203q61 107 184 107q95 0 149.5 -58.5t54.5 -151.5v-312h-49v303q0 80 -43 127t-119 47t-126.5 -51.5t-50.5 -130.5v-295h-49v618h-70v45h70v67h49v-67h185v-45z" />
    <glyph glyph-name="Imacron" unicode="&#x12a;" horiz-adv-x="274" 
d="M111 0v700h52v-700h-52zM-18 791v49h310v-49h-310z" />
    <glyph glyph-name="imacron" unicode="&#x12b;" horiz-adv-x="249" 
d="M100 0v510h49v-510h-49zM-23 621v47h294v-47h-294z" />
    <glyph glyph-name="Ibreve" unicode="&#x12c;" horiz-adv-x="274" 
d="M111 0v700h52v-700h-52zM137 763q-56 0 -92.5 26.5t-40.5 73.5h44q18 -52 89 -52t89 52h44q-4 -47 -40.5 -73.5t-92.5 -26.5z" />
    <glyph glyph-name="ibreve" unicode="&#x12d;" horiz-adv-x="249" 
d="M100 0v510h49v-510h-49zM124 593q-56 0 -92.5 30t-40.5 82h39q21 -64 94 -64t94 64h39q-4 -52 -40.5 -82t-92.5 -30z" />
    <glyph glyph-name="Iogonek" unicode="&#x12e;" horiz-adv-x="274" 
d="M179 -128v-36q-61 2 -93.5 23t-32.5 56q0 45 58 91v694h52v-700h-4q-31 -24 -43.5 -41.5t-12.5 -37.5q0 -42 76 -49z" />
    <glyph glyph-name="iogonek" unicode="&#x12f;" horiz-adv-x="249" 
d="M166 -128v-36q-61 2 -93.5 23t-32.5 56q0 45 60 93v502h49v-510h-3q-31 -24 -43.5 -41.5t-12.5 -37.5q0 -42 76 -49zM94 643v67h61v-67h-61z" />
    <glyph glyph-name="Idotaccent" unicode="&#x130;" horiz-adv-x="274" 
d="M111 0v700h52v-700h-52zM99 765v76h76v-76h-76z" />
    <glyph glyph-name="dotlessi" unicode="&#x131;" horiz-adv-x="249" 
d="M100 0v510h49v-510h-49z" />
    <glyph glyph-name="Kcommaaccent" unicode="&#x136;" horiz-adv-x="715" 
d="M104 0v700h52v-460l446 460h71l-306 -309l319 -391h-68l-288 354l-174 -176v-178h-52zM307 -220l-6 24q31 7 44 20t11 36h-31v71h72v-62q0 -76 -90 -89z" />
    <glyph glyph-name="kcommaaccent" unicode="&#x137;" horiz-adv-x="560" 
d="M93 0v730h49v-547l316 327h65l-223 -226l230 -284h-62l-202 249l-124 -125v-124h-49zM242 -225l-6 24q31 7 44 20t11 36h-31v71h72v-62q0 -76 -90 -89z" />
    <glyph glyph-name="Lacute" unicode="&#x139;" horiz-adv-x="614" 
d="M104 0v700h52v-652h411v-48h-463zM117 765l93 118l59 -28l-107 -90h-45z" />
    <glyph glyph-name="lacute" unicode="&#x13a;" horiz-adv-x="249" 
d="M100 0v730h49v-730h-49zM103 788l93 118l59 -28l-107 -90h-45z" />
    <glyph glyph-name="Lcommaaccent" unicode="&#x13b;" horiz-adv-x="614" 
d="M104 0v700h52v-652h411v-48h-463zM276 -225l-6 24q31 7 44 20t11 36h-31v71h72v-62q0 -76 -90 -89z" />
    <glyph glyph-name="lcommaaccent" unicode="&#x13c;" horiz-adv-x="249" 
d="M100 0v730h49v-730h-49zM69 -225l-6 24q31 7 44 20t11 36h-31v71h72v-62q0 -76 -90 -89z" />
    <glyph glyph-name="Lcaron" unicode="&#x13d;" horiz-adv-x="614" 
d="M104 0v700h52v-652h411v-48h-463zM257 551l17 149h61v-3l-49 -146h-29z" />
    <glyph glyph-name="lcaron" unicode="&#x13e;" horiz-adv-x="249" 
d="M100 0v730h49v-730h-49zM219 581l17 149h61v-3l-49 -146h-29z" />
    <glyph glyph-name="Ldot" unicode="&#x13f;" horiz-adv-x="614" 
d="M418 322v81h72v-81h-72zM104 0v700h52v-652h411v-48h-463z" />
    <glyph glyph-name="ldot" unicode="&#x140;" horiz-adv-x="309" 
d="M244 325v81h72v-81h-72zM100 0v730h49v-730h-49z" />
    <glyph glyph-name="Lslash" unicode="&#x141;" horiz-adv-x="644" 
d="M374 410l-189 -90v-272h412v-48h-463v295l-75 -35v53l75 35v352h51v-327l189 90v-53z" />
    <glyph glyph-name="lslash" unicode="&#x142;" horiz-adv-x="309" 
d="M255 397l-76 -43v-354h-49v327l-76 -42v53l76 42v350h49v-323l76 43v-53z" />
    <glyph glyph-name="Nacute" unicode="&#x143;" horiz-adv-x="790" 
d="M104 0v700h49l483 -609v609h50v-700h-39l-493 622v-622h-50zM374 760l93 118l59 -28l-107 -90h-45z" />
    <glyph glyph-name="nacute" unicode="&#x144;" horiz-adv-x="613" 
d="M93 0v510h49v-95q61 107 184 107q95 0 149.5 -58.5t54.5 -151.5v-312h-49v303q0 80 -43 127t-119 47t-126.5 -51.5t-50.5 -130.5v-295h-49zM290 595l88 133l61 -30l-107 -103h-42z" />
    <glyph glyph-name="Ncommaaccent" unicode="&#x145;" horiz-adv-x="790" 
d="M104 0v700h49l483 -609v609h50v-700h-39l-493 622v-622h-50zM340 -220l-6 24q31 7 44 20t11 36h-31v71h72v-62q0 -76 -90 -89z" />
    <glyph glyph-name="ncommaaccent" unicode="&#x146;" horiz-adv-x="613" 
d="M93 0v510h49v-95q61 107 184 107q95 0 149.5 -58.5t54.5 -151.5v-312h-49v303q0 80 -43 127t-119 47t-126.5 -51.5t-50.5 -130.5v-295h-49zM256 -225l-6 24q31 7 44 20t11 36h-31v71h72v-62q0 -76 -90 -89z" />
    <glyph glyph-name="Ncaron" unicode="&#x147;" horiz-adv-x="790" 
d="M104 0v700h49l483 -609v609h50v-700h-39l-493 622v-622h-50zM521 867l-103 -107h-46l-103 107h54l73 -61l73 61h52z" />
    <glyph glyph-name="ncaron" unicode="&#x148;" horiz-adv-x="613" 
d="M93 0v510h49v-95q61 107 184 107q95 0 149.5 -58.5t54.5 -151.5v-312h-49v303q0 80 -43 127t-119 47t-126.5 -51.5t-50.5 -130.5v-295h-49zM431 717l-100 -122h-40l-100 122h47l74 -68l74 68h45z" />
    <glyph glyph-name="Omacron" unicode="&#x14c;" horiz-adv-x="850" 
d="M424 -12q-155 0 -253 106t-98 254v2q0 148 99 255t254 107t253 -106t98 -254v-2q0 -148 -99 -255t-254 -107zM426 35q128 0 212.5 91t84.5 222v2q0 131 -85.5 223t-213.5 92t-212.5 -91t-84.5 -222v-2q0 -131 85.5 -223t213.5 -92zM270 801v49h310v-49h-310z" />
    <glyph glyph-name="omacron" unicode="&#x14d;" horiz-adv-x="640" 
d="M319 -12q-112 0 -186.5 78t-74.5 187v2q0 109 75.5 188t187.5 79t186.5 -78t74.5 -187v-2q0 -109 -75.5 -188t-187.5 -79zM321 34q90 0 149 64t59 155v2q0 92 -61 156.5t-149 64.5q-90 0 -149 -64t-59 -155v-2q0 -92 61 -156.5t149 -64.5zM173 621v47h294v-47h-294z" />
    <glyph glyph-name="Obreve" unicode="&#x14e;" horiz-adv-x="850" 
d="M424 -12q-155 0 -253 106t-98 254v2q0 148 99 255t254 107t253 -106t98 -254v-2q0 -148 -99 -255t-254 -107zM426 35q128 0 212.5 91t84.5 222v2q0 131 -85.5 223t-213.5 92t-212.5 -91t-84.5 -222v-2q0 -131 85.5 -223t213.5 -92zM425 773q-56 0 -92.5 26.5t-40.5 73.5
h44q18 -52 89 -52t89 52h44q-4 -47 -40.5 -73.5t-92.5 -26.5z" />
    <glyph glyph-name="obreve" unicode="&#x14f;" horiz-adv-x="640" 
d="M319 -12q-112 0 -186.5 78t-74.5 187v2q0 109 75.5 188t187.5 79t186.5 -78t74.5 -187v-2q0 -109 -75.5 -188t-187.5 -79zM321 34q90 0 149 64t59 155v2q0 92 -61 156.5t-149 64.5q-90 0 -149 -64t-59 -155v-2q0 -92 61 -156.5t149 -64.5zM320 593q-56 0 -92.5 30
t-40.5 82h39q21 -64 94 -64t94 64h39q-4 -52 -40.5 -82t-92.5 -30z" />
    <glyph glyph-name="Ohungarumlaut" unicode="&#x150;" horiz-adv-x="850" 
d="M424 -12q-155 0 -253 106t-98 254v2q0 148 99 255t254 107t253 -106t98 -254v-2q0 -148 -99 -255t-254 -107zM426 35q128 0 212.5 91t84.5 222v2q0 131 -85.5 223t-213.5 92t-212.5 -91t-84.5 -222v-2q0 -131 85.5 -223t213.5 -92zM324 775l93 118l59 -28l-107 -90h-45z
M464 775l93 118l59 -28l-107 -90h-45z" />
    <glyph glyph-name="ohungarumlaut" unicode="&#x151;" horiz-adv-x="640" 
d="M319 -12q-112 0 -186.5 78t-74.5 187v2q0 109 75.5 188t187.5 79t186.5 -78t74.5 -187v-2q0 -109 -75.5 -188t-187.5 -79zM321 34q90 0 149 64t59 155v2q0 92 -61 156.5t-149 64.5q-90 0 -149 -64t-59 -155v-2q0 -92 61 -156.5t149 -64.5zM359 595l89 133l55 -29
l-101 -104h-43zM223 595l89 133l55 -29l-101 -104h-43z" />
    <glyph glyph-name="OE" unicode="&#x152;" horiz-adv-x="1152" 
d="M445 0q-163 0 -267.5 99.5t-104.5 248.5v2q0 150 104.5 250t267.5 100h639v-48h-431v-275h386v-48h-386v-281h436v-48h-644zM445 48h156v604h-156q-143 0 -230.5 -86t-87.5 -214v-2q0 -128 87.5 -215t230.5 -87z" />
    <glyph glyph-name="oe" unicode="&#x153;" horiz-adv-x="1055" 
d="M318 -12q-110 0 -185 78t-75 187v2q0 109 75.5 188t186.5 79q79 0 141.5 -43t92.5 -113q28 71 86 113.5t132 42.5q105 0 169 -76t64 -191q0 -12 -1 -20h-423q7 -92 64.5 -146.5t135.5 -54.5q100 0 175 80l34 -30q-89 -96 -209 -96q-75 0 -136.5 42.5t-90.5 114.5
q-30 -70 -93 -113.5t-143 -43.5zM581 279h371q-6 84 -53 141t-130 57q-75 0 -128 -56.5t-60 -141.5zM321 34q90 0 149 64t59 155v2q0 92 -61 156.5t-149 64.5q-90 0 -149 -64t-59 -155v-2q0 -92 61 -156.5t149 -64.5z" />
    <glyph glyph-name="Racute" unicode="&#x154;" horiz-adv-x="723" 
d="M104 0v700h294q128 0 197 -69q53 -53 53 -130v-2q0 -85 -56 -136t-149 -64l231 -299h-66l-223 290h-229v-290h-52zM156 337h236q90 0 147 43t57 117v2q0 71 -53 112t-148 41h-239v-315zM330 765l93 118l59 -28l-107 -90h-45z" />
    <glyph glyph-name="racute" unicode="&#x155;" 
d="M93 0v510h49v-145q31 70 91.5 113t134.5 40v-54h-5q-93 0 -157 -68t-64 -187v-209h-49zM190 595l88 133l61 -30l-107 -103h-42z" />
    <glyph glyph-name="Rcommaaccent" unicode="&#x156;" horiz-adv-x="723" 
d="M104 0v700h294q128 0 197 -69q53 -53 53 -130v-2q0 -85 -56 -136t-149 -64l231 -299h-66l-223 290h-229v-290h-52zM156 337h236q90 0 147 43t57 117v2q0 71 -53 112t-148 41h-239v-315zM296 -220l-6 24q31 7 44 20t11 36h-31v71h72v-62q0 -76 -90 -89z" />
    <glyph glyph-name="rcommaaccent" unicode="&#x157;" 
d="M93 0v510h49v-145q31 70 91.5 113t134.5 40v-54h-5q-93 0 -157 -68t-64 -187v-209h-49zM71 -225l-6 24q31 7 44 20t11 36h-31v71h72v-62q0 -76 -90 -89z" />
    <glyph glyph-name="Rcaron" unicode="&#x158;" horiz-adv-x="723" 
d="M104 0v700h294q128 0 197 -69q53 -53 53 -130v-2q0 -85 -56 -136t-149 -64l231 -299h-66l-223 290h-229v-290h-52zM156 337h236q90 0 147 43t57 117v2q0 71 -53 112t-148 41h-239v-315zM477 872l-103 -107h-46l-103 107h54l73 -61l73 61h52z" />
    <glyph glyph-name="rcaron" unicode="&#x159;" 
d="M93 0v510h49v-145q31 70 91.5 113t134.5 40v-54h-5q-93 0 -157 -68t-64 -187v-209h-49zM331 717l-100 -122h-40l-100 122h47l74 -68l74 68h45z" />
    <glyph glyph-name="Sacute" unicode="&#x15a;" horiz-adv-x="640" 
d="M341 -10q-157 0 -282 112l34 39q59 -55 117 -79.5t134 -24.5q78 0 127.5 39.5t49.5 99.5v2q0 58 -41.5 92t-156.5 57q-126 25 -181 71t-55 126v2q0 78 64 131t161 53q74 0 129.5 -20.5t110.5 -64.5l-33 -41q-91 79 -209 79q-76 0 -123.5 -38t-47.5 -94v-2q0 -59 42.5 -94
t161.5 -59q121 -25 175.5 -70.5t54.5 -122.5v-2q0 -84 -65 -137.5t-167 -53.5zM307 775l93 118l59 -28l-107 -90h-45z" />
    <glyph glyph-name="sacute" unicode="&#x15b;" horiz-adv-x="497" 
d="M258 -10q-55 0 -111.5 20.5t-97.5 53.5l29 39q87 -67 183 -67q53 0 88 27t35 70v2q0 41 -34.5 62t-100.5 40q-35 10 -51 15t-45 18t-42.5 25.5t-25 34t-11.5 47.5v2q0 62 47 101.5t121 39.5q97 0 181 -56l-26 -41q-77 51 -157 51q-52 0 -84 -25t-32 -64v-2q0 -16 8.5 -30
t20 -23t33 -18.5t37 -14.5t43.5 -13q38 -11 62 -20t51.5 -25.5t41 -41t13.5 -56.5v-2q0 -67 -50.5 -108t-125.5 -41zM231 595l88 133l61 -30l-107 -103h-42z" />
    <glyph glyph-name="Scedilla" unicode="&#x15e;" horiz-adv-x="640" 
d="M288 -148l-55 26l77 113q-138 10 -251 111l34 39q59 -55 117 -79.5t134 -24.5q78 0 127.5 39.5t49.5 99.5v2q0 58 -41.5 92t-156.5 57q-126 25 -181 71t-55 126v2q0 78 64 131t161 53q74 0 129.5 -20.5t110.5 -64.5l-33 -41q-91 79 -209 79q-76 0 -123.5 -38t-47.5 -94
v-2q0 -59 42.5 -94t161.5 -59q121 -25 175.5 -70.5t54.5 -122.5v-2q0 -81 -60.5 -133t-156.5 -57z" />
    <glyph glyph-name="scedilla" unicode="&#x15f;" horiz-adv-x="497" 
d="M199 -148l-55 26l78 114q-101 13 -173 72l29 39q87 -67 183 -67q53 0 88 27t35 70v2q0 41 -34.5 62t-100.5 40q-35 10 -51 15t-45 18t-42.5 25.5t-25 34t-11.5 47.5v2q0 62 47 101.5t121 39.5q97 0 181 -56l-26 -41q-77 51 -157 51q-52 0 -84 -25t-32 -64v-2
q0 -16 8.5 -30t20 -23t33 -18.5t37 -14.5t43.5 -13q38 -11 62 -20t51.5 -25.5t41 -41t13.5 -56.5v-2q0 -65 -47.5 -105.5t-119.5 -43.5z" />
    <glyph glyph-name="Scaron" unicode="&#x160;" horiz-adv-x="640" 
d="M341 -10q-157 0 -282 112l34 39q59 -55 117 -79.5t134 -24.5q78 0 127.5 39.5t49.5 99.5v2q0 58 -41.5 92t-156.5 57q-126 25 -181 71t-55 126v2q0 78 64 131t161 53q74 0 129.5 -20.5t110.5 -64.5l-33 -41q-91 79 -209 79q-76 0 -123.5 -38t-47.5 -94v-2q0 -59 42.5 -94
t161.5 -59q121 -25 175.5 -70.5t54.5 -122.5v-2q0 -84 -65 -137.5t-167 -53.5zM454 882l-103 -107h-46l-103 107h54l73 -61l73 61h52z" />
    <glyph glyph-name="scaron" unicode="&#x161;" horiz-adv-x="497" 
d="M258 -10q-55 0 -111.5 20.5t-97.5 53.5l29 39q87 -67 183 -67q53 0 88 27t35 70v2q0 41 -34.5 62t-100.5 40q-35 10 -51 15t-45 18t-42.5 25.5t-25 34t-11.5 47.5v2q0 62 47 101.5t121 39.5q97 0 181 -56l-26 -41q-77 51 -157 51q-52 0 -84 -25t-32 -64v-2q0 -16 8.5 -30
t20 -23t33 -18.5t37 -14.5t43.5 -13q38 -11 62 -20t51.5 -25.5t41 -41t13.5 -56.5v-2q0 -67 -50.5 -108t-125.5 -41zM372 717l-100 -122h-40l-100 122h47l74 -68l74 68h45z" />
    <glyph glyph-name="Tcommaaccent" unicode="&#x162;" horiz-adv-x="638" 
d="M293 0v652h-244v48h540v-48h-244v-652h-52zM264 -225l-6 24q31 7 44 20t11 36h-31v71h72v-62q0 -76 -90 -89z" />
    <glyph glyph-name="Tcommaaccent" unicode="&#x21a;" horiz-adv-x="638" 
d="M293 0v652h-244v48h540v-48h-244v-652h-52zM264 -225l-6 24q31 7 44 20t11 36h-31v71h72v-62q0 -76 -90 -89z" />
    <glyph glyph-name="tcommaaccent" unicode="&#x163;" 
d="M263 -9q-63 0 -103 35.5t-40 104.5v334h-74v45h74v163h49v-163h179v-45h-179v-329q0 -99 102 -99q35 0 75 18v-46q-39 -18 -83 -18zM171 -225l-6 24q31 7 44 20t11 36h-31v71h72v-62q0 -76 -90 -89z" />
    <glyph glyph-name="tcommaaccent" unicode="&#x21b;" 
d="M263 -9q-63 0 -103 35.5t-40 104.5v334h-74v45h74v163h49v-163h179v-45h-179v-329q0 -99 102 -99q35 0 75 18v-46q-39 -18 -83 -18zM171 -225l-6 24q31 7 44 20t11 36h-31v71h72v-62q0 -76 -90 -89z" />
    <glyph glyph-name="Tcaron" unicode="&#x164;" horiz-adv-x="638" 
d="M293 0v652h-244v48h540v-48h-244v-652h-52zM445 872l-103 -107h-46l-103 107h54l73 -61l73 61h52z" />
    <glyph glyph-name="tcaron" unicode="&#x165;" 
d="M263 -9q-63 0 -103 35.5t-40 104.5v334h-74v45h74v163h49v-163h179v-45h-179v-329q0 -99 102 -99q35 0 75 18v-46q-39 -18 -83 -18zM262 581l17 149h61v-3l-49 -146h-29z" />
    <glyph glyph-name="Umacron" unicode="&#x16a;" horiz-adv-x="760" 
d="M380 -11q-129 0 -208 79t-79 223v409h52v-404q0 -123 63 -191.5t174 -68.5q109 0 171 65.5t62 189.5v409h52v-403q0 -147 -78 -227.5t-209 -80.5zM225 786v49h310v-49h-310z" />
    <glyph glyph-name="umacron" unicode="&#x16b;" horiz-adv-x="613" 
d="M287 -12q-95 0 -149.5 58.5t-54.5 151.5v312h49v-303q0 -80 43 -127t119 -47t126.5 51.5t50.5 130.5v295h49v-510h-49v95q-61 -107 -184 -107zM154 621v47h294v-47h-294z" />
    <glyph glyph-name="Ubreve" unicode="&#x16c;" horiz-adv-x="760" 
d="M380 -11q-129 0 -208 79t-79 223v409h52v-404q0 -123 63 -191.5t174 -68.5q109 0 171 65.5t62 189.5v409h52v-403q0 -147 -78 -227.5t-209 -80.5zM380 758q-56 0 -92.5 26.5t-40.5 73.5h44q18 -52 89 -52t89 52h44q-4 -47 -40.5 -73.5t-92.5 -26.5z" />
    <glyph glyph-name="ubreve" unicode="&#x16d;" horiz-adv-x="613" 
d="M287 -12q-95 0 -149.5 58.5t-54.5 151.5v312h49v-303q0 -80 43 -127t119 -47t126.5 51.5t50.5 130.5v295h49v-510h-49v95q-61 -107 -184 -107zM301 593q-56 0 -92.5 30t-40.5 82h39q21 -64 94 -64t94 64h39q-4 -52 -40.5 -82t-92.5 -30z" />
    <glyph glyph-name="Uring" unicode="&#x16e;" horiz-adv-x="760" 
d="M380 -11q-129 0 -208 79t-79 223v409h52v-404q0 -123 63 -191.5t174 -68.5q109 0 171 65.5t62 189.5v409h52v-403q0 -147 -78 -227.5t-209 -80.5zM380 748q-44 0 -75 27.5t-31 67.5t31 67.5t75 27.5t75 -27.5t31 -67.5t-31 -67.5t-75 -27.5zM380 780q29 0 48.5 18
t19.5 45t-19.5 45t-48.5 18t-48.5 -18t-19.5 -45t19.5 -45t48.5 -18z" />
    <glyph glyph-name="uring" unicode="&#x16f;" horiz-adv-x="613" 
d="M287 -12q-95 0 -149.5 58.5t-54.5 151.5v312h49v-303q0 -80 43 -127t119 -47t126.5 51.5t50.5 130.5v295h49v-510h-49v95q-61 -107 -184 -107zM301 583q-43 0 -73.5 29.5t-30.5 70.5t30.5 70.5t73.5 29.5t73.5 -29.5t30.5 -70.5t-30.5 -70.5t-73.5 -29.5zM301 613
q29 0 49.5 20.5t20.5 49.5t-20.5 49.5t-49.5 20.5t-49.5 -20.5t-20.5 -49.5t20.5 -49.5t49.5 -20.5z" />
    <glyph glyph-name="Uhungarumlaut" unicode="&#x170;" horiz-adv-x="760" 
d="M380 -11q-129 0 -208 79t-79 223v409h52v-404q0 -123 63 -191.5t174 -68.5q109 0 171 65.5t62 189.5v409h52v-403q0 -147 -78 -227.5t-209 -80.5zM279 760l93 118l59 -28l-107 -90h-45zM419 760l93 118l59 -28l-107 -90h-45z" />
    <glyph glyph-name="uhungarumlaut" unicode="&#x171;" horiz-adv-x="613" 
d="M287 -12q-95 0 -149.5 58.5t-54.5 151.5v312h49v-303q0 -80 43 -127t119 -47t126.5 51.5t50.5 130.5v295h49v-510h-49v95q-61 -107 -184 -107zM340 595l89 133l55 -29l-101 -104h-43zM204 595l89 133l55 -29l-101 -104h-43z" />
    <glyph glyph-name="Uogonek" unicode="&#x172;" horiz-adv-x="760" 
d="M437 -128v-36q-61 2 -93.5 23t-32.5 56q0 38 40 76q-118 8 -188 86t-70 214v409h52v-404q0 -123 63 -191.5t174 -68.5q109 0 171 65.5t62 189.5v409h52v-403q0 -140 -71 -219.5t-191 -87.5q-44 -38 -44 -69q0 -42 76 -49z" />
    <glyph glyph-name="uogonek" unicode="&#x173;" horiz-adv-x="613" 
d="M536 -128v-36q-61 2 -93.5 23t-32.5 56q0 46 61 93v87q-61 -107 -184 -107q-95 0 -149.5 58.5t-54.5 151.5v312h49v-303q0 -80 43 -127t119 -47t126.5 51.5t50.5 130.5v295h49v-510h-4q-31 -24 -43.5 -41.5t-12.5 -37.5q0 -42 76 -49z" />
    <glyph glyph-name="Wcircumflex" unicode="&#x174;" horiz-adv-x="1102" 
d="M304 -5l-254 705h58l220 -623l205 625h40l205 -625l220 623h54l-254 -705h-42l-205 608l-205 -608h-42zM425 765l103 107h46l103 -107h-54l-73 61l-73 -61h-52z" />
    <glyph glyph-name="wcircumflex" unicode="&#x175;" horiz-adv-x="861" 
d="M236 -4l-187 514h55l154 -448l154 450h39l154 -450l154 448h53l-187 -514h-42l-152 437l-153 -437h-42zM310 595l100 122h40l100 -122h-47l-74 68l-74 -68h-45z" />
    <glyph glyph-name="Ycircumflex" unicode="&#x176;" horiz-adv-x="716" 
d="M332 0v277l-300 423h65l262 -376l263 376h62l-300 -422v-278h-52zM232 760l103 107h46l103 -107h-54l-73 61l-73 -61h-52z" />
    <glyph glyph-name="ycircumflex" unicode="&#x177;" horiz-adv-x="588" 
d="M308 54l184 456h54l-221 -528q-33 -78 -73.5 -111.5t-96.5 -33.5q-51 0 -101 22l17 43q39 -19 87 -19q40 0 69 27t57 93l-245 507h57zM178 595l100 122h40l100 -122h-47l-74 68l-74 -68h-45z" />
    <glyph glyph-name="Ydieresis" unicode="&#x178;" horiz-adv-x="716" 
d="M332 0v277l-300 423h65l262 -376l263 376h62l-300 -422v-278h-52zM410 760v76h73v-76h-73zM234 760v76h74v-76h-74z" />
    <glyph glyph-name="Zacute" unicode="&#x179;" horiz-adv-x="688" 
d="M68 0v29l479 624h-462v47h536v-29l-479 -624h479v-47h-553zM332 765l93 118l59 -28l-107 -90h-45z" />
    <glyph glyph-name="zacute" unicode="&#x17a;" horiz-adv-x="554" 
d="M58 0v28l368 438h-354v44h427v-28l-368 -438h368v-44h-441zM261 595l88 133l61 -30l-107 -103h-42z" />
    <glyph glyph-name="Zdotaccent" unicode="&#x17b;" horiz-adv-x="688" 
d="M68 0v29l479 624h-462v47h536v-29l-479 -624h479v-47h-553zM315 765v76h76v-76h-76z" />
    <glyph glyph-name="zdotaccent" unicode="&#x17c;" horiz-adv-x="554" 
d="M58 0v28l368 438h-354v44h427v-28l-368 -438h368v-44h-441zM246 595v81h72v-81h-72z" />
    <glyph glyph-name="Zcaron" unicode="&#x17d;" horiz-adv-x="688" 
d="M68 0v29l479 624h-462v47h536v-29l-479 -624h479v-47h-553zM479 872l-103 -107h-46l-103 107h54l73 -61l73 61h52z" />
    <glyph glyph-name="zcaron" unicode="&#x17e;" horiz-adv-x="554" 
d="M58 0v28l368 438h-354v44h427v-28l-368 -438h368v-44h-441zM402 717l-100 -122h-40l-100 122h47l74 -68l74 68h45z" />
    <glyph glyph-name="uni018F" unicode="&#x18f;" horiz-adv-x="797" 
d="M94 577q121 135 294 135q150 0 243 -101.5t93 -259.5v-3q0 -153 -94.5 -256.5t-236.5 -103.5q-147 0 -234 103t-87 259q0 15 1 26h597q-7 123 -83 206t-199 83q-148 0 -257 -122zM393 36q118 0 193.5 82t83.5 210h-544q5 -131 78.5 -211.5t188.5 -80.5z" />
    <glyph glyph-name="florin" unicode="&#x192;" horiz-adv-x="506" 
d="M90 -5q-23 0 -49 4v44q20 -4 46 -4q67 0 82 82l49 263h-109v45h117l26 136q14 74 48.5 107t94.5 33q41 0 75 -10v-44q-40 10 -70 10q-41 0 -63 -23t-32 -76l-25 -133h155v-45h-163l-50 -266q-12 -63 -44 -93t-88 -30z" />
    <glyph glyph-name="Aringacute" unicode="&#x1fa;" horiz-adv-x="790" 
d="M44 0l307 666q-28 11 -45 34t-17 53q0 40 31 67.5t75 27.5t75 -27.5t31 -67.5q0 -29 -17.5 -52.5t-45.5 -34.5l308 -666h-57l-89 196h-413l-89 -196h-54zM209 243h369l-184 405zM395 690q29 0 48.5 18t19.5 45t-19.5 45t-48.5 18t-48.5 -18t-19.5 -45t19.5 -45t48.5 -18z
M371 878l93 108l57 -28l-105 -80h-45z" />
    <glyph glyph-name="aringacute" unicode="&#x1fb;" horiz-adv-x="574" 
d="M265 820l89 118l59 -30l-104 -88h-44zM248 -12q-78 0 -137.5 42.5t-59.5 117.5v2q0 78 61 122t162 44q86 0 169 -22v22q0 76 -44 116t-124 40t-160 -41l-18 43q95 44 181 44q105 0 161 -56q52 -52 52 -144v-318h-48v85q-69 -97 -195 -97zM251 34q80 0 136.5 44.5
t56.5 112.5v58q-90 23 -173 23q-80 0 -124 -32.5t-44 -86.5v-2q0 -53 43.5 -85t104.5 -32zM287 593q-43 0 -73.5 29.5t-30.5 70.5t30.5 70.5t73.5 29.5t73.5 -29.5t30.5 -70.5t-30.5 -70.5t-73.5 -29.5zM287 623q29 0 49.5 20.5t20.5 49.5t-20.5 49.5t-49.5 20.5
t-49.5 -20.5t-20.5 -49.5t20.5 -49.5t49.5 -20.5z" />
    <glyph glyph-name="AEacute" unicode="&#x1fc;" horiz-adv-x="1045" 
d="M20 0l424 700h533v-48h-431v-275h386v-48h-386v-281h436v-48h-488v196h-300l-118 -196h-56zM222 243h272v410h-26zM613 765l93 118l59 -28l-107 -90h-45z" />
    <glyph glyph-name="aeacute" unicode="&#x1fd;" horiz-adv-x="954" 
d="M243 -12q-77 0 -134.5 42.5t-57.5 117.5v2q0 78 60 122t158 44q77 0 160 -22v22q0 76 -42 116t-119 40q-73 0 -153 -41l-18 43q93 44 174 44q158 0 193 -128q31 60 85.5 96t120.5 36q105 0 169.5 -76t64.5 -191q0 -12 -1 -20h-423q7 -92 64.5 -146.5t135.5 -54.5
q100 0 175 80l34 -30q-89 -96 -211 -96q-63 0 -117.5 29.5t-88.5 82.5q-97 -112 -229 -112zM480 279h371q-6 84 -53 141t-130 57q-75 0 -128 -56.5t-60 -141.5zM246 34q118 0 204 107q-21 52 -22 109q-95 22 -162 22q-77 0 -120 -32.5t-43 -86.5v-2q0 -54 41 -85.5
t102 -31.5zM456 595l88 133l61 -30l-107 -103h-42z" />
    <glyph glyph-name="Oslashacute" unicode="&#x1fe;" horiz-adv-x="850" 
d="M725 705h60l-100 -107q92 -101 92 -246v-2q0 -148 -99 -255t-254 -107q-133 0 -228 82l-71 -75h-60l99 106q-91 104 -91 247v2q0 148 99 255t254 107q132 0 228 -83zM426 34q129 0 213.5 91t84.5 223q0 122 -75 213l-420 -452q81 -75 197 -75zM126 352q0 -125 74 -213
l421 452q-83 75 -197 75q-129 0 -213.5 -91t-84.5 -223zM404 775l93 118l59 -28l-107 -90h-45z" />
    <glyph glyph-name="oslashacute" unicode="&#x1ff;" horiz-adv-x="640" 
d="M540 517h57l-80 -84q65 -75 65 -176v-2q0 -109 -75.5 -188t-187.5 -79q-96 0 -167 60l-52 -53h-57l79 82q-64 77 -64 176v2q0 109 75.5 188t187.5 79q96 0 167 -61zM321 33q90 0 149.5 64t59.5 156q0 84 -49 144l-297 -312q57 -52 137 -52zM110 257q0 -83 47 -144
l299 311q-58 53 -137 53q-90 0 -149.5 -64t-59.5 -156zM299 595l88 133l61 -30l-107 -103h-42z" />
    <glyph glyph-name="Scommaaccent" unicode="&#x218;" horiz-adv-x="640" 
d="M341 -10q-157 0 -282 112l34 39q59 -55 117 -79.5t134 -24.5q78 0 127.5 39.5t49.5 99.5v2q0 58 -41.5 92t-156.5 57q-126 25 -181 71t-55 126v2q0 78 64 131t161 53q74 0 129.5 -20.5t110.5 -64.5l-33 -41q-91 79 -209 79q-76 0 -123.5 -38t-47.5 -94v-2q0 -59 42.5 -94
t161.5 -59q121 -25 175.5 -70.5t54.5 -122.5v-2q0 -84 -65 -137.5t-167 -53.5zM273 -225l-6 24q31 7 44 20t11 36h-31v71h72v-62q0 -76 -90 -89z" />
    <glyph glyph-name="scommaaccent" unicode="&#x219;" horiz-adv-x="497" 
d="M258 -10q-55 0 -111.5 20.5t-97.5 53.5l29 39q87 -67 183 -67q53 0 88 27t35 70v2q0 41 -34.5 62t-100.5 40q-35 10 -51 15t-45 18t-42.5 25.5t-25 34t-11.5 47.5v2q0 62 47 101.5t121 39.5q97 0 181 -56l-26 -41q-77 51 -157 51q-52 0 -84 -25t-32 -64v-2q0 -16 8.5 -30
t20 -23t33 -18.5t37 -14.5t43.5 -13q38 -11 62 -20t51.5 -25.5t41 -41t13.5 -56.5v-2q0 -67 -50.5 -108t-125.5 -41zM197 -225l-6 24q31 7 44 20t11 36h-31v71h72v-62q0 -76 -90 -89z" />
    <glyph glyph-name="schwa" unicode="&#x259;" horiz-adv-x="584" 
d="M276 522q103 0 176.5 -75t73.5 -191v-2q0 -112 -69.5 -189t-172.5 -77q-105 0 -169.5 76t-64.5 191q0 12 1 20h423q-7 92 -64.5 146.5t-135.5 54.5q-100 0 -175 -80l-34 30q89 96 211 96zM474 231h-371q6 -84 53 -141t130 -57q75 0 128 56.5t60 141.5z" />
    <glyph glyph-name="circumflex" unicode="&#x2c6;" horiz-adv-x="500" 
d="M130 595l100 122h40l100 -122h-47l-74 68l-74 -68h-45z" />
    <glyph glyph-name="caron" unicode="&#x2c7;" horiz-adv-x="500" 
d="M370 717l-100 -122h-40l-100 122h47l74 -68l74 68h45z" />
    <glyph glyph-name="breve" unicode="&#x2d8;" horiz-adv-x="500" 
d="M250 593q-56 0 -92.5 30t-40.5 82h39q21 -64 94 -64t94 64h39q-4 -52 -40.5 -82t-92.5 -30z" />
    <glyph glyph-name="dotaccent" unicode="&#x2d9;" horiz-adv-x="500" 
d="M214 595v81h72v-81h-72z" />
    <glyph glyph-name="ring" unicode="&#x2da;" horiz-adv-x="500" 
d="M250 593q-43 0 -73.5 29.5t-30.5 70.5t30.5 70.5t73.5 29.5t73.5 -29.5t30.5 -70.5t-30.5 -70.5t-73.5 -29.5zM250 623q28 0 49 20.5t21 49.5t-21 49.5t-49 20.5t-49 -20.5t-21 -49.5t21 -49.5t49 -20.5z" />
    <glyph glyph-name="ogonek" unicode="&#x2db;" horiz-adv-x="500" 
d="M321 -128v-36q-61 2 -93.5 23t-32.5 56q0 27 17.5 50.5t55.5 52.5l35 -17q-32 -25 -45 -42.5t-13 -37.5q0 -42 76 -49z" />
    <glyph glyph-name="tilde" unicode="&#x2dc;" horiz-adv-x="500" 
d="M314 595q-20 0 -65 20q-46 21 -63 21q-18 0 -28.5 -10.5t-21.5 -39.5l-34 9q14 52 33.5 72.5t50.5 20.5q20 0 65 -20q46 -21 63 -21q18 0 28.5 10.5t21.5 39.5l34 -9q-14 -52 -33.5 -72.5t-50.5 -20.5z" />
    <glyph glyph-name="hungarumlaut" unicode="&#x2dd;" horiz-adv-x="500" 
d="M246 595l89 133l55 -29l-101 -104h-43zM110 595l89 133l55 -29l-101 -104h-43z" />
    <glyph glyph-name="commaaccent" unicode="&#x326;" horiz-adv-x="500" 
d="M196 -225l-6 24q31 7 44 20t11 36h-31v71h72v-62q0 -76 -90 -89z" />
    <glyph glyph-name="uni0384" unicode="&#x384;" horiz-adv-x="500" 
d="M204 595l61 144l63 -26l-85 -118h-39z" />
    <glyph glyph-name="uni0385" unicode="&#x385;" horiz-adv-x="500" 
d="M327 595v80h69v-80h-69zM104 595v80h69v-80h-69zM212 595l38 159l63 -15l-62 -144h-39z" />
    <glyph glyph-name="uni0386" unicode="&#x386;" horiz-adv-x="790" 
d="M44 0l326 705h50l326 -705h-57l-89 196h-413l-89 -196h-54zM209 243h369l-184 405zM114 534l19 166h63l-51 -166h-31z" />
    <glyph glyph-name="uni0387" unicode="&#x387;" horiz-adv-x="240" 
d="M87 425v85h66v-85h-66z" />
    <glyph glyph-name="uni0388" unicode="&#x388;" horiz-adv-x="670" 
d="M104 0v700h498v-48h-446v-275h401v-48h-401v-281h451v-48h-503zM-43 534l19 166h63l-51 -166h-31z" />
    <glyph glyph-name="uni0389" unicode="&#x389;" horiz-adv-x="760" 
d="M104 0v700h52v-324h448v324h52v-700h-52v328h-448v-328h-52zM-43 534l19 166h63l-51 -166h-31z" />
    <glyph glyph-name="uni038A" unicode="&#x38a;" horiz-adv-x="274" 
d="M111 0v700h52v-700h-52zM-43 534l19 166h63l-51 -166h-31z" />
    <glyph glyph-name="uni038C" unicode="&#x38c;" horiz-adv-x="850" 
d="M424 -12q-155 0 -253 106t-98 254v2q0 148 99 255t254 107t253 -106t98 -254v-2q0 -148 -99 -255t-254 -107zM426 35q128 0 212.5 91t84.5 222v2q0 131 -85.5 223t-213.5 92t-212.5 -91t-84.5 -222v-2q0 -131 85.5 -223t213.5 -92zM-4 534l19 166h63l-51 -166h-31z" />
    <glyph glyph-name="uni038E" unicode="&#x38e;" horiz-adv-x="716" 
d="M332 0v277l-300 423h65l262 -376l263 376h62l-300 -422v-278h-52zM-94 534l19 166h63l-51 -166h-31z" />
    <glyph glyph-name="uni038F" unicode="&#x38f;" horiz-adv-x="868" 
d="M434 712q152 0 248 -95.5t96 -241.5q0 -192 -197 -329l222 2v-48h-296v44q71 46 115.5 89t73 104.5t28.5 136.5q0 129 -80.5 210t-209.5 81t-209.5 -81t-80.5 -210q0 -73 28 -134t73.5 -105.5t115.5 -90.5v-44h-296v48l221 -2q-97 69 -146.5 148.5t-49.5 180.5
q0 143 96 240t248 97zM-4 534l19 166h63l-51 -166h-31z" />
    <glyph glyph-name="uni0390" unicode="&#x390;" horiz-adv-x="273" 
d="M91 118v392h49v-391q0 -82 73 -82q22 0 40 5v-45q-22 -5 -44 -5q-118 0 -118 126zM209 595v80h69v-80h-69zM-14 595v80h69v-80h-69zM94 595l38 159l63 -15l-62 -144h-39z" />
    <glyph glyph-name="uni0391" unicode="&#x391;" horiz-adv-x="790" 
d="M44 0l326 705h50l326 -705h-57l-89 196h-413l-89 -196h-54zM209 243h369l-184 405z" />
    <glyph glyph-name="uni0392" unicode="&#x392;" horiz-adv-x="722" 
d="M104 0v700h289q120 0 182 -62q45 -45 45 -110v-2q0 -118 -119 -166q158 -41 158 -167v-2q0 -87 -68.5 -139t-182.5 -52h-304zM567 521v2q0 59 -46 94t-129 35h-236v-275h231q81 0 130.5 38t49.5 106zM606 193q0 65 -55 100.5t-158 35.5h-237v-281h254q90 0 143 38.5
t53 104.5v2z" />
    <glyph glyph-name="uni0393" unicode="&#x393;" horiz-adv-x="614" 
d="M104 0v700h463v-48h-411v-652h-52z" />
    <glyph glyph-name="uni0394" unicode="&#x394;" horiz-adv-x="790" 
d="M55 0l-5 39l320 666h50l320 -666l-5 -39h-680zM108 48h570l-284 598z" />
    <glyph glyph-name="uni0395" unicode="&#x395;" horiz-adv-x="670" 
d="M104 0v700h498v-48h-446v-275h401v-48h-401v-281h451v-48h-503z" />
    <glyph glyph-name="uni0396" unicode="&#x396;" horiz-adv-x="688" 
d="M68 0v29l479 624h-462v47h536v-29l-479 -624h479v-47h-553z" />
    <glyph glyph-name="uni0397" unicode="&#x397;" horiz-adv-x="760" 
d="M104 0v700h52v-324h448v324h52v-700h-52v328h-448v-328h-52z" />
    <glyph glyph-name="uni0398" unicode="&#x398;" horiz-adv-x="850" 
d="M424 -12q-155 0 -253 106t-98 254v2q0 148 99 255t254 107t253 -106t98 -254v-2q0 -148 -99 -255t-254 -107zM426 35q128 0 212.5 91t84.5 222v2q0 131 -85.5 223t-213.5 92t-212.5 -91t-84.5 -222v-2q0 -131 85.5 -223t213.5 -92zM627 377v-50h-404v50h404z" />
    <glyph glyph-name="uni0399" unicode="&#x399;" horiz-adv-x="274" 
d="M111 0v700h52v-700h-52z" />
    <glyph glyph-name="uni039A" unicode="&#x39a;" horiz-adv-x="715" 
d="M104 0v700h52v-460l446 460h71l-306 -309l319 -391h-68l-288 354l-174 -176v-178h-52z" />
    <glyph glyph-name="uni039B" unicode="&#x39b;" horiz-adv-x="772" 
d="M409 705l319 -705h-58l-285 641l-286 -641h-55l318 705h47z" />
    <glyph glyph-name="uni039C" unicode="&#x39c;" horiz-adv-x="868" 
d="M104 0v700h49l281 -414l281 414h49v-700h-52v608l-277 -403h-4l-277 403v-608h-50z" />
    <glyph glyph-name="uni039D" unicode="&#x39d;" horiz-adv-x="790" 
d="M104 0v700h49l483 -609v609h50v-700h-39l-493 622v-622h-50z" />
    <glyph glyph-name="uni039E" unicode="&#x39e;" horiz-adv-x="672" 
d="M604 650h-536v50h536v-50zM576 328h-480v50h480v-50zM609 0h-546v50h546v-50z" />
    <glyph glyph-name="uni039F" unicode="&#x39f;" horiz-adv-x="850" 
d="M424 -12q-155 0 -253 106t-98 254v2q0 148 99 255t254 107t253 -106t98 -254v-2q0 -148 -99 -255t-254 -107zM426 35q128 0 212.5 91t84.5 222v2q0 131 -85.5 223t-213.5 92t-212.5 -91t-84.5 -222v-2q0 -131 85.5 -223t213.5 -92z" />
    <glyph glyph-name="uni03A0" unicode="&#x3a0;" horiz-adv-x="760" 
d="M104 0v700h552v-700h-52v652h-448v-652h-52z" />
    <glyph glyph-name="uni03A1" unicode="&#x3a1;" horiz-adv-x="668" 
d="M104 0v700h254q117 0 188.5 -57t71.5 -157v-2q0 -106 -78.5 -164.5t-194.5 -58.5h-189v-261h-52zM156 309h192q98 0 158 47t60 125v2q0 81 -57.5 125t-154.5 44h-198v-343z" />
    <glyph glyph-name="uni03A3" unicode="&#x3a3;" horiz-adv-x="664" 
d="M432 350l-292 -302h469v-48h-542v39l299 311l-297 311v39h533v-48h-460z" />
    <glyph glyph-name="uni03A4" unicode="&#x3a4;" horiz-adv-x="638" 
d="M293 0v652h-244v48h540v-48h-244v-652h-52z" />
    <glyph glyph-name="uni03A5" unicode="&#x3a5;" horiz-adv-x="716" 
d="M332 0v277l-300 423h65l262 -376l263 376h62l-300 -422v-278h-52z" />
    <glyph glyph-name="uni03A6" unicode="&#x3a6;" horiz-adv-x="894" 
d="M421 -15v90q-170 2 -265.5 77t-95.5 201q0 124 95.5 199.5t265.5 78.5v84h52v-84q170 -3 265.5 -77.5t95.5 -200.5q0 -124 -95.5 -200t-265.5 -78v-90h-52zM780 353q0 102 -78.5 165t-229.5 66v-462q150 2 229 64.5t79 166.5zM114 353q0 -103 78 -166t230 -65v462
q-150 -2 -229 -64.5t-79 -166.5z" />
    <glyph glyph-name="uni03A7" unicode="&#x3a7;" horiz-adv-x="722" 
d="M600 700h61l-269 -343l279 -357h-62l-249 323l-248 -323h-61l278 357l-268 343h62l239 -309z" />
    <glyph glyph-name="uni03A8" unicode="&#x3a8;" horiz-adv-x="856" 
d="M776 700v-239q0 -141 -85.5 -210t-236.5 -71v-180h-52v180q-151 2 -236.5 70t-85.5 209v241h52v-239q0 -228 270 -233v472h52v-472q270 5 270 231v241h52z" />
    <glyph glyph-name="uni03A9" unicode="&#x3a9;" horiz-adv-x="868" 
d="M434 712q152 0 248 -95.5t96 -241.5q0 -192 -197 -329l222 2v-48h-296v44q71 46 115.5 89t73 104.5t28.5 136.5q0 129 -80.5 210t-209.5 81t-209.5 -81t-80.5 -210q0 -73 28 -134t73.5 -105.5t115.5 -90.5v-44h-296v48l221 -2q-97 69 -146.5 148.5t-49.5 180.5
q0 143 96 240t248 97z" />
    <glyph glyph-name="uni03AA" unicode="&#x3aa;" horiz-adv-x="274" 
d="M111 0v700h52v-700h-52zM189 765v76h73v-76h-73zM13 765v76h74v-76h-74z" />
    <glyph glyph-name="uni03AB" unicode="&#x3ab;" horiz-adv-x="716" 
d="M332 0v277l-300 423h65l262 -376l263 376h62l-300 -422v-278h-52zM410 760v76h73v-76h-73zM234 760v76h74v-76h-74z" />
    <glyph glyph-name="uni03AC" unicode="&#x3ac;" horiz-adv-x="700" 
d="M680 42v-45q-22 -5 -44 -5q-113 0 -118 117q-81 -121 -210 -121q-98 0 -173 73t-75 192v2q0 119 75 193t173 74q130 0 210 -122v110h49v-391q0 -82 73 -82q22 0 40 5zM313 35q83 0 145.5 62.5t62.5 156.5v2q0 95 -62.5 157t-145.5 62q-86 0 -143 -59t-57 -159v-2
q0 -98 58.5 -159t141.5 -61zM304 595l61 144l63 -26l-85 -118h-39z" />
    <glyph glyph-name="uni03AD" unicode="&#x3ad;" horiz-adv-x="552" 
d="M394 236h-116q-82 0 -124 -28t-42 -70v-1q0 -46 47 -74.5t126 -28.5q105 0 201 56l25 -39q-106 -63 -227 -63q-108 0 -166 41t-58 105v1q0 48 33.5 81t84.5 43q-104 29 -104 120v2q0 59 56 100t156 41q119 0 218 -65l-28 -40q-86 60 -191 60q-75 0 -117 -28.5t-42 -71.5
v-1q0 -46 40 -70.5t111 -24.5h117v-45zM257 595l61 144l63 -26l-85 -118h-39z" />
    <glyph glyph-name="uni03AE" unicode="&#x3ae;" horiz-adv-x="613" 
d="M142 0h-49v510h49v-95q61 107 184 107q95 0 149.5 -58.5t54.5 -151.5v-472h-49v463q0 80 -43 127t-119 47t-126.5 -51.5t-50.5 -130.5v-295zM283 595l61 144l63 -26l-85 -118h-39z" />
    <glyph glyph-name="uni03AF" unicode="&#x3af;" horiz-adv-x="273" 
d="M91 118v392h49v-391q0 -82 73 -82q22 0 40 5v-45q-22 -5 -44 -5q-118 0 -118 126zM89 595l61 144l63 -26l-85 -118h-39z" />
    <glyph glyph-name="uni03B0" unicode="&#x3b0;" horiz-adv-x="616" 
d="M307 -12q-102 0 -162 59t-60 169v294h49v-292q0 -92 47 -138.5t127 -46.5t127 46.5t47 138.5v292h49v-293q0 -110 -60.5 -169.5t-163.5 -59.5zM385 595v80h69v-80h-69zM162 595v80h69v-80h-69zM270 595l38 159l63 -15l-62 -144h-39z" />
    <glyph glyph-name="uni03B1" unicode="&#x3b1;" horiz-adv-x="700" 
d="M680 42v-45q-22 -5 -44 -5q-113 0 -118 117q-81 -121 -210 -121q-98 0 -173 73t-75 192v2q0 119 75 193t173 74q130 0 210 -122v110h49v-391q0 -82 73 -82q22 0 40 5zM313 35q83 0 145.5 62.5t62.5 156.5v2q0 95 -62.5 157t-145.5 62q-86 0 -143 -59t-57 -159v-2
q0 -98 58.5 -159t141.5 -61z" />
    <glyph glyph-name="uni03B2" unicode="&#x3b2;" horiz-adv-x="646" 
d="M363 -12q-143 0 -221 122v-270h-49v648q0 116 64.5 182.5t174.5 66.5q102 0 163.5 -53t61.5 -138q0 -70 -43.5 -115.5t-119.5 -61.5q194 -39 194 -194q0 -78 -60 -132.5t-165 -54.5zM362 34q79 0 126 40t47 102q0 78 -66 122.5t-199 44.5h-128v-92q0 -97 63 -157t157 -60
zM142 488v-101h127q109 0 172 42.5t63 117.5q0 64 -47 104t-125 40q-88 0 -139 -54t-51 -149z" />
    <glyph glyph-name="uni03B3" unicode="&#x3b3;" horiz-adv-x="582" 
d="M315 -160h-49v167l-225 503h57l193 -454l195 454h55l-226 -505v-165z" />
    <glyph glyph-name="uni03B4" unicode="&#x3b4;" horiz-adv-x="627" 
d="M108 695v35h387v-44h-307l195 -161q96 -79 140 -144t44 -144q0 -103 -72 -176t-185 -73q-114 0 -183 71t-69 175q0 99 58.5 166.5t189.5 129.5zM355 489l-13 10q-129 -57 -181.5 -118.5t-52.5 -146.5q0 -86 55.5 -143.5t146.5 -57.5q93 0 149.5 58.5t56.5 145.5
q0 69 -37.5 124.5t-123.5 127.5z" />
    <glyph glyph-name="uni03B5" unicode="&#x3b5;" horiz-adv-x="552" 
d="M394 236h-116q-82 0 -124 -28t-42 -70v-1q0 -46 47 -74.5t126 -28.5q105 0 201 56l25 -39q-106 -63 -227 -63q-108 0 -166 41t-58 105v1q0 48 33.5 81t84.5 43q-104 29 -104 120v2q0 59 56 100t156 41q119 0 218 -65l-28 -40q-86 60 -191 60q-75 0 -117 -28.5t-42 -71.5
v-1q0 -46 40 -70.5t111 -24.5h117v-45z" />
    <glyph glyph-name="uni03B6" unicode="&#x3b6;" horiz-adv-x="532" 
d="M498 33v-173h-48v129l-128 15q-132 15 -197 69t-65 137q0 65 36 121t144 164l191 190h-332v45h401v-39l-225 -227q-97 -98 -130 -146.5t-33 -107.5q0 -64 55.5 -104.5t165.5 -53.5z" />
    <glyph glyph-name="uni03B7" unicode="&#x3b7;" horiz-adv-x="613" 
d="M142 0h-49v510h49v-95q61 107 184 107q95 0 149.5 -58.5t54.5 -151.5v-472h-49v463q0 80 -43 127t-119 47t-126.5 -51.5t-50.5 -130.5v-295z" />
    <glyph glyph-name="uni03B8" unicode="&#x3b8;" horiz-adv-x="656" 
d="M328 -12q-83 0 -143.5 52t-89 132.5t-28.5 175.5v25q0 95 28.5 175.5t89 132.5t143.5 52t143.5 -52t89 -132.5t28.5 -175.5v-25q0 -95 -28.5 -175.5t-89 -132.5t-143.5 -52zM329 34q93 0 149.5 87t58.5 218h-418q2 -131 60 -218t150 -87zM327 687q-93 0 -149.5 -86
t-58.5 -217h418q-3 130 -60.5 216.5t-149.5 86.5z" />
    <glyph glyph-name="uni03B9" unicode="&#x3b9;" horiz-adv-x="273" 
d="M91 118v392h49v-391q0 -82 73 -82q22 0 40 5v-45q-22 -5 -44 -5q-118 0 -118 126z" />
    <glyph glyph-name="uni03BA" unicode="&#x3ba;" horiz-adv-x="560" 
d="M142 510v-327l320 327h65l-226 -228l229 -282h-62l-201 249l-125 -125v-124h-49v510h49z" />
    <glyph glyph-name="uni03BB" unicode="&#x3bb;" horiz-adv-x="592" 
d="M96 0h-55l238 524l-14 34q-31 76 -53 102.5t-61 26.5q-27 0 -60 -13v44q34 14 67 14q58 0 86 -32.5t67 -125.5l240 -574h-56l-193 466z" />
    <glyph glyph-name="uni03BC" unicode="&#x3bc;" horiz-adv-x="665" 
d="M645 42v-45q-22 -5 -44 -5q-108 0 -117 104q-28 -50 -73 -79t-99 -29q-118 0 -174 113h-1q5 -51 5 -130v-131h-49v670h49v-295q0 -76 49.5 -129t121.5 -53t121 53t49 129v295h49v-391q0 -82 73 -82q22 0 40 5z" />
    <glyph glyph-name="uni03BD" unicode="&#x3bd;" horiz-adv-x="582" 
d="M270 -4l-229 514h57l193 -455l195 455h55l-229 -514h-42z" />
    <glyph glyph-name="uni03BE" unicode="&#x3be;" horiz-adv-x="547" 
d="M522 656l-31 -39q-86 74 -180 74q-76 0 -121.5 -40t-45.5 -108q0 -72 53 -112t133 -40h96v-44h-105q-97 0 -153.5 -41t-56.5 -106q0 -70 59.5 -102.5t175.5 -45.5l161 -19v-173h-48v129l-120 14q-281 28 -281 195q0 69 47.5 113t114.5 61q-18 6 -37 17.5t-41.5 31
t-36.5 52t-14 71.5q0 81 60.5 137t159.5 56q109 0 211 -81z" />
    <glyph glyph-name="uni03BF" unicode="&#x3bf;" horiz-adv-x="640" 
d="M319 -12q-112 0 -186.5 78t-74.5 187v2q0 109 75.5 188t187.5 79t186.5 -78t74.5 -187v-2q0 -109 -75.5 -188t-187.5 -79zM321 34q90 0 149 64t59 155v2q0 92 -61 156.5t-149 64.5q-90 0 -149 -64t-59 -155v-2q0 -92 61 -156.5t149 -64.5z" />
    <glyph glyph-name="uni03C0" unicode="&#x3c0;" horiz-adv-x="686" 
d="M482 118v347h-297v-465h-49v465h-110v45h615v-45h-110v-346q0 -82 73 -82q22 0 40 5v-45q-22 -5 -44 -5q-118 0 -118 126z" />
    <glyph glyph-name="uni03C1" unicode="&#x3c1;" horiz-adv-x="647" 
d="M80 -160v416q0 113 73 189.5t182 76.5q104 0 178 -72.5t74 -192.5v-2q0 -119 -75 -193t-173 -74q-136 0 -210 127v-275h-49zM336 35q85 0 141.5 59t56.5 159v2q0 98 -57 159t-140 61q-89 0 -147 -61t-58 -158v-2q0 -95 61 -157t143 -62z" />
    <glyph glyph-name="uni03C2" unicode="&#x3c2;" horiz-adv-x="570" 
d="M457 -140v129l-114 14q-138 17 -211.5 84t-73.5 181q0 107 72.5 180.5t183.5 73.5q70 0 119.5 -26t91.5 -73l-37 -37q-78 90 -175 90q-87 0 -144.5 -58.5t-57.5 -148.5q0 -188 239 -217l155 -19v-173h-48z" />
    <glyph glyph-name="uni03C3" unicode="&#x3c3;" horiz-adv-x="665" 
d="M318 -12q-111 0 -185.5 75.5t-74.5 183.5v2q0 110 75.5 185.5t193.5 75.5h308v-45h-184q61 -33 95 -89.5t34 -124.5v-2q0 -109 -75 -185t-187 -76zM320 34q90 0 148.5 61t58.5 152v2q0 92 -60 153.5t-149 61.5q-90 0 -148.5 -61t-58.5 -152v-2q0 -92 60 -153.5t149 -61.5
z" />
    <glyph glyph-name="uni03C4" unicode="&#x3c4;" horiz-adv-x="551" 
d="M514 465h-227v-315q0 -64 25.5 -89t77.5 -25q39 0 75 13v-44q-36 -14 -76 -14q-74 0 -112.5 36t-38.5 122v316h-218v45h494v-45z" />
    <glyph glyph-name="uni03C5" unicode="&#x3c5;" horiz-adv-x="616" 
d="M307 -12q-102 0 -162 59t-60 169v294h49v-292q0 -92 47 -138.5t127 -46.5t127 46.5t47 138.5v292h49v-293q0 -110 -60.5 -169.5t-163.5 -59.5z" />
    <glyph glyph-name="uni03C6" unicode="&#x3c6;" horiz-adv-x="819" 
d="M434 -160h-49v157q-157 2 -242.5 73.5t-85.5 183.5q0 113 86 185t242 74v217h49v-217q157 -2 242.5 -73.5t85.5 -183.5q0 -113 -86 -185t-242 -74v-157zM709 255q0 95 -70 153t-205 60v-426q135 2 205 60t70 153zM110 255q0 -95 70 -153t205 -60v426q-135 -2 -205 -60
t-70 -153z" />
    <glyph glyph-name="uni03C7" unicode="&#x3c7;" horiz-adv-x="593" 
d="M116 510l181 -279l183 279h60l-213 -315l240 -355h-63l-208 316l-209 -316h-60l238 353l-212 317h63z" />
    <glyph glyph-name="uni03C8" unicode="&#x3c8;" horiz-adv-x="797" 
d="M423 -160h-49v157q-140 1 -215.5 72.5t-75.5 188.5v252h49v-250q0 -100 62.5 -158.5t179.5 -59.5v688h49v-688q117 1 179.5 59t62.5 159v250h49v-250q0 -118 -76 -190t-215 -73v-157z" />
    <glyph glyph-name="uni03C9" unicode="&#x3c9;" horiz-adv-x="881" 
d="M416 413h49v-143q0 -108 39.5 -172.5t116.5 -64.5q64 0 103.5 51.5t39.5 140.5q0 149 -128 285h63q116 -131 116 -285q0 -111 -54 -174t-140 -63q-72 0 -118 44t-63 111q-18 -67 -64 -111t-119 -44q-86 0 -138.5 62.5t-52.5 174.5q0 150 116 285h62q-127 -131 -127 -285
q0 -86 39.5 -139t100.5 -53q79 0 119 64.5t40 172.5v143z" />
    <glyph glyph-name="uni03CA" unicode="&#x3ca;" horiz-adv-x="273" 
d="M91 118v392h49v-391q0 -82 73 -82q22 0 40 5v-45q-22 -5 -44 -5q-118 0 -118 126zM164 595v80h69v-80h-69zM1 595v80h69v-80h-69z" />
    <glyph glyph-name="uni03CB" unicode="&#x3cb;" horiz-adv-x="616" 
d="M307 -12q-102 0 -162 59t-60 169v294h49v-292q0 -92 47 -138.5t127 -46.5t127 46.5t47 138.5v292h49v-293q0 -110 -60.5 -169.5t-163.5 -59.5zM355 595v80h69v-80h-69zM192 595v80h69v-80h-69z" />
    <glyph glyph-name="uni03CC" unicode="&#x3cc;" horiz-adv-x="640" 
d="M319 -12q-112 0 -186.5 78t-74.5 187v2q0 109 75.5 188t187.5 79t186.5 -78t74.5 -187v-2q0 -109 -75.5 -188t-187.5 -79zM321 34q90 0 149 64t59 155v2q0 92 -61 156.5t-149 64.5q-90 0 -149 -64t-59 -155v-2q0 -92 61 -156.5t149 -64.5zM292 595l61 144l63 -26
l-85 -118h-39z" />
    <glyph glyph-name="uni03CD" unicode="&#x3cd;" horiz-adv-x="616" 
d="M307 -12q-102 0 -162 59t-60 169v294h49v-292q0 -92 47 -138.5t127 -46.5t127 46.5t47 138.5v292h49v-293q0 -110 -60.5 -169.5t-163.5 -59.5zM280 595l61 144l63 -26l-85 -118h-39z" />
    <glyph glyph-name="uni03CE" unicode="&#x3ce;" horiz-adv-x="881" 
d="M416 413h49v-143q0 -108 39.5 -172.5t116.5 -64.5q64 0 103.5 51.5t39.5 140.5q0 149 -128 285h63q116 -131 116 -285q0 -111 -54 -174t-140 -63q-72 0 -118 44t-63 111q-18 -67 -64 -111t-119 -44q-86 0 -138.5 62.5t-52.5 174.5q0 150 116 285h62q-127 -131 -127 -285
q0 -86 39.5 -139t100.5 -53q79 0 119 64.5t40 172.5v143zM412 595l61 144l63 -26l-85 -118h-39z" />
    <glyph glyph-name="uni0400" unicode="&#x400;" horiz-adv-x="670" 
d="M104 0v700h498v-48h-446v-275h401v-48h-401v-281h451v-48h-503zM376 765h-45l-107 90l59 28z" />
    <glyph glyph-name="uni0401" unicode="&#x401;" horiz-adv-x="670" 
d="M104 0v700h498v-48h-446v-275h401v-48h-401v-281h451v-48h-503zM407 765v76h73v-76h-73zM231 765v76h74v-76h-74z" />
    <glyph glyph-name="uni0402" unicode="&#x402;" horiz-adv-x="848" 
d="M581 700v-48h-249v-245q99 31 199 31q129 0 197 -58.5t68 -161.5q0 -101 -71.5 -160.5t-195.5 -59.5h-21v48h19q108 0 162 45t54 127q0 81 -52 126.5t-163 45.5q-95 0 -196 -31v-359h-52v652h-235v48h536z" />
    <glyph glyph-name="uni0403" unicode="&#x403;" horiz-adv-x="614" 
d="M294 765l93 118l59 -28l-107 -90h-45zM104 0v700h463v-48h-411v-652h-52z" />
    <glyph glyph-name="uni0404" unicode="&#x404;" horiz-adv-x="745" 
d="M421 -12q-149 0 -248.5 104t-99.5 256v2q0 151 100.5 256.5t251.5 105.5q87 0 148.5 -28t122.5 -84l-36 -37q-102 102 -236 102q-121 0 -204.5 -82.5t-91.5 -206.5h414v-47h-415q8 -126 92 -210t204 -84q73 0 129.5 26.5t111.5 82.5l35 -34q-61 -60 -126 -91t-152 -31z
" />
    <glyph glyph-name="uni0405" unicode="&#x405;" horiz-adv-x="640" 
d="M341 -10q-157 0 -282 112l34 39q59 -55 117 -79.5t134 -24.5q78 0 127.5 39.5t49.5 99.5v2q0 58 -41.5 92t-156.5 57q-126 25 -181 71t-55 126v2q0 78 64 131t161 53q74 0 129.5 -20.5t110.5 -64.5l-33 -41q-91 79 -209 79q-76 0 -123.5 -38t-47.5 -94v-2q0 -59 42.5 -94
t161.5 -59q121 -25 175.5 -70.5t54.5 -122.5v-2q0 -84 -65 -137.5t-167 -53.5z" />
    <glyph glyph-name="uni0406" unicode="&#x406;" horiz-adv-x="274" 
d="M111 0v700h52v-700h-52z" />
    <glyph glyph-name="uni0407" unicode="&#x407;" horiz-adv-x="274" 
d="M111 0v700h52v-700h-52zM189 765v76h73v-76h-73zM13 765v76h74v-76h-74z" />
    <glyph glyph-name="uni0408" unicode="&#x408;" horiz-adv-x="549" 
d="M249 -10q-139 0 -212 131l43 27q34 -57 73.5 -84t98.5 -27q67 0 109.5 49t42.5 138v476h52v-472q0 -118 -64 -182q-56 -56 -143 -56z" />
    <glyph glyph-name="uni0409" unicode="&#x409;" horiz-adv-x="1015" 
d="M461 0v656h-4l-380 -656h-57l407 700h86v-265h192q117 0 188.5 -56.5t71.5 -155.5v-2q0 -105 -79 -163t-194 -58h-231zM513 48h182q97 0 157.5 46.5t60.5 123.5v2q0 80 -58 123.5t-154 43.5h-188v-339z" />
    <glyph glyph-name="uni040A" unicode="&#x40a;" horiz-adv-x="1148" 
d="M594 0v328h-438v-328h-52v700h52v-324h438v324h52v-265h192q117 0 188.5 -56.5t71.5 -155.5v-2q0 -105 -79 -163t-194 -58h-231zM646 48h182q97 0 157.5 46.5t60.5 123.5v2q0 80 -58 123.5t-154 43.5h-188v-339z" />
    <glyph glyph-name="uni040B" unicode="&#x40b;" horiz-adv-x="873" 
d="M581 700v-48h-249v-245q105 33 205 33q128 0 194 -55.5t66 -176.5v-208h-52v196q0 105 -51 150.5t-161 45.5q-96 0 -201 -33v-359h-52v652h-235v48h536z" />
    <glyph glyph-name="uni040C" unicode="&#x40c;" horiz-adv-x="715" 
d="M104 0v700h52v-316h138l310 316h70l-334 -337l348 -363h-72l-320 336h-140v-336h-52zM326 760l93 118l59 -28l-107 -90h-45z" />
    <glyph glyph-name="uni040D" unicode="&#x40d;" horiz-adv-x="790" 
d="M686 0h-52v622l-491 -622h-39v700h52v-609l481 609h49v-700zM416 760h-45l-107 90l59 28z" />
    <glyph glyph-name="uni040E" unicode="&#x40e;" horiz-adv-x="704" 
d="M253 0h-58l149 243l-307 457h61l274 -413l243 413h59zM365 758q-56 0 -92.5 26.5t-40.5 73.5h44q18 -52 89 -52t89 52h44q-4 -47 -40.5 -73.5t-92.5 -26.5z" />
    <glyph glyph-name="uni040F" unicode="&#x40f;" horiz-adv-x="760" 
d="M355 -148v148h-251v700h52v-652h448v652h52v-700h-250v-148h-51z" />
    <glyph glyph-name="uni0410" unicode="&#x410;" horiz-adv-x="790" 
d="M44 0l326 705h50l326 -705h-57l-89 196h-413l-89 -196h-54zM209 243h369l-184 405z" />
    <glyph glyph-name="uni0411" unicode="&#x411;" horiz-adv-x="700" 
d="M104 0v700h486v-48h-434v-259h236q116 0 186 -48.5t70 -141.5v-2q0 -100 -77.5 -150.5t-191.5 -50.5h-275zM156 48h226q96 0 155 39t59 111v2q0 75 -56 110t-152 35h-232v-297z" />
    <glyph glyph-name="uni0412" unicode="&#x412;" horiz-adv-x="722" 
d="M104 0v700h289q120 0 182 -62q45 -45 45 -110v-2q0 -118 -119 -166q158 -41 158 -167v-2q0 -87 -68.5 -139t-182.5 -52h-304zM567 521v2q0 59 -46 94t-129 35h-236v-275h231q81 0 130.5 38t49.5 106zM606 193q0 65 -55 100.5t-158 35.5h-237v-281h254q90 0 143 38.5
t53 104.5v2z" />
    <glyph glyph-name="uni0413" unicode="&#x413;" horiz-adv-x="614" 
d="M104 0v700h463v-48h-411v-652h-52z" />
    <glyph glyph-name="uni0414" unicode="&#x414;" horiz-adv-x="849" 
d="M40 48h64l294 657h53l293 -657h65v-196h-51v148h-667v-148h-51v196zM424 644l-265 -596h528z" />
    <glyph glyph-name="uni0415" unicode="&#x415;" horiz-adv-x="670" 
d="M104 0v700h498v-48h-446v-275h401v-48h-401v-281h451v-48h-503z" />
    <glyph glyph-name="uni0416" unicode="&#x416;" horiz-adv-x="1048" 
d="M31 700h66l294 -316h107v316h52v-316h106l295 316h66l-314 -336l318 -364h-65l-297 336h-109v-336h-52v336h-114l-294 -336h-63l318 364z" />
    <glyph glyph-name="uni0417" unicode="&#x417;" horiz-adv-x="655" 
d="M85 573l-32 35q116 104 272 104q107 0 176 -51.5t69 -133.5v-2q0 -60 -38.5 -106t-110.5 -64q74 -15 119 -60t45 -107v-2q0 -85 -74.5 -141.5t-195.5 -56.5q-157 0 -271 95l31 38q106 -87 240 -87q95 0 155.5 43t60.5 108v2q0 69 -59.5 105.5t-164.5 36.5h-117v47h117
q92 0 150.5 38t58.5 109v2q0 62 -52.5 101.5t-139.5 39.5q-131 0 -239 -93z" />
    <glyph glyph-name="uni0418" unicode="&#x418;" horiz-adv-x="790" 
d="M686 0h-52v622l-491 -622h-39v700h52v-609l481 609h49v-700z" />
    <glyph glyph-name="uni0419" unicode="&#x419;" horiz-adv-x="790" 
d="M686 0h-52v622l-491 -622h-39v700h52v-609l481 609h49v-700zM395 758q-56 0 -92.5 26.5t-40.5 73.5h44q18 -52 89 -52t89 52h44q-4 -47 -40.5 -73.5t-92.5 -26.5z" />
    <glyph glyph-name="uni041A" unicode="&#x41a;" horiz-adv-x="715" 
d="M104 0v700h52v-316h138l310 316h70l-334 -337l348 -363h-72l-320 336h-140v-336h-52z" />
    <glyph glyph-name="uni041B" unicode="&#x41b;" horiz-adv-x="772" 
d="M409 705l319 -705h-58l-285 641l-286 -641h-55l318 705h47z" />
    <glyph glyph-name="uni041C" unicode="&#x41c;" horiz-adv-x="868" 
d="M104 0v700h49l281 -414l281 414h49v-700h-52v608l-277 -403h-4l-277 403v-608h-50z" />
    <glyph glyph-name="uni041D" unicode="&#x41d;" horiz-adv-x="760" 
d="M104 0v700h52v-324h448v324h52v-700h-52v328h-448v-328h-52z" />
    <glyph glyph-name="uni041E" unicode="&#x41e;" horiz-adv-x="850" 
d="M424 -12q-155 0 -253 106t-98 254v2q0 148 99 255t254 107t253 -106t98 -254v-2q0 -148 -99 -255t-254 -107zM426 35q128 0 212.5 91t84.5 222v2q0 131 -85.5 223t-213.5 92t-212.5 -91t-84.5 -222v-2q0 -131 85.5 -223t213.5 -92z" />
    <glyph glyph-name="uni041F" unicode="&#x41f;" horiz-adv-x="760" 
d="M104 0v700h552v-700h-52v652h-448v-652h-52z" />
    <glyph glyph-name="uni0420" unicode="&#x420;" horiz-adv-x="668" 
d="M104 0v700h254q117 0 188.5 -57t71.5 -157v-2q0 -106 -78.5 -164.5t-194.5 -58.5h-189v-261h-52zM156 309h192q98 0 158 47t60 125v2q0 81 -57.5 125t-154.5 44h-198v-343z" />
    <glyph glyph-name="uni0421" unicode="&#x421;" horiz-adv-x="743" 
d="M421 -12q-149 0 -248.5 104t-99.5 256v2q0 150 100 256t250 106q87 0 149.5 -28.5t122.5 -83.5l-37 -38q-106 103 -236 103q-126 0 -210.5 -90.5t-84.5 -222.5v-2q0 -133 85.5 -224t210.5 -91q73 0 129 27t112 82l35 -34q-61 -60 -126 -91t-152 -31z" />
    <glyph glyph-name="uni0422" unicode="&#x422;" horiz-adv-x="638" 
d="M293 0v652h-244v48h540v-48h-244v-652h-52z" />
    <glyph glyph-name="uni0423" unicode="&#x423;" horiz-adv-x="704" 
d="M253 0h-58l149 243l-307 457h61l274 -413l243 413h59z" />
    <glyph glyph-name="uni0424" unicode="&#x424;" horiz-adv-x="894" 
d="M421 -15v90q-170 2 -265.5 77t-95.5 201q0 124 95.5 199.5t265.5 78.5v84h52v-84q170 -3 265.5 -77.5t95.5 -200.5q0 -124 -95.5 -200t-265.5 -78v-90h-52zM780 353q0 102 -78.5 165t-229.5 66v-462q150 2 229 64.5t79 166.5zM114 353q0 -103 78 -166t230 -65v462
q-150 -2 -229 -64.5t-79 -166.5z" />
    <glyph glyph-name="uni0425" unicode="&#x425;" horiz-adv-x="722" 
d="M600 700h61l-269 -343l279 -357h-62l-249 323l-248 -323h-61l278 357l-268 343h62l239 -309z" />
    <glyph glyph-name="uni0426" unicode="&#x426;" horiz-adv-x="768" 
d="M670 -148v148h-566v700h52v-652h448v652h52v-652h65v-196h-51z" />
    <glyph glyph-name="uni0427" unicode="&#x427;" horiz-adv-x="697" 
d="M541 0v293q-102 -33 -205 -33q-128 0 -194 55.5t-66 176.5v208h52v-196q0 -105 51 -150.5t161 -45.5q101 0 201 33v359h52v-700h-52z" />
    <glyph glyph-name="uni0428" unicode="&#x428;" horiz-adv-x="1090" 
d="M104 0v700h52v-652h363v652h52v-652h363v652h52v-700h-882z" />
    <glyph glyph-name="uni0429" unicode="&#x429;" horiz-adv-x="1098" 
d="M104 0v700h52v-652h363v652h52v-652h363v652h52v-652h65v-196h-51v148h-896z" />
    <glyph glyph-name="uni042A" unicode="&#x42a;" horiz-adv-x="849" 
d="M285 0v652h-240v48h292v-265h202q117 0 188.5 -56.5t71.5 -155.5v-2q0 -105 -79 -163t-194 -58h-241zM337 48h192q97 0 157.5 46.5t60.5 123.5v2q0 80 -58 123.5t-154 43.5h-198v-339z" />
    <glyph glyph-name="uni042B" unicode="&#x42b;" horiz-adv-x="920" 
d="M104 0v700h52v-265h202q117 0 188.5 -56.5t71.5 -155.5v-2q0 -105 -79 -163t-194 -58h-241zM156 48h192q97 0 157.5 46.5t60.5 123.5v2q0 80 -58 123.5t-154 43.5h-198v-339zM764 0v700h52v-700h-52z" />
    <glyph glyph-name="uni042C" unicode="&#x42c;" horiz-adv-x="668" 
d="M104 0v700h52v-265h202q117 0 188.5 -56.5t71.5 -155.5v-2q0 -105 -79 -163t-194 -58h-241zM156 48h192q97 0 157.5 46.5t60.5 123.5v2q0 80 -58 123.5t-154 43.5h-198v-339z" />
    <glyph glyph-name="uni042D" unicode="&#x42d;" horiz-adv-x="745" 
d="M203 329v47h414q-8 126 -88.5 207.5t-200.5 81.5q-131 0 -245 -102l-33 35q123 114 278 114q151 0 247.5 -103t96.5 -257v-2q0 -152 -98.5 -257t-252.5 -105q-159 0 -275 118l35 36q107 -107 240 -107q125 0 207.5 83.5t88.5 210.5h-414z" />
    <glyph glyph-name="uni042E" unicode="&#x42e;" horiz-adv-x="1081" 
d="M104 0v700h52v-324h175q9 138 103 237t236 99q99 0 177.5 -51t119.5 -133t41 -176v-2q0 -94 -41.5 -176.5t-120.5 -134t-178 -51.5q-144 0 -237.5 100t-100.5 240h-174v-328h-52zM670 35q122 0 203 92t81 221v2q0 129 -82 222t-204 93t-203 -92t-81 -221v-2
q0 -129 82 -222t204 -93z" />
    <glyph glyph-name="uni042F" unicode="&#x42f;" horiz-adv-x="723" 
d="M619 700v-700h-52v290h-221l-231 -290h-66l237 294q-94 11 -152.5 64.5t-58.5 140.5v2q0 88 69 143.5t185 55.5h290zM567 652h-240q-93 0 -146.5 -42t-53.5 -111v-2q0 -78 60 -119t156 -41h224v315z" />
    <glyph glyph-name="uni0430" unicode="&#x430;" horiz-adv-x="574" 
d="M248 -12q-78 0 -137.5 42.5t-59.5 117.5v2q0 78 61 122t162 44q86 0 169 -22v22q0 76 -44 116t-124 40t-160 -41l-18 43q95 44 181 44q105 0 161 -56q52 -52 52 -144v-318h-48v85q-69 -97 -195 -97zM251 34q80 0 136.5 44.5t56.5 112.5v58q-90 23 -173 23
q-80 0 -124 -32.5t-44 -86.5v-2q0 -53 43.5 -85t104.5 -32z" />
    <glyph glyph-name="uni0431" unicode="&#x431;" horiz-adv-x="642" 
d="M328 -12q-109 0 -177 68q-81 81 -81 239q0 144 31 231t89.5 128.5t159.5 58.5l161 27l9 -46l-165 -28q-120 -21 -171 -83t-64 -203q33 57 90 89t129 32q109 0 177 -71.5t68 -178.5q0 -109 -72 -186t-184 -77zM329 34q89 0 145.5 61.5t56.5 153.5t-54 149t-141 57
q-93 0 -153.5 -55.5t-60.5 -144.5q0 -99 60 -160t147 -61z" />
    <glyph glyph-name="uni0432" unicode="&#x432;" horiz-adv-x="598" 
d="M93 0v510h255q80 0 125.5 -35t45.5 -96q0 -90 -99 -120q118 -27 118 -124q0 -63 -50.5 -99t-138.5 -36h-256zM142 236v-191h208q65 0 100.5 24.5t35.5 65.5q0 47 -38 74t-108 27h-198zM142 280h196q61 0 95 26.5t34 70.5q0 42 -31.5 65t-88.5 23h-205v-185z" />
    <glyph glyph-name="uni0433" unicode="&#x433;" horiz-adv-x="486" 
d="M93 0v510h363v-45h-314v-465h-49z" />
    <glyph glyph-name="uni0434" unicode="&#x434;" horiz-adv-x="644" 
d="M347 514l211 -469h59v-185h-46v140h-498v-140h-46v185h58l212 469h50zM322 466l-184 -421h365z" />
    <glyph glyph-name="uni0435" unicode="&#x435;" horiz-adv-x="584" 
d="M308 -12q-103 0 -176.5 75t-73.5 191v2q0 112 69.5 189t172.5 77q105 0 169.5 -76t64.5 -191q0 -12 -1 -20h-423q7 -92 64.5 -146.5t135.5 -54.5q100 0 175 80l34 -30q-89 -96 -211 -96zM110 279h371q-6 84 -53 141t-130 57q-75 0 -128 -56.5t-60 -141.5z" />
    <glyph glyph-name="uni0436" unicode="&#x436;" horiz-adv-x="853" 
d="M451 510v-230h103l202 230h62l-223 -252l230 -258h-63l-207 235h-104v-235h-49v235h-105l-207 -235h-62l229 258l-222 252h63l201 -230h103v230h49z" />
    <glyph glyph-name="uni0437" unicode="&#x437;" horiz-adv-x="553" 
d="M43 54l27 41q88 -61 197 -61q79 0 125.5 29t46.5 75v1q0 46 -44.5 71.5t-120.5 25.5h-117v45h116q70 0 111 27t41 72v1q0 44 -40 70t-111 26q-103 0 -199 -66l-25 39q105 72 223 72q96 0 150 -38.5t54 -101.5v-2q0 -48 -32 -77.5t-79 -41.5q53 -9 89 -41t36 -82v-1
q0 -64 -59.5 -106.5t-164.5 -42.5q-129 0 -224 66z" />
    <glyph glyph-name="uni0438" unicode="&#x438;" horiz-adv-x="637" 
d="M93 0v510h49v-440l353 440h49v-510h-49v438l-353 -438h-49z" />
    <glyph glyph-name="uni0439" unicode="&#x439;" horiz-adv-x="637" 
d="M93 0v510h49v-440l353 440h49v-510h-49v438l-353 -438h-49zM318 593q-56 0 -92.5 30t-40.5 82h39q21 -64 94 -64t94 64h39q-4 -52 -40.5 -82t-92.5 -30z" />
    <glyph glyph-name="uni043A" unicode="&#x43a;" horiz-adv-x="560" 
d="M142 510v-230h113l211 230h63l-230 -249l235 -261h-65l-211 235h-116v-235h-49v510h49z" />
    <glyph glyph-name="uni043B" unicode="&#x43b;" horiz-adv-x="602" 
d="M323 514l238 -514h-57l-204 452l-204 -452h-55l238 514h44z" />
    <glyph glyph-name="uni043C" unicode="&#x43c;" horiz-adv-x="723" 
d="M93 0v510h52l217 -317l216 317h52v-510h-51v427l-217 -310h-3l-217 309v-426h-49z" />
    <glyph glyph-name="uni043D" unicode="&#x43d;" horiz-adv-x="633" 
d="M93 0v510h49v-230h349v230h49v-510h-49v235h-349v-235h-49z" />
    <glyph glyph-name="uni043E" unicode="&#x43e;" horiz-adv-x="640" 
d="M319 -12q-112 0 -186.5 78t-74.5 187v2q0 109 75.5 188t187.5 79t186.5 -78t74.5 -187v-2q0 -109 -75.5 -188t-187.5 -79zM321 34q90 0 149 64t59 155v2q0 92 -61 156.5t-149 64.5q-90 0 -149 -64t-59 -155v-2q0 -92 61 -156.5t149 -64.5z" />
    <glyph glyph-name="uni043F" unicode="&#x43f;" horiz-adv-x="631" 
d="M93 0v510h445v-510h-49v465h-347v-465h-49z" />
    <glyph glyph-name="uni0440" unicode="&#x440;" horiz-adv-x="660" 
d="M93 -160v670h49v-114q83 126 210 126q98 0 173 -73t75 -192v-2q0 -119 -75 -193t-173 -74q-130 0 -210 122v-270h-49zM347 35q86 0 143 59t57 159v2q0 98 -58.5 159t-141.5 61t-145.5 -62.5t-62.5 -156.5v-2q0 -95 62.5 -157t145.5 -62z" />
    <glyph glyph-name="uni0441" unicode="&#x441;" horiz-adv-x="571" 
d="M318 -12q-109 0 -184.5 78.5t-75.5 186.5v2q0 108 76 187.5t184 79.5q114 0 204 -94l-35 -36q-82 84 -170 84q-87 0 -146.5 -63.5t-59.5 -155.5v-2q0 -92 61 -156.5t149 -64.5q95 0 171 85l34 -30q-89 -101 -208 -101z" />
    <glyph glyph-name="uni0442" unicode="&#x442;" horiz-adv-x="541" 
d="M246 0v465h-220v45h489v-45h-220v-465h-49z" />
    <glyph glyph-name="uni0443" unicode="&#x443;" horiz-adv-x="588" 
d="M308 54l184 456h54l-221 -528q-33 -78 -73.5 -111.5t-96.5 -33.5q-51 0 -101 22l17 43q39 -19 87 -19q40 0 69 27t57 93l-245 507h57z" />
    <glyph glyph-name="uni0444" unicode="&#x444;" horiz-adv-x="819" 
d="M434 -160h-49v157q-157 2 -242.5 73.5t-85.5 183.5q0 113 86 185t242 74v217h49v-217q157 -2 242.5 -73.5t85.5 -183.5q0 -113 -86 -185t-242 -74v-157zM709 255q0 95 -70 153t-205 60v-426q135 2 205 60t70 153zM110 255q0 -95 70 -153t205 -60v426q-135 -2 -205 -60
t-70 -153z" />
    <glyph glyph-name="uni0445" unicode="&#x445;" horiz-adv-x="570" 
d="M114 510l171 -216l173 216h59l-201 -249l209 -261h-61l-180 227l-180 -227h-59l208 260l-200 250h61z" />
    <glyph glyph-name="uni0446" unicode="&#x446;" horiz-adv-x="642" 
d="M551 -140v140h-458v510h49v-465h347v465h49v-465h59v-185h-46z" />
    <glyph glyph-name="uni0447" unicode="&#x447;" horiz-adv-x="585" 
d="M443 0v189q-92 -24 -164 -24q-207 0 -207 190v155h49v-152q0 -78 39 -112t123 -34q77 0 160 24v274h49v-510h-49z" />
    <glyph glyph-name="uni0448" unicode="&#x448;" horiz-adv-x="915" 
d="M93 0v510h49v-465h291v465h49v-465h291v465h49v-510h-729z" />
    <glyph glyph-name="uni0449" unicode="&#x449;" horiz-adv-x="910" 
d="M93 0v510h49v-465h291v465h49v-465h291v465h49v-465h43v-185h-46v140h-726z" />
    <glyph glyph-name="uni044A" unicode="&#x44a;" horiz-adv-x="675" 
d="M203 0v465h-181v45h230v-187h181q92 0 145 -44t53 -116v-3q0 -72 -53 -116t-145 -44h-230zM252 278v-233h181q73 0 109.5 30.5t36.5 85.5v1q0 55 -36.5 85.5t-109.5 30.5h-181z" />
    <glyph glyph-name="uni044B" unicode="&#x44b;" horiz-adv-x="765" 
d="M142 510v-187h181q92 0 145 -44t53 -116v-3q0 -72 -53 -116t-145 -44h-230v510h49zM142 278v-233h181q73 0 109.5 30.5t36.5 85.5v1q0 55 -36.5 85.5t-109.5 30.5h-181zM623 0v510h49v-510h-49z" />
    <glyph glyph-name="uni044C" unicode="&#x44c;" horiz-adv-x="565" 
d="M93 0v510h49v-187h181q92 0 145 -44t53 -116v-3q0 -72 -53 -116t-145 -44h-230zM142 45h181q73 0 109.5 30.5t36.5 85.5v1q0 55 -36.5 85.5t-109.5 30.5h-181v-233z" />
    <glyph glyph-name="uni044D" unicode="&#x44d;" horiz-adv-x="575" 
d="M164 282h299q-6 83 -63 138.5t-140 55.5q-100 0 -182 -78l-31 36q95 88 214 88q111 0 183.5 -75.5t72.5 -191.5v-2q0 -107 -74 -186t-183 -79q-127 0 -216 91l34 35q75 -80 181 -80q84 0 143 59t62 144h-300v45z" />
    <glyph glyph-name="uni044E" unicode="&#x44e;" horiz-adv-x="854" 
d="M142 235v-235h-49v510h49v-230h143q8 102 79.5 172t176.5 70q111 0 183 -77.5t72 -187.5v-2q0 -110 -72.5 -188.5t-184.5 -78.5q-106 0 -177 71.5t-78 175.5h-142zM541 34q89 0 145.5 63.5t56.5 155.5v2q0 93 -58 157t-146 64q-89 0 -145.5 -63.5t-56.5 -155.5v-2
q0 -93 58 -157t146 -64z" />
    <glyph glyph-name="uni044F" unicode="&#x44f;" horiz-adv-x="610" 
d="M118 0h-63l159 204q-67 11 -103.5 51t-36.5 99v1q0 67 53.5 111t141.5 44h248v-510h-49v199h-197zM468 465h-201q-64 0 -103 -31t-39 -78v-1q0 -52 38 -82t104 -30h201v222z" />
    <glyph glyph-name="uni0450" unicode="&#x450;" horiz-adv-x="584" 
d="M308 -12q-103 0 -176.5 75t-73.5 191v2q0 112 69.5 189t172.5 77q105 0 169.5 -76t64.5 -191q0 -12 -1 -20h-423q7 -92 64.5 -146.5t135.5 -54.5q100 0 175 80l34 -30q-89 -96 -211 -96zM110 279h371q-6 84 -53 141t-130 57q-75 0 -128 -56.5t-60 -141.5zM279 595
l-107 103l61 30l88 -133h-42z" />
    <glyph glyph-name="uni0451" unicode="&#x451;" horiz-adv-x="584" 
d="M308 -12q-103 0 -176.5 75t-73.5 191v2q0 112 69.5 189t172.5 77q105 0 169.5 -76t64.5 -191q0 -12 -1 -20h-423q7 -92 64.5 -146.5t135.5 -54.5q100 0 175 80l34 -30q-89 -96 -211 -96zM110 279h371q-6 84 -53 141t-130 57q-75 0 -128 -56.5t-60 -141.5zM347 595v80h69
v-80h-69zM184 595v80h69v-80h-69z" />
    <glyph glyph-name="uni0452" unicode="&#x452;" horiz-adv-x="593" 
d="M337 580h-195v-169q92 24 164 24q207 0 207 -190v-207q0 -201 -167 -201q-22 0 -57 7v46q32 -8 56 -8q61 0 90 35.5t29 123.5v201q0 78 -39 112t-123 34q-77 0 -160 -24v-364h-49v580h-115v45h115v105h49v-105h195v-45z" />
    <glyph glyph-name="uni0453" unicode="&#x453;" horiz-adv-x="486" 
d="M93 0v510h363v-45h-314v-465h-49zM233 595l88 133l61 -30l-107 -103h-42z" />
    <glyph glyph-name="uni0454" unicode="&#x454;" horiz-adv-x="572" 
d="M411 282v-45h-300q4 -87 64.5 -145t145.5 -58q100 0 175 80l32 -32q-87 -94 -210 -94q-110 0 -185 77t-75 188v2q0 111 75.5 189t184.5 78q119 0 205 -86l-33 -38q-80 78 -173 78q-82 0 -140.5 -55t-65.5 -139h300z" />
    <glyph glyph-name="uni0455" unicode="&#x455;" horiz-adv-x="497" 
d="M258 -10q-55 0 -111.5 20.5t-97.5 53.5l29 39q87 -67 183 -67q53 0 88 27t35 70v2q0 41 -34.5 62t-100.5 40q-35 10 -51 15t-45 18t-42.5 25.5t-25 34t-11.5 47.5v2q0 62 47 101.5t121 39.5q97 0 181 -56l-26 -41q-77 51 -157 51q-52 0 -84 -25t-32 -64v-2q0 -16 8.5 -30
t20 -23t33 -18.5t37 -14.5t43.5 -13q38 -11 62 -20t51.5 -25.5t41 -41t13.5 -56.5v-2q0 -67 -50.5 -108t-125.5 -41z" />
    <glyph glyph-name="uni0456" unicode="&#x456;" horiz-adv-x="249" 
d="M94 643v67h61v-67h-61zM100 0v510h49v-510h-49z" />
    <glyph glyph-name="uni0457" unicode="&#x457;" horiz-adv-x="249" 
d="M100 0v510h49v-510h-49zM171 595v80h69v-80h-69zM8 595v80h69v-80h-69z" />
    <glyph glyph-name="uni0458" unicode="&#x458;" horiz-adv-x="249" 
d="M94 643v67h61v-67h-61zM40 -163q-21 0 -41 4v43q18 -3 40 -3q28 0 44.5 18t16.5 53v558h49v-555q0 -58 -29 -88t-80 -30z" />
    <glyph glyph-name="uni0459" unicode="&#x459;" horiz-adv-x="829" 
d="M367 0v468h-2l-299 -468h-56l327 510h79v-187h171q92 0 145 -44t53 -116v-3q0 -72 -53 -116t-145 -44h-220zM416 45h171q73 0 109.5 30.5t36.5 85.5v1q0 55 -36.5 85.5t-109.5 30.5h-171v-233z" />
    <glyph glyph-name="uni045A" unicode="&#x45a;" horiz-adv-x="947" 
d="M534 510v-187h171q92 0 145 -44t53 -116v-3q0 -72 -53 -116t-145 -44h-220v235h-343v-235h-49v510h49v-230h343v230h49zM534 278v-233h171q73 0 109.5 30.5t36.5 85.5v1q0 55 -36.5 85.5t-109.5 30.5h-171z" />
    <glyph glyph-name="uni045B" unicode="&#x45b;" horiz-adv-x="593" 
d="M337 580h-195v-169q92 24 164 24q207 0 207 -190v-245h-49v242q0 78 -39 112t-123 34q-77 0 -160 -24v-364h-49v580h-115v45h115v105h49v-105h195v-45z" />
    <glyph glyph-name="uni045C" unicode="&#x45c;" horiz-adv-x="560" 
d="M142 510v-230h113l211 230h63l-230 -249l235 -261h-65l-211 235h-116v-235h-49v510h49zM260 595l88 133l61 -30l-107 -103h-42z" />
    <glyph glyph-name="uni045D" unicode="&#x45d;" horiz-adv-x="637" 
d="M93 0v510h49v-440l353 440h49v-510h-49v438l-353 -438h-49zM297 595l-107 103l61 30l88 -133h-42z" />
    <glyph glyph-name="uni045E" unicode="&#x45e;" horiz-adv-x="588" 
d="M308 54l184 456h54l-221 -528q-33 -78 -73.5 -111.5t-96.5 -33.5q-51 0 -101 22l17 43q39 -19 87 -19q40 0 69 27t57 93l-245 507h57zM298 593q-56 0 -92.5 30t-40.5 82h39q21 -64 94 -64t94 64h39q-4 -52 -40.5 -82t-92.5 -30z" />
    <glyph glyph-name="uni045F" unicode="&#x45f;" horiz-adv-x="631" 
d="M276 -140v140h-183v510h49v-465h347v465h49v-510h-216v-140h-46z" />
    <glyph glyph-name="uni0462" unicode="&#x462;" horiz-adv-x="849" 
d="M337 715v-128h265v-48h-265v-166h222q115 0 177.5 -48t62.5 -135v-2q0 -86 -68.5 -137t-175.5 -51h-270v539h-240v48h240v128h52zM337 48h220q88 0 139 38t51 101v2q0 136 -190 136h-220v-277z" />
    <glyph glyph-name="uni0463" unicode="&#x463;" horiz-adv-x="675" 
d="M472 465h-220v-142h181q92 0 145 -44t53 -116v-3q0 -72 -53 -116t-145 -44h-230v465h-181v45h181v220h49v-220h220v-45zM252 278v-233h181q73 0 109.5 30.5t36.5 85.5v1q0 55 -36.5 85.5t-109.5 30.5h-181z" />
    <glyph glyph-name="uni0472" unicode="&#x472;" horiz-adv-x="850" 
d="M424 -12q-155 0 -253 106t-98 254v2q0 148 99 255t254 107t253 -106t98 -254v-2q0 -148 -99 -255t-254 -107zM426 35q123 0 206.5 84t90.5 209h-597q8 -124 92.5 -208.5t207.5 -84.5zM424 665q-122 0 -205.5 -83t-91.5 -206h596q-9 122 -93.5 205.5t-205.5 83.5z" />
    <glyph glyph-name="uni0473" unicode="&#x473;" horiz-adv-x="640" 
d="M319 -12q-112 0 -186.5 78t-74.5 187v2q0 109 75.5 188t187.5 79t186.5 -78t74.5 -187v-2q0 -109 -75.5 -188t-187.5 -79zM321 34q85 0 144 58t65 143h-421q8 -86 68 -143.5t144 -57.5zM319 476q-84 0 -142.5 -56.5t-66.5 -139.5h420q-9 84 -69 140t-142 56z" />
    <glyph glyph-name="uni0474" unicode="&#x474;" horiz-adv-x="787" 
d="M352 -5l-308 705h58l274 -644l201 484q38 94 83 128.5t115 34.5h8v-47h-6q-54 0 -89 -29.5t-67 -104.5l-223 -527h-46z" />
    <glyph glyph-name="uni0475" unicode="&#x475;" horiz-adv-x="588" 
d="M259 -4l-218 514h57l182 -455l130 315q34 82 72 113t94 31h4v-46h-1q-39 0 -67 -23.5t-57 -90.5l-154 -358h-42z" />
    <glyph glyph-name="uni0490" unicode="&#x490;" horiz-adv-x="614" 
d="M104 0v700h412v141h51v-189h-411v-652h-52z" />
    <glyph glyph-name="uni0491" unicode="&#x491;" horiz-adv-x="486" 
d="M93 0v510h317v135h46v-180h-314v-465h-49z" />
    <glyph glyph-name="uni0492" unicode="&#x492;" horiz-adv-x="644" 
d="M134 0v320h-75v48h75v332h463v-48h-411v-284h201v-48h-201v-320h-52z" />
    <glyph glyph-name="uni0493" unicode="&#x493;" horiz-adv-x="504" 
d="M111 0v223h-70v45h70v242h363v-45h-314v-197h150v-45h-150v-223h-49z" />
    <glyph glyph-name="uni0496" unicode="&#x496;" horiz-adv-x="1063" 
d="M31 700h66l294 -316h107v316h52v-316h106l295 316h66l-314 -336l276 -316h69v-196h-51v148h-41l-297 336h-109v-336h-52v336h-114l-294 -336h-63l318 364z" />
    <glyph glyph-name="uni0497" unicode="&#x497;" horiz-adv-x="862" 
d="M451 510v-230h103l202 230h62l-223 -252l190 -213h49v-185h-46v140h-26l-207 235h-104v-235h-49v235h-105l-207 -235h-62l229 258l-222 252h63l201 -230h103v230h49z" />
    <glyph glyph-name="uni0498" unicode="&#x498;" horiz-adv-x="655" 
d="M289 -148v137q-140 7 -245 94l31 38q106 -87 240 -87q95 0 155.5 43t60.5 108v2q0 69 -59.5 105.5t-164.5 36.5h-117v47h117q92 0 150.5 38t58.5 109v2q0 62 -52.5 101.5t-139.5 39.5q-131 0 -239 -93l-32 35q116 104 272 104q107 0 176 -51.5t69 -133.5v-2
q0 -60 -38.5 -106t-110.5 -64q74 -15 119 -60t45 -107v-2q0 -81 -67.5 -136t-177.5 -61v-137h-51z" />
    <glyph glyph-name="uni0499" unicode="&#x499;" horiz-adv-x="553" 
d="M244 -140v129q-118 6 -201 65l27 41q88 -61 197 -61q79 0 125.5 29t46.5 75v1q0 46 -44.5 71.5t-120.5 25.5h-117v45h116q70 0 111 27t41 72v1q0 44 -40 70t-111 26q-103 0 -199 -66l-25 39q105 72 223 72q96 0 150 -38.5t54 -101.5v-2q0 -48 -32 -77.5t-79 -41.5
q53 -9 89 -41t36 -82v-1q0 -60 -53 -101.5t-148 -46.5v-129h-46z" />
    <glyph glyph-name="uni049A" unicode="&#x49a;" horiz-adv-x="727" 
d="M104 0v700h52v-316h138l310 316h70l-334 -337l302 -315h70v-196h-51v148h-45l-320 336h-140v-336h-52z" />
    <glyph glyph-name="uni049B" unicode="&#x49b;" horiz-adv-x="564" 
d="M142 510v-230h113l211 230h63l-230 -249l194 -216h43v-185h-46v140h-23v2l-209 233h-116v-235h-49v510h49z" />
    <glyph glyph-name="uni049C" unicode="&#x49c;" horiz-adv-x="739" 
d="M358 609v-232h3l269 323h67l-288 -340l301 -360h-68l-276 329h-8v-229h-50v229h-152v-329h-52v700h52v-323h152v232h50z" />
    <glyph glyph-name="uni049D" unicode="&#x49d;" horiz-adv-x="604" 
d="M569 0h-62l-191 238h-31v-159h-47v159h-96v-238h-49v510h49v-227h96v159h47v-159h29l192 227h63l-213 -245z" />
    <glyph glyph-name="uni04A0" unicode="&#x4a0;" horiz-adv-x="896" 
d="M45 652v48h292v-316h138l310 316h70l-334 -337l348 -363h-72l-320 336h-140v-336h-52v652h-240z" />
    <glyph glyph-name="uni04A1" unicode="&#x4a1;" horiz-adv-x="670" 
d="M22 465v45h230v-230h113l211 230h63l-230 -249l235 -261h-65l-211 235h-116v-235h-49v465h-181z" />
    <glyph glyph-name="uni04A2" unicode="&#x4a2;" horiz-adv-x="768" 
d="M670 -148v148h-66v328h-448v-328h-52v700h52v-324h448v324h52v-652h65v-196h-51z" />
    <glyph glyph-name="uni04A3" unicode="&#x4a3;" horiz-adv-x="629" 
d="M538 -140v140h-47v235h-349v-235h-49v510h49v-230h349v230h49v-465h44v-185h-46z" />
    <glyph glyph-name="uni04A4" unicode="&#x4a4;" horiz-adv-x="1067" 
d="M594 0v328h-438v-328h-52v700h52v-324h438v324h426v-48h-374v-652h-52z" />
    <glyph glyph-name="uni04A5" unicode="&#x4a5;" horiz-adv-x="868" 
d="M142 510v-230h343v230h353v-45h-304v-465h-49v235h-343v-235h-49v510h49z" />
    <glyph glyph-name="uni04AA" unicode="&#x4aa;" horiz-adv-x="743" 
d="M393 -148v137q-139 10 -229.5 112.5t-90.5 246.5v2q0 150 100 256t250 106q87 0 149.5 -28.5t122.5 -83.5l-37 -38q-106 103 -236 103q-126 0 -210.5 -90.5t-84.5 -222.5v-2q0 -133 85.5 -224t210.5 -91q73 0 129 27t112 82l35 -34q-57 -56 -116.5 -86.5t-138.5 -34.5
v-137h-51z" />
    <glyph glyph-name="uni04AB" unicode="&#x4ab;" horiz-adv-x="571" 
d="M291 -140v130q-100 10 -166.5 86t-66.5 177v2q0 108 76 187.5t184 79.5q114 0 204 -94l-35 -36q-82 84 -170 84q-87 0 -146.5 -63.5t-59.5 -155.5v-2q0 -92 61 -156.5t149 -64.5q95 0 171 85l34 -30q-83 -94 -189 -100v-129h-46z" />
    <glyph glyph-name="uni04AE" unicode="&#x4ae;" horiz-adv-x="716" 
d="M332 0v277l-300 423h65l262 -376l263 376h62l-300 -422v-278h-52z" />
    <glyph glyph-name="uni04AF" unicode="&#x4af;" horiz-adv-x="582" 
d="M315 -160h-49v167l-225 503h57l193 -454l195 454h55l-226 -505v-165z" />
    <glyph glyph-name="uni04B0" unicode="&#x4b0;" horiz-adv-x="716" 
d="M332 0v238h-192v48h185l-293 414h65l262 -376l263 376h62l-295 -414h186v-48h-191v-238h-52z" />
    <glyph glyph-name="uni04B1" unicode="&#x4b1;" horiz-adv-x="582" 
d="M291 56l195 454h55l-208 -465h151v-45h-169v-160h-49v160h-168v45h151l-208 465h57z" />
    <glyph glyph-name="uni04B2" unicode="&#x4b2;" horiz-adv-x="729" 
d="M609 0l-249 323l-248 -323h-61l278 357l-268 343h62l239 -309l238 309h61l-269 -343l241 -309h66v-196h-51v148h-39z" />
    <glyph glyph-name="uni04B3" unicode="&#x4b3;" horiz-adv-x="570" 
d="M114 510l171 -216l173 216h59l-201 -249l173 -216h43v-185h-46v140h-23v1l-179 226l-180 -227h-59l208 260l-200 250h61z" />
    <glyph glyph-name="uni04B6" unicode="&#x4b6;" horiz-adv-x="705" 
d="M607 -148v148h-66v293q-102 -33 -205 -33q-128 0 -194 55.5t-66 176.5v208h52v-196q0 -105 51 -150.5t161 -45.5q101 0 201 33v359h52v-652h65v-196h-51z" />
    <glyph glyph-name="uni04B7" unicode="&#x4b7;" horiz-adv-x="580" 
d="M443 0v189q-92 -24 -164 -24q-207 0 -207 190v155h49v-152q0 -78 39 -112t123 -34q77 0 160 24v274h49v-465h43v-185h-46v140h-46z" />
    <glyph glyph-name="uni04B8" unicode="&#x4b8;" horiz-adv-x="697" 
d="M541 0v293q-85 -28 -177 -33v-172h-50v172q-117 5 -177.5 60t-60.5 172v208h52v-196q0 -99 45 -144.5t141 -50.5v231h50v-232q92 5 177 33v359h52v-700h-52z" />
    <glyph glyph-name="uni04B9" unicode="&#x4b9;" horiz-adv-x="585" 
d="M306 55h-47v110q-187 9 -187 187v158h49v-147q0 -78 34 -112t104 -39v162h47v-162q63 3 137 24v274h49v-510h-49v189q-74 -19 -137 -23v-111z" />
    <glyph glyph-name="uni04BA" unicode="&#x4ba;" horiz-adv-x="697" 
d="M156 700v-293q102 33 205 33q128 0 194 -55.5t66 -176.5v-208h-52v196q0 105 -51 150.5t-161 45.5q-101 0 -201 -33v-359h-52v700h52z" />
    <glyph glyph-name="uni04BB" unicode="&#x4bb;" horiz-adv-x="613" 
d="M93 0v730h49v-315q61 107 184 107q95 0 149.5 -58.5t54.5 -151.5v-312h-49v303q0 80 -43 127t-119 47t-126.5 -51.5t-50.5 -130.5v-295h-49z" />
    <glyph glyph-name="uni04C0" unicode="&#x4c0;" horiz-adv-x="274" 
d="M111 0v700h52v-700h-52z" />
    <glyph glyph-name="uni04C1" unicode="&#x4c1;" horiz-adv-x="1048" 
d="M31 700h66l294 -316h107v316h52v-316h106l295 316h66l-314 -336l318 -364h-65l-297 336h-109v-336h-52v336h-114l-294 -336h-63l318 364zM524 763q-56 0 -92.5 26.5t-40.5 73.5h44q18 -52 89 -52t89 52h44q-4 -47 -40.5 -73.5t-92.5 -26.5z" />
    <glyph glyph-name="uni04C2" unicode="&#x4c2;" horiz-adv-x="853" 
d="M451 510v-230h103l202 230h62l-223 -252l230 -258h-63l-207 235h-104v-235h-49v235h-105l-207 -235h-62l229 258l-222 252h63l201 -230h103v230h49zM427 593q-56 0 -92.5 30t-40.5 82h39q21 -64 94 -64t94 64h39q-4 -52 -40.5 -82t-92.5 -30z" />
    <glyph glyph-name="uni04CF" unicode="&#x4cf;" horiz-adv-x="249" 
d="M100 0v730h49v-730h-49z" />
    <glyph glyph-name="uni04D0" unicode="&#x4d0;" horiz-adv-x="790" 
d="M44 0l326 705h50l326 -705h-57l-89 196h-413l-89 -196h-54zM209 243h369l-184 405zM395 773q-56 0 -92.5 26.5t-40.5 73.5h44q18 -52 89 -52t89 52h44q-4 -47 -40.5 -73.5t-92.5 -26.5z" />
    <glyph glyph-name="uni04D1" unicode="&#x4d1;" horiz-adv-x="574" 
d="M248 -12q-78 0 -137.5 42.5t-59.5 117.5v2q0 78 61 122t162 44q86 0 169 -22v22q0 76 -44 116t-124 40t-160 -41l-18 43q95 44 181 44q105 0 161 -56q52 -52 52 -144v-318h-48v85q-69 -97 -195 -97zM251 34q80 0 136.5 44.5t56.5 112.5v58q-90 23 -173 23
q-80 0 -124 -32.5t-44 -86.5v-2q0 -53 43.5 -85t104.5 -32zM287 593q-56 0 -92.5 30t-40.5 82h39q21 -64 94 -64t94 64h39q-4 -52 -40.5 -82t-92.5 -30z" />
    <glyph glyph-name="uni04D2" unicode="&#x4d2;" horiz-adv-x="790" 
d="M44 0l326 705h50l326 -705h-57l-89 196h-413l-89 -196h-54zM209 243h369l-184 405zM447 775v76h73v-76h-73zM271 775v76h74v-76h-74z" />
    <glyph glyph-name="uni04D3" unicode="&#x4d3;" horiz-adv-x="574" 
d="M248 -12q-78 0 -137.5 42.5t-59.5 117.5v2q0 78 61 122t162 44q86 0 169 -22v22q0 76 -44 116t-124 40t-160 -41l-18 43q95 44 181 44q105 0 161 -56q52 -52 52 -144v-318h-48v85q-69 -97 -195 -97zM251 34q80 0 136.5 44.5t56.5 112.5v58q-90 23 -173 23
q-80 0 -124 -32.5t-44 -86.5v-2q0 -53 43.5 -85t104.5 -32zM334 595v80h69v-80h-69zM171 595v80h69v-80h-69z" />
    <glyph glyph-name="uni04D4" unicode="&#x4d4;" horiz-adv-x="1045" 
d="M20 0l424 700h533v-48h-431v-275h386v-48h-386v-281h436v-48h-488v196h-300l-118 -196h-56zM222 243h272v410h-26z" />
    <glyph glyph-name="uni04D5" unicode="&#x4d5;" horiz-adv-x="954" 
d="M243 -12q-77 0 -134.5 42.5t-57.5 117.5v2q0 78 60 122t158 44q77 0 160 -22v22q0 76 -42 116t-119 40q-73 0 -153 -41l-18 43q93 44 174 44q158 0 193 -128q31 60 85.5 96t120.5 36q105 0 169.5 -76t64.5 -191q0 -12 -1 -20h-423q7 -92 64.5 -146.5t135.5 -54.5
q100 0 175 80l34 -30q-89 -96 -211 -96q-63 0 -117.5 29.5t-88.5 82.5q-97 -112 -229 -112zM480 279h371q-6 84 -53 141t-130 57q-75 0 -128 -56.5t-60 -141.5zM246 34q118 0 204 107q-21 52 -22 109q-95 22 -162 22q-77 0 -120 -32.5t-43 -86.5v-2q0 -54 41 -85.5
t102 -31.5z" />
    <glyph glyph-name="uni04D6" unicode="&#x4d6;" horiz-adv-x="670" 
d="M104 0v700h498v-48h-446v-275h401v-48h-401v-281h451v-48h-503zM355 763q-56 0 -92.5 26.5t-40.5 73.5h44q18 -52 89 -52t89 52h44q-4 -47 -40.5 -73.5t-92.5 -26.5z" />
    <glyph glyph-name="uni04D7" unicode="&#x4d7;" horiz-adv-x="584" 
d="M308 -12q-103 0 -176.5 75t-73.5 191v2q0 112 69.5 189t172.5 77q105 0 169.5 -76t64.5 -191q0 -12 -1 -20h-423q7 -92 64.5 -146.5t135.5 -54.5q100 0 175 80l34 -30q-89 -96 -211 -96zM110 279h371q-6 84 -53 141t-130 57q-75 0 -128 -56.5t-60 -141.5zM300 593
q-56 0 -92.5 30t-40.5 82h39q21 -64 94 -64t94 64h39q-4 -52 -40.5 -82t-92.5 -30z" />
    <glyph glyph-name="uni04D8" unicode="&#x4d8;" horiz-adv-x="797" 
d="M94 577q121 135 294 135q150 0 243 -101.5t93 -259.5v-3q0 -153 -94.5 -256.5t-236.5 -103.5q-147 0 -234 103t-87 259q0 15 1 26h597q-7 123 -83 206t-199 83q-148 0 -257 -122zM393 36q118 0 193.5 82t83.5 210h-544q5 -131 78.5 -211.5t188.5 -80.5z" />
    <glyph glyph-name="uni04D9" unicode="&#x4d9;" horiz-adv-x="584" 
d="M276 522q103 0 176.5 -75t73.5 -191v-2q0 -112 -69.5 -189t-172.5 -77q-105 0 -169.5 76t-64.5 191q0 12 1 20h423q-7 92 -64.5 146.5t-135.5 54.5q-100 0 -175 -80l-34 30q89 96 211 96zM474 231h-371q6 -84 53 -141t130 -57q75 0 128 56.5t60 141.5z" />
    <glyph glyph-name="uni04DC" unicode="&#x4dc;" horiz-adv-x="1048" 
d="M31 700h66l294 -316h107v316h52v-316h106l295 316h66l-314 -336l318 -364h-65l-297 336h-109v-336h-52v336h-114l-294 -336h-63l318 364zM400 765v76h74v-76h-74zM576 765v76h73v-76h-73z" />
    <glyph glyph-name="uni04DD" unicode="&#x4dd;" horiz-adv-x="853" 
d="M451 510v-230h103l202 230h62l-223 -252l230 -258h-63l-207 235h-104v-235h-49v235h-105l-207 -235h-62l229 258l-222 252h63l201 -230h103v230h49zM474 595v80h69v-80h-69zM311 595v80h69v-80h-69z" />
    <glyph glyph-name="uni04DE" unicode="&#x4de;" horiz-adv-x="655" 
d="M85 573l-32 35q116 104 272 104q107 0 176 -51.5t69 -133.5v-2q0 -60 -38.5 -106t-110.5 -64q74 -15 119 -60t45 -107v-2q0 -85 -74.5 -141.5t-195.5 -56.5q-157 0 -271 95l31 38q106 -87 240 -87q95 0 155.5 43t60.5 108v2q0 69 -59.5 105.5t-164.5 36.5h-117v47h117
q92 0 150.5 38t58.5 109v2q0 62 -52.5 101.5t-139.5 39.5q-131 0 -239 -93zM374 775v76h73v-76h-73zM198 775v76h74v-76h-74z" />
    <glyph glyph-name="uni04DF" unicode="&#x4df;" horiz-adv-x="553" 
d="M43 54l27 41q88 -61 197 -61q79 0 125.5 29t46.5 75v1q0 46 -44.5 71.5t-120.5 25.5h-117v45h116q70 0 111 27t41 72v1q0 44 -40 70t-111 26q-103 0 -199 -66l-25 39q105 72 223 72q96 0 150 -38.5t54 -101.5v-2q0 -48 -32 -77.5t-79 -41.5q53 -9 89 -41t36 -82v-1
q0 -64 -59.5 -106.5t-164.5 -42.5q-129 0 -224 66zM317 595v80h69v-80h-69zM154 595v80h69v-80h-69z" />
    <glyph glyph-name="uni04E2" unicode="&#x4e2;" horiz-adv-x="790" 
d="M686 0h-52v622l-491 -622h-39v700h52v-609l481 609h49v-700zM240 786v49h310v-49h-310z" />
    <glyph glyph-name="uni04E3" unicode="&#x4e3;" horiz-adv-x="637" 
d="M93 0v510h49v-440l353 440h49v-510h-49v438l-353 -438h-49zM171 621v47h294v-47h-294z" />
    <glyph glyph-name="uni04E4" unicode="&#x4e4;" horiz-adv-x="790" 
d="M686 0h-52v622l-491 -622h-39v700h52v-609l481 609h49v-700zM447 760v76h73v-76h-73zM271 760v76h74v-76h-74z" />
    <glyph glyph-name="uni04E5" unicode="&#x4e5;" horiz-adv-x="637" 
d="M93 0v510h49v-440l353 440h49v-510h-49v438l-353 -438h-49zM365 595v80h69v-80h-69zM202 595v80h69v-80h-69z" />
    <glyph glyph-name="uni04E6" unicode="&#x4e6;" horiz-adv-x="850" 
d="M424 -12q-155 0 -253 106t-98 254v2q0 148 99 255t254 107t253 -106t98 -254v-2q0 -148 -99 -255t-254 -107zM426 35q128 0 212.5 91t84.5 222v2q0 131 -85.5 223t-213.5 92t-212.5 -91t-84.5 -222v-2q0 -131 85.5 -223t213.5 -92zM477 775v76h73v-76h-73zM301 775v76h74
v-76h-74z" />
    <glyph glyph-name="uni04E7" unicode="&#x4e7;" horiz-adv-x="640" 
d="M319 -12q-112 0 -186.5 78t-74.5 187v2q0 109 75.5 188t187.5 79t186.5 -78t74.5 -187v-2q0 -109 -75.5 -188t-187.5 -79zM321 34q90 0 149 64t59 155v2q0 92 -61 156.5t-149 64.5q-90 0 -149 -64t-59 -155v-2q0 -92 61 -156.5t149 -64.5zM367 595v80h69v-80h-69z
M204 595v80h69v-80h-69z" />
    <glyph glyph-name="uni04E8" unicode="&#x4e8;" horiz-adv-x="850" 
d="M424 -12q-155 0 -253 106t-98 254v2q0 148 99 255t254 107t253 -106t98 -254v-2q0 -148 -99 -255t-254 -107zM426 35q123 0 206.5 84t90.5 209h-597q8 -124 92.5 -208.5t207.5 -84.5zM424 665q-122 0 -205.5 -83t-91.5 -206h596q-9 122 -93.5 205.5t-205.5 83.5z" />
    <glyph glyph-name="uni04E9" unicode="&#x4e9;" horiz-adv-x="640" 
d="M319 -12q-112 0 -186.5 78t-74.5 187v2q0 109 75.5 188t187.5 79t186.5 -78t74.5 -187v-2q0 -109 -75.5 -188t-187.5 -79zM321 34q85 0 144 58t65 143h-421q8 -86 68 -143.5t144 -57.5zM319 476q-84 0 -142.5 -56.5t-66.5 -139.5h420q-9 84 -69 140t-142 56z" />
    <glyph glyph-name="uni04EE" unicode="&#x4ee;" horiz-adv-x="704" 
d="M253 0h-58l149 243l-307 457h61l274 -413l243 413h59zM210 786v49h310v-49h-310z" />
    <glyph glyph-name="uni04EF" unicode="&#x4ef;" horiz-adv-x="588" 
d="M308 54l184 456h54l-221 -528q-33 -78 -73.5 -111.5t-96.5 -33.5q-51 0 -101 22l17 43q39 -19 87 -19q40 0 69 27t57 93l-245 507h57zM151 621v47h294v-47h-294z" />
    <glyph glyph-name="uni04F0" unicode="&#x4f0;" horiz-adv-x="704" 
d="M253 0h-58l149 243l-307 457h61l274 -413l243 413h59zM241 760v76h74v-76h-74zM417 760v76h73v-76h-73z" />
    <glyph glyph-name="uni04F1" unicode="&#x4f1;" horiz-adv-x="588" 
d="M308 54l184 456h54l-221 -528q-33 -78 -73.5 -111.5t-96.5 -33.5q-51 0 -101 22l17 43q39 -19 87 -19q40 0 69 27t57 93l-245 507h57zM345 595v80h69v-80h-69zM182 595v80h69v-80h-69z" />
    <glyph glyph-name="uni04F2" unicode="&#x4f2;" horiz-adv-x="704" 
d="M253 0h-58l149 243l-307 457h61l274 -413l243 413h59zM404 760l93 118l59 -28l-107 -90h-45zM264 760l93 118l59 -28l-107 -90h-45z" />
    <glyph glyph-name="uni04F3" unicode="&#x4f3;" horiz-adv-x="588" 
d="M308 54l184 456h54l-221 -528q-33 -78 -73.5 -111.5t-96.5 -33.5q-51 0 -101 22l17 43q39 -19 87 -19q40 0 69 27t57 93l-245 507h57zM337 595l89 133l55 -29l-101 -104h-43zM201 595l89 133l55 -29l-101 -104h-43z" />
    <glyph glyph-name="uni04F4" unicode="&#x4f4;" horiz-adv-x="697" 
d="M541 0v293q-102 -33 -205 -33q-128 0 -194 55.5t-66 176.5v208h52v-196q0 -105 51 -150.5t161 -45.5q101 0 201 33v359h52v-700h-52zM386 760v76h73v-76h-73zM210 760v76h74v-76h-74z" />
    <glyph glyph-name="uni04F5" unicode="&#x4f5;" horiz-adv-x="585" 
d="M443 0v189q-92 -24 -164 -24q-207 0 -207 190v155h49v-152q0 -78 39 -112t123 -34q77 0 160 24v274h49v-510h-49zM329 595v80h69v-80h-69zM166 595v80h69v-80h-69z" />
    <glyph glyph-name="uni04F8" unicode="&#x4f8;" horiz-adv-x="920" 
d="M104 0v700h52v-265h202q117 0 188.5 -56.5t71.5 -155.5v-2q0 -105 -79 -163t-194 -58h-241zM156 48h192q97 0 157.5 46.5t60.5 123.5v2q0 80 -58 123.5t-154 43.5h-198v-339zM764 0v700h52v-700h-52zM335 760v76h74v-76h-74zM511 760v76h73v-76h-73z" />
    <glyph glyph-name="uni04F9" unicode="&#x4f9;" horiz-adv-x="765" 
d="M430 595v80h69v-80h-69zM267 595v80h69v-80h-69zM142 510v-187h181q92 0 145 -44t53 -116v-3q0 -72 -53 -116t-145 -44h-230v510h49zM142 278v-233h181q73 0 109.5 30.5t36.5 85.5v1q0 55 -36.5 85.5t-109.5 30.5h-181zM623 0v510h49v-510h-49z" />
    <glyph glyph-name="baht" unicode="&#xe3f;" horiz-adv-x="630" 
d="M355 779h46l-15 -84q73 -14 115.5 -58.5t42.5 -109.5q0 -125 -128 -169q158 -38 158 -168q0 -88 -65.5 -139t-174.5 -51h-70l-21 -118h-46l21 118h-118v700h229h12zM326 332h-6l-51 -287h66q88 0 139 38t51 105q0 70 -51.5 107t-147.5 37zM149 374h137l49 281h-7h-179
v-281zM495 521q0 52 -31.5 85.5t-88.5 44.5l-48 -277q78 2 123 40.5t45 106.5zM149 45h79l51 287h-130v-287z" />
    <glyph glyph-name="Wgrave" unicode="&#x1e80;" horiz-adv-x="1102" 
d="M304 -5l-254 705h58l220 -623l205 625h40l205 -625l220 623h54l-254 -705h-42l-205 608l-205 -608h-42zM572 765h-45l-107 90l59 28z" />
    <glyph glyph-name="wgrave" unicode="&#x1e81;" horiz-adv-x="861" 
d="M236 -4l-187 514h55l154 -448l154 450h39l154 -450l154 448h53l-187 -514h-42l-152 437l-153 -437h-42zM409 595l-107 103l61 30l88 -133h-42z" />
    <glyph glyph-name="Wacute" unicode="&#x1e82;" horiz-adv-x="1102" 
d="M304 -5l-254 705h58l220 -623l205 625h40l205 -625l220 623h54l-254 -705h-42l-205 608l-205 -608h-42zM530 765l93 118l59 -28l-107 -90h-45z" />
    <glyph glyph-name="wacute" unicode="&#x1e83;" horiz-adv-x="861" 
d="M236 -4l-187 514h55l154 -448l154 450h39l154 -450l154 448h53l-187 -514h-42l-152 437l-153 -437h-42zM409 595l88 133l61 -30l-107 -103h-42z" />
    <glyph glyph-name="Wdieresis" unicode="&#x1e84;" horiz-adv-x="1102" 
d="M304 -5l-254 705h58l220 -623l205 625h40l205 -625l220 623h54l-254 -705h-42l-205 608l-205 -608h-42zM603 765v76h73v-76h-73zM427 765v76h74v-76h-74z" />
    <glyph glyph-name="wdieresis" unicode="&#x1e85;" horiz-adv-x="861" 
d="M236 -4l-187 514h55l154 -448l154 450h39l154 -450l154 448h53l-187 -514h-42l-152 437l-153 -437h-42zM477 595v80h69v-80h-69zM314 595v80h69v-80h-69z" />
    <glyph glyph-name="Ygrave" unicode="&#x1ef2;" horiz-adv-x="716" 
d="M332 0v277l-300 423h65l262 -376l263 376h62l-300 -422v-278h-52zM379 760h-45l-107 90l59 28z" />
    <glyph glyph-name="ygrave" unicode="&#x1ef3;" horiz-adv-x="588" 
d="M308 54l184 456h54l-221 -528q-33 -78 -73.5 -111.5t-96.5 -33.5q-51 0 -101 22l17 43q39 -19 87 -19q40 0 69 27t57 93l-245 507h57zM277 595l-107 103l61 30l88 -133h-42z" />
    <glyph glyph-name="enspace" unicode="&#x2002;" horiz-adv-x="500" 
 />
    <glyph glyph-name="emspace" unicode="&#x2003;" horiz-adv-x="1000" 
 />
    <glyph glyph-name="threeperemspace" unicode="&#x2004;" horiz-adv-x="333" 
 />
    <glyph glyph-name="fourperemspace" unicode="&#x2005;" horiz-adv-x="250" 
 />
    <glyph glyph-name="figurespace" unicode="&#x2007;" horiz-adv-x="600" 
 />
    <glyph glyph-name="thinspace" unicode="&#x2009;" horiz-adv-x="133" 
 />
    <glyph glyph-name="hairspace" unicode="&#x200a;" horiz-adv-x="75" 
 />
    <glyph glyph-name="endash" unicode="&#x2013;" horiz-adv-x="528" 
d="M70 271v52h388v-52h-388z" />
    <glyph glyph-name="emdash" unicode="&#x2014;" horiz-adv-x="898" 
d="M70 271v52h758v-52h-758z" />
    <glyph glyph-name="quoteleft" unicode="&#x2018;" horiz-adv-x="230" 
d="M77 513v74q0 47 19 74t64 44l12 -25q-33 -17 -45.5 -35.5t-10.5 -46.5h27v-85h-66z" />
    <glyph glyph-name="quoteright" unicode="&#x2019;" horiz-adv-x="230" 
d="M70 508l-12 25q33 17 45.5 35.5t10.5 46.5h-27v85h66v-74q0 -47 -19 -74t-64 -44z" />
    <glyph glyph-name="quotesinglbase" unicode="&#x201a;" horiz-adv-x="230" 
d="M65 -107l-12 25q33 17 45.5 35.5t10.5 46.5h-27v85h66v-74q0 -47 -19 -74t-64 -44z" />
    <glyph glyph-name="quotedblleft" unicode="&#x201c;" horiz-adv-x="410" 
d="M257 513v74q0 47 19 74t64 44l12 -25q-33 -17 -45.5 -35.5t-10.5 -46.5h27v-85h-66zM77 513v74q0 47 19 74t64 44l12 -25q-33 -17 -45.5 -35.5t-10.5 -46.5h27v-85h-66z" />
    <glyph glyph-name="quotedblright" unicode="&#x201d;" horiz-adv-x="410" 
d="M250 508l-12 25q33 17 45.5 35.5t10.5 46.5h-27v85h66v-74q0 -47 -19 -74t-64 -44zM70 508l-12 25q33 17 45.5 35.5t10.5 46.5h-27v85h66v-74q0 -47 -19 -74t-64 -44z" />
    <glyph glyph-name="quotedblbase" unicode="&#x201e;" horiz-adv-x="410" 
d="M245 -107l-12 25q33 17 45.5 35.5t10.5 46.5h-27v85h66v-74q0 -47 -19 -74t-64 -44zM65 -107l-12 25q33 17 45.5 35.5t10.5 46.5h-27v85h66v-74q0 -47 -19 -74t-64 -44z" />
    <glyph glyph-name="dagger" unicode="&#x2020;" horiz-adv-x="410" 
d="M183 238l5 286l-125 -7v45l124 -7l-7 145h50l-7 -145l124 7v-45l-125 7l5 -286h-44z" />
    <glyph glyph-name="daggerdbl" unicode="&#x2021;" horiz-adv-x="430" 
d="M190 0l7 145l-124 -7v45l125 -7l-5 174l5 174l-125 -7v45l124 -7l-7 145h50l-7 -145l124 7v-45l-125 7l5 -174l-5 -174l125 7v-45l-124 7l7 -145h-50z" />
    <glyph glyph-name="bullet" unicode="&#x2022;" horiz-adv-x="470" 
d="M235 228q-51 0 -87.5 36t-36.5 87v2q0 50 37.5 86.5t86.5 36.5t86.5 -36.5t37.5 -86.5v-2q0 -51 -36.5 -87t-87.5 -36z" />
    <glyph glyph-name="ellipsis" unicode="&#x2026;" horiz-adv-x="680" 
d="M534 0v83h64v-83h-64zM308 0v83h64v-83h-64zM82 0v83h64v-83h-64z" />
    <glyph glyph-name="perthousand" unicode="&#x2030;" horiz-adv-x="1200" 
d="M210 393q44 0 72.5 38.5t28.5 95.5v2q0 58 -30 97t-73 39q-44 0 -72.5 -39t-28.5 -95v-2q0 -58 30 -97t73 -39zM208 350q-67 0 -110 52.5t-43 124.5v2q0 73 43.5 126t111.5 53q67 0 110 -52.5t43 -124.5v-2q0 -73 -43.5 -126t-111.5 -53zM696 700l-267 -363l-247 -337
h-54l265 360l249 340h54zM616 35q44 0 72.5 38.5t28.5 95.5v2q0 58 -30 97t-73 39q-44 0 -72.5 -39t-28.5 -95v-2q0 -58 30 -97t73 -39zM614 -8q-67 0 -110 52.5t-43 124.5v2q0 73 43.5 126t111.5 53q67 0 110 -52.5t43 -124.5v-2q0 -73 -43.5 -126t-111.5 -53zM992 35
q44 0 72.5 38.5t28.5 95.5v2q0 58 -30 97t-73 39q-44 0 -72.5 -39t-28.5 -95v-2q0 -58 30 -97t73 -39zM990 -8q-67 0 -110 52.5t-43 124.5v2q0 73 43.5 126t111.5 53q67 0 110 -52.5t43 -124.5v-2q0 -73 -43.5 -126t-111.5 -53z" />
    <glyph glyph-name="guilsinglleft" unicode="&#x2039;" horiz-adv-x="311" 
d="M211 42l-160 209v8l160 209l37 -24l-137 -188l137 -190z" />
    <glyph glyph-name="guilsinglright" unicode="&#x203a;" horiz-adv-x="311" 
d="M100 42l-37 24l137 188l-137 190l37 24l160 -209v-8z" />
    <glyph glyph-name="fraction" unicode="&#x2044;" horiz-adv-x="100" 
d="M-210 0l246 356l231 344h43l-246 -356l-231 -344h-43z" />
    <glyph glyph-name="zero.sup" unicode="&#x2070;" 
d="M199 416q-63 0 -101 56.5t-38 144.5v2q0 88 38.5 145.5t101.5 57.5t101.5 -56.5t38.5 -144.5v-2q0 -88 -39 -145.5t-102 -57.5zM199 787q-47 0 -73.5 -47.5t-26.5 -119.5v-2q0 -72 27 -119.5t74 -47.5t74 47.5t27 119.5v2q0 72 -27.5 119.5t-74.5 47.5z" />
    <glyph glyph-name="four.sup" unicode="&#x2074;" 
d="M295 515v-91h-37v91h-190l-12 32l194 271h45v-269h55v-34h-55zM258 549v219l-158 -219h158z" />
    <glyph glyph-name="five.sup" unicode="&#x2075;" 
d="M197 416q-79 0 -139 68l28 26q51 -59 112 -59q45 0 72.5 25.5t27.5 63.5t-27.5 60.5t-71.5 22.5q-43 0 -90 -22l-27 16l13 195h225v-39h-192l-9 -130q39 17 83 17q58 0 97 -32t39 -85q0 -55 -41 -91t-100 -36z" />
    <glyph glyph-name="six.sup" unicode="&#x2076;" 
d="M198 417q-57 0 -94 37q-46 46 -46 150v2q0 95 43 155.5t111 60.5q63 0 109 -48l-25 -27q-40 40 -86 40q-47 0 -80.5 -49t-33.5 -122q42 55 109 55q53 0 89 -34t36 -90q0 -55 -38 -92.5t-94 -37.5zM197 452q41 0 68 26t27 67t-25 66t-66 25t-69 -26t-28 -65
q0 -40 27.5 -66.5t65.5 -26.5z" />
    <glyph glyph-name="seven.sup" unicode="&#x2077;" 
d="M159 424h-45l176 349h-220v39h265v-29z" />
    <glyph glyph-name="eight.sup" unicode="&#x2078;" 
d="M200 416q-61 0 -100.5 31.5t-39.5 80.5q0 65 75 97q-63 30 -63 90q0 47 38.5 77t91.5 30q52 0 90 -30.5t38 -76.5q0 -60 -63 -90q33 -12 54 -37.5t21 -57.5q0 -51 -40 -82.5t-102 -31.5zM201 787q-40 0 -65.5 -20t-25.5 -52t25.5 -53.5t65.5 -21.5t65.5 21.5t25.5 53.5
t-25.5 52t-65.5 20zM201 608q-46 0 -74.5 -23t-28.5 -57t28.5 -55.5t74.5 -21.5t74.5 21.5t28.5 55.5t-28.5 57t-74.5 23z" />
    <glyph glyph-name="nine.sup" unicode="&#x2079;" 
d="M202 821q57 0 94 -37q46 -46 46 -150v-2q0 -97 -43 -156.5t-111 -59.5q-66 0 -114 50l25 27q42 -42 91 -42q47 0 80.5 47t33.5 120q-42 -55 -109 -55q-53 0 -89 34.5t-36 91.5q0 56 38 94t94 38zM199 598q41 0 69 26.5t28 66.5q0 41 -27.5 68t-65.5 27q-42 0 -68.5 -26.5
t-26.5 -68.5q0 -43 25 -68t66 -25z" />
    <glyph glyph-name="zero.inf" unicode="&#x2080;" 
d="M199 -142q-63 0 -101 56.5t-38 144.5v2q0 88 38.5 145.5t101.5 57.5t101.5 -56.5t38.5 -144.5v-2q0 -88 -39 -145.5t-102 -57.5zM199 229q-47 0 -73.5 -47.5t-26.5 -119.5v-2q0 -72 27 -119.5t74 -47.5t74 47.5t27 119.5v2q0 72 -27.5 119.5t-74.5 47.5z" />
    <glyph glyph-name="one.inf" unicode="&#x2081;" horiz-adv-x="325" 
d="M204 -132h-39v352l-90 -34l-9 35l105 40h33v-393z" />
    <glyph glyph-name="two.inf" unicode="&#x2082;" 
d="M61 -132v33l149 132q43 38 61.5 64.5t18.5 56.5q0 32 -23.5 53.5t-58.5 21.5q-64 0 -110 -72l-30 18q55 89 143 89q50 0 84.5 -31.5t34.5 -76.5q0 -39 -21 -69.5t-72 -75.5l-122 -106h219v-37h-273z" />
    <glyph glyph-name="three.inf" unicode="&#x2083;" 
d="M198 -142q-89 0 -143 74l29 24q46 -63 115 -63q37 0 63 23t26 58q0 37 -31.5 58.5t-80.5 21.5h-28l-8 24l133 139h-198v37h248v-32l-128 -134q59 -5 96 -34t37 -80q0 -50 -38.5 -83t-91.5 -33z" />
    <glyph glyph-name="four.inf" unicode="&#x2084;" 
d="M295 -43v-91h-37v91h-190l-12 32l194 271h45v-269h55v-34h-55zM258 -9v219l-158 -219h158z" />
    <glyph glyph-name="five.inf" unicode="&#x2085;" 
d="M197 -142q-79 0 -139 68l28 26q51 -59 112 -59q45 0 72.5 25.5t27.5 63.5t-27.5 60.5t-71.5 22.5q-43 0 -90 -22l-27 16l13 195h225v-39h-192l-9 -130q39 17 83 17q58 0 97 -32t39 -85q0 -55 -41 -91t-100 -36z" />
    <glyph glyph-name="six.inf" unicode="&#x2086;" 
d="M198 -141q-57 0 -94 37q-46 46 -46 150v2q0 95 43 155.5t111 60.5q63 0 109 -48l-25 -27q-40 40 -86 40q-47 0 -80.5 -49t-33.5 -122q42 55 109 55q53 0 89 -34t36 -90q0 -55 -38 -92.5t-94 -37.5zM197 -106q41 0 68 26t27 67t-25 66t-66 25t-69 -26t-28 -65
q0 -40 27.5 -66.5t65.5 -26.5z" />
    <glyph glyph-name="seven.inf" unicode="&#x2087;" 
d="M159 -134h-45l176 349h-220v39h265v-29z" />
    <glyph glyph-name="eight.inf" unicode="&#x2088;" 
d="M200 -142q-61 0 -100.5 31.5t-39.5 80.5q0 65 75 97q-63 30 -63 90q0 47 38.5 77t91.5 30q52 0 90 -30.5t38 -76.5q0 -60 -63 -90q33 -12 54 -37.5t21 -57.5q0 -51 -40 -82.5t-102 -31.5zM201 229q-40 0 -65.5 -20t-25.5 -52t25.5 -53.5t65.5 -21.5t65.5 21.5t25.5 53.5
t-25.5 52t-65.5 20zM201 50q-46 0 -74.5 -23t-28.5 -57t28.5 -55.5t74.5 -21.5t74.5 21.5t28.5 55.5t-28.5 57t-74.5 23z" />
    <glyph glyph-name="nine.inf" unicode="&#x2089;" 
d="M202 263q57 0 94 -37q46 -46 46 -150v-2q0 -97 -43 -156.5t-111 -59.5q-66 0 -114 50l25 27q42 -42 91 -42q47 0 80.5 47t33.5 120q-42 -55 -109 -55q-53 0 -89 34.5t-36 91.5q0 56 38 94t94 38zM199 40q41 0 69 26.5t28 66.5q0 41 -27.5 68t-65.5 27q-42 0 -68.5 -26.5
t-26.5 -68.5q0 -43 25 -68t66 -25z" />
    <glyph glyph-name="colonmonetary" unicode="&#x20a1;" horiz-adv-x="600" 
d="M475 779h44l-21 -118q19 -11 53 -39l-29 -36q-28 23 -35 28l-100 -571q71 10 141 76l28 -33q-82 -77 -174 -87l-21 -117h-44l20 116q-53 2 -97 19l-24 -135h-44l27 156q-67 43 -105.5 123t-38.5 185v7q0 145 73.5 240t187.5 108l14 78h44l-14 -76q56 -3 98 -21zM104 347
q0 -174 107 -260l99 570q-91 -15 -148.5 -96.5t-57.5 -206.5v-7zM246 65q46 -25 102 -25l104 596q-44 23 -102 24z" />
    <glyph glyph-name="naira" unicode="&#x20a6;" horiz-adv-x="820" 
d="M769 238h-98v-238h-69l-148 238h-257v-238h-48v238h-98v42h98v144h-98v42h98v234h75l145 -234h254v234h48v-234h98v-42h-98v-144h98v-42zM197 424v-144h234l-90 144h-144zM392 424l90 -144h141v144h-231zM197 654v-190h119zM507 240l116 -185v185h-116z" />
    <glyph glyph-name="rupee" unicode="&#x20a8;" horiz-adv-x="1070" 
d="M85 0v700h232q108 0 173 -56.5t65 -146.5v-2q0 -80 -49 -133t-128 -70l203 -292h-62l-196 284h-189v-284h-49zM134 328h178q86 0 139.5 44.5t53.5 120.5v2q0 75 -51 117t-140 42h-180v-326zM839 -10q-108 0 -197 72l29 38q84 -65 171 -65q52 0 87 26.5t35 68.5v2
q0 34 -27.5 56.5t-100.5 46.5q-92 29 -131 62t-39 86v2q0 59 47 97.5t116 38.5q90 0 173 -57l-25 -41q-77 53 -150 53q-50 0 -81 -25.5t-31 -63.5v-2q0 -35 29.5 -57.5t106.5 -46.5q88 -27 125 -60t37 -87v-2q0 -64 -50.5 -103t-123.5 -39z" />
    <glyph glyph-name="won" unicode="&#x20a9;" horiz-adv-x="1100" 
d="M1010 700l-68 -234h115v-41h-127l-42 -146h169v-41h-181l-70 -241h-60l-73 241h-246l-73 -241h-60l-70 241h-181v41h169l-42 146h-127v41h115l-68 234h56l65 -234h238l70 236h66l68 -236h239l66 234h52zM482 425l-42 -146h220l-43 146h-135zM222 425l39 -146h134l42 146
h-215zM666 425l42 -146h133l39 146h-214zM325 44h4l55 194h-112zM775 44h4l51 194h-111zM548 648l-54 -182h111l-53 182h-4z" />
    <glyph glyph-name="sheqel" unicode="&#x20aa;" horiz-adv-x="620" 
d="M238 139l-34 210h46l33 -199q8 -54 35 -79.5t79 -25.5h98v465h47v-510h-146q-70 0 -108.5 34t-49.5 105zM355 358q0 57 -27.5 82t-86.5 25h-116v-465h-47v510h164q81 0 119.5 -35.5t38.5 -114.5v-189h-45v187z" />
    <glyph glyph-name="Euro" unicode="&#x20ac;" horiz-adv-x="720" 
d="M661 572l-40 -27q-43 63 -88.5 92t-113.5 29q-74 0 -131.5 -56t-82.5 -146h283v-48h-294q-4 -28 -4 -65q0 -31 3 -58h295v-48h-287q24 -96 85 -153.5t145 -57.5q111 0 194 128l38 -25q-97 -149 -235 -149q-102 0 -177.5 70.5t-101.5 186.5h-90v48h82q-2 18 -2 56t4 67
h-84v48h94q28 109 100.5 178.5t167.5 69.5q147 0 240 -140z" />
    <glyph glyph-name="peso" unicode="&#x20b1;" horiz-adv-x="710" 
d="M136 0v457h-97v43h97v200h187q112 0 183 -53.5t76 -146.5h99v-43h-99q-6 -98 -83.5 -152t-188.5 -54h-122v-251h-52zM313 298q94 0 153.5 43.5t64.5 116.5h-344v-160h126zM187 653v-154h344q-6 74 -62.5 114t-149.5 40h-132z" />
    <glyph glyph-name="hryvnia" unicode="&#x20b4;" horiz-adv-x="631" 
d="M64 434l6 41l321 -38q47 37 65.5 64t18.5 59q0 50 -38.5 77.5t-101.5 27.5q-102 0 -189 -75l-30 39q41 36 100 59.5t120 23.5q92 0 143 -43t51 -109q0 -38 -18 -67.5t-58 -63.5l138 -16l-6 -41l-178 21l-114 -88l278 -33l-6 -41l-319 38q-52 -42 -70.5 -70.5t-18.5 -57.5
q0 -53 40.5 -79.5t105.5 -26.5q106 0 205 75l30 -40q-113 -82 -236 -82q-100 0 -150 42t-50 109t81 137l-140 17l6 41l179 -22l115 88z" />
    <glyph glyph-name="numero" unicode="&#x2116;" horiz-adv-x="1120" 
d="M89 0v700h48l403 -603v603h48v-700h-40l-411 617v-617h-48zM883 288q-77 0 -126 59t-49 145v6q0 86 50.5 145.5t126.5 59.5q77 0 126 -59t49 -145v-6q0 -86 -50.5 -145.5t-126.5 -59.5zM884 329q57 0 94 47.5t37 115.5v6q0 69 -37 116.5t-94 47.5t-94 -47.5t-37 -115.5
v-6q0 -69 37 -116.5t94 -47.5zM710 150v41h348v-41h-348z" />
    <glyph glyph-name="published" unicode="&#x2117;" horiz-adv-x="830" 
d="M414 -12q-151 0 -256 105.5t-105 254.5v2q0 149 106 255.5t257 106.5t256 -105.5t105 -254.5v-2q0 -149 -106 -255.5t-257 -106.5zM414 16q141 0 237 97.5t96 236.5v2q0 138 -95 235t-236 97t-237 -97.5t-96 -236.5v-2q0 -138 95 -235t236 -97zM296 175v366h141
q66 0 104.5 -30t38.5 -85v-2q0 -58 -43 -89.5t-107 -31.5h-90v-128h-44zM340 344h91q48 0 76 20.5t28 57.5v2q0 76 -101 76h-94v-156z" />
    <glyph glyph-name="servicemark" unicode="&#x2120;" horiz-adv-x="708" 
d="M351 392v308h37l120 -183l120 183h36v-308h-35v246l-119 -178h-5l-119 178v-246h-35zM164 387q-74 0 -130 50l22 26q49 -44 109 -44q32 0 52 15.5t20 39.5q0 22 -18 35t-65 23q-56 12 -81 31.5t-25 56.5t30.5 61t76.5 24q62 0 110 -38l-21 -26q-41 32 -90 32
q-32 0 -51 -14.5t-19 -36.5t17.5 -35t67.5 -24q53 -12 78.5 -32t25.5 -55q0 -40 -31.5 -64.5t-77.5 -24.5z" />
    <glyph glyph-name="trademark" unicode="&#x2122;" horiz-adv-x="690" 
d="M333 392v308h37l120 -183l120 183h36v-308h-35v246l-119 -178h-5l-119 178v-246h-35zM127 392v274h-101v34h237v-34h-101v-274h-35z" />
    <glyph glyph-name="Omega" unicode="&#x2126;" horiz-adv-x="868" 
d="M434 712q152 0 248 -95.5t96 -241.5q0 -192 -197 -329l222 2v-48h-296v44q71 46 115.5 89t73 104.5t28.5 136.5q0 129 -80.5 210t-209.5 81t-209.5 -81t-80.5 -210q0 -73 28 -134t73.5 -105.5t115.5 -90.5v-44h-296v48l221 -2q-97 69 -146.5 148.5t-49.5 180.5
q0 143 96 240t248 97z" />
    <glyph glyph-name="onethird" unicode="&#x2153;" horiz-adv-x="825" 
d="M633 -10q-89 0 -143 74l29 24q47 -63 115 -63q37 0 63 23t26 58q0 37 -31.5 58.5t-80.5 21.5h-28l-8 24l133 139h-198v37h248v-32l-128 -134q59 -5 96 -34t37 -80q0 -50 -38.5 -83t-91.5 -33zM117 0l246 356l231 344h43l-246 -356l-231 -344h-43zM199 314h-39v352
l-90 -34l-9 35l105 40h33v-393z" />
    <glyph glyph-name="twothirds" unicode="&#x2154;" horiz-adv-x="900" 
d="M708 -10q-89 0 -143 74l29 24q46 -63 115 -63q37 0 63 23t26 58q0 37 -31.5 58.5t-80.5 21.5h-28l-8 24l133 139h-198v37h248v-32l-128 -134q59 -5 96 -34t37 -80q0 -50 -38.5 -83t-91.5 -33zM190 0l246 356l231 344h43l-246 -356l-231 -344h-43zM51 314v33l149 132
q43 38 61.5 64.5t18.5 56.5q0 32 -23.5 53.5t-58.5 21.5q-64 0 -110 -72l-30 18q55 89 143 89q50 0 84.5 -31.5t34.5 -76.5q0 -39 -21 -69.5t-72 -75.5l-122 -106h219v-37h-273z" />
    <glyph glyph-name="onefifth" unicode="&#x2155;" horiz-adv-x="825" 
d="M632 -10q-80 0 -139 68l28 26q51 -59 112 -59q45 0 72.5 25.5t27.5 63.5t-27.5 60.5t-71.5 22.5q-43 0 -90 -22l-27 16l13 195h225v-39h-192l-9 -130q39 17 83 17q58 0 97 -32t39 -85q0 -55 -41 -91t-100 -36zM122 0l246 356l231 344h43l-246 -356l-231 -344h-43z
M199 314h-39v352l-90 -34l-9 35l105 40h33v-393z" />
    <glyph glyph-name="twofifths" unicode="&#x2156;" horiz-adv-x="900" 
d="M707 -10q-79 0 -139 68l28 26q51 -59 112 -59q45 0 72.5 25.5t27.5 63.5t-27.5 60.5t-71.5 22.5q-43 0 -90 -22l-27 16l13 195h225v-39h-192l-9 -130q39 17 83 17q58 0 97 -32t39 -85q0 -55 -41 -91t-100 -36zM200 0l246 356l231 344h43l-246 -356l-231 -344h-43zM51 314
v33l149 132q43 38 61.5 64.5t18.5 56.5q0 32 -23.5 53.5t-58.5 21.5q-64 0 -110 -72l-30 18q55 89 143 89q50 0 84.5 -31.5t34.5 -76.5q0 -39 -21 -69.5t-72 -75.5l-122 -106h219v-37h-273z" />
    <glyph glyph-name="threefifths" unicode="&#x2157;" horiz-adv-x="900" 
d="M707 -10q-79 0 -139 68l28 26q51 -59 112 -59q45 0 72.5 25.5t27.5 63.5t-27.5 60.5t-71.5 22.5q-43 0 -90 -22l-27 16l13 195h225v-39h-192l-9 -130q39 17 83 17q58 0 97 -32t39 -85q0 -55 -41 -91t-100 -36zM185 0l246 356l231 344h43l-246 -356l-231 -344h-43z
M188 304q-89 0 -143 74l29 24q46 -63 115 -63q37 0 63 23t26 58q0 37 -31.5 58.5t-80.5 21.5h-28l-8 24l133 139h-198v37h248v-32l-128 -134q59 -5 96 -34t37 -80q0 -50 -38.5 -83t-91.5 -33z" />
    <glyph glyph-name="fourfifths" unicode="&#x2158;" horiz-adv-x="900" 
d="M285 403v-91h-37v91h-190l-12 32l194 271h45v-269h55v-34h-55zM707 -10q-79 0 -139 68l28 26q51 -59 112 -59q45 0 72.5 25.5t27.5 63.5t-27.5 60.5t-71.5 22.5q-43 0 -90 -22l-27 16l13 195h225v-39h-192l-9 -130q39 17 83 17q58 0 97 -32t39 -85q0 -55 -41 -91
t-100 -36zM200 0l246 356l231 344h43l-246 -356l-231 -344h-43zM248 437v219l-158 -219h158z" />
    <glyph glyph-name="onesixth" unicode="&#x2159;" horiz-adv-x="825" 
d="M633 -9q-57 0 -94 37q-46 46 -46 150v2q0 95 43 155.5t111 60.5q63 0 109 -48l-25 -27q-40 40 -86 40q-47 0 -80.5 -49t-33.5 -122q42 55 109 55q53 0 89 -34t36 -90q0 -55 -38 -92.5t-94 -37.5zM130 0l246 356l231 344h43l-246 -356l-231 -344h-43zM632 26q41 0 68 26
t27 67t-25 66t-66 25t-69 -26t-28 -65q0 -40 27.5 -66.5t65.5 -26.5zM199 314h-39v352l-90 -34l-9 35l105 40h33v-393z" />
    <glyph glyph-name="fivesixths" unicode="&#x215a;" horiz-adv-x="900" 
d="M708 -9q-57 0 -94 37q-46 46 -46 150v2q0 95 43 155.5t111 60.5q63 0 109 -48l-25 -27q-40 40 -86 40q-47 0 -80.5 -49t-33.5 -122q42 55 109 55q53 0 89 -34t36 -90q0 -55 -38 -92.5t-94 -37.5zM187 304q-79 0 -139 68l28 26q51 -59 112 -59q45 0 72.5 25.5t27.5 63.5
t-27.5 60.5t-71.5 22.5q-43 0 -90 -22l-27 16l13 195h225v-39h-192l-9 -130q39 17 83 17q58 0 97 -32t39 -85q0 -55 -41 -91t-100 -36zM190 0l246 356l231 344h43l-246 -356l-231 -344h-43zM707 26q41 0 68 26t27 67t-25 66t-66 25t-69 -26t-28 -65q0 -40 27.5 -66.5
t65.5 -26.5z" />
    <glyph glyph-name="oneeighth" unicode="&#x215b;" horiz-adv-x="825" 
d="M635 -10q-61 0 -100.5 31.5t-39.5 80.5q0 65 75 97q-63 30 -63 90q0 47 38.5 77t91.5 30q52 0 90 -30.5t38 -76.5q0 -60 -63 -90q33 -12 54 -37.5t21 -57.5q0 -51 -40 -82.5t-102 -31.5zM636 361q-40 0 -65.5 -20t-25.5 -52t25.5 -53.5t65.5 -21.5t65.5 21.5t25.5 53.5
t-25.5 52t-65.5 20zM636 182q-46 0 -74.5 -23t-28.5 -57t28.5 -55.5t74.5 -21.5t74.5 21.5t28.5 55.5t-28.5 57t-74.5 23zM130 0l246 356l231 344h43l-246 -356l-231 -344h-43zM199 314h-39v352l-90 -34l-9 35l105 40h33v-393z" />
    <glyph glyph-name="threeeighths" unicode="&#x215c;" horiz-adv-x="900" 
d="M710 -10q-61 0 -100.5 31.5t-39.5 80.5q0 65 75 97q-63 30 -63 90q0 47 38.5 77t91.5 30q52 0 90 -30.5t38 -76.5q0 -60 -63 -90q33 -12 54 -37.5t21 -57.5q0 -51 -40 -82.5t-102 -31.5zM711 361q-40 0 -65.5 -20t-25.5 -52t25.5 -53.5t65.5 -21.5t65.5 21.5t25.5 53.5
t-25.5 52t-65.5 20zM711 182q-46 0 -74.5 -23t-28.5 -57t28.5 -55.5t74.5 -21.5t74.5 21.5t28.5 55.5t-28.5 57t-74.5 23zM190 0l246 356l231 344h43l-246 -356l-231 -344h-43zM188 304q-89 0 -143 74l29 24q46 -63 115 -63q37 0 63 23t26 58q0 37 -31.5 58.5t-80.5 21.5
h-28l-8 24l133 139h-198v37h248v-32l-128 -134q59 -5 96 -34t37 -80q0 -50 -38.5 -83t-91.5 -33z" />
    <glyph glyph-name="fiveeighths" unicode="&#x215d;" horiz-adv-x="900" 
d="M710 -10q-61 0 -100.5 31.5t-39.5 80.5q0 65 75 97q-63 30 -63 90q0 47 38.5 77t91.5 30q52 0 90 -30.5t38 -76.5q0 -60 -63 -90q33 -12 54 -37.5t21 -57.5q0 -51 -40 -82.5t-102 -31.5zM711 361q-40 0 -65.5 -20t-25.5 -52t25.5 -53.5t65.5 -21.5t65.5 21.5t25.5 53.5
t-25.5 52t-65.5 20zM711 182q-46 0 -74.5 -23t-28.5 -57t28.5 -55.5t74.5 -21.5t74.5 21.5t28.5 55.5t-28.5 57t-74.5 23zM190 0l246 356l231 344h43l-246 -356l-231 -344h-43zM187 304q-79 0 -139 68l28 26q51 -59 112 -59q45 0 72.5 25.5t27.5 63.5t-27.5 60.5t-71.5 22.5
q-43 0 -90 -22l-27 16l13 195h225v-39h-192l-9 -130q39 17 83 17q58 0 97 -32t39 -85q0 -55 -41 -91t-100 -36z" />
    <glyph glyph-name="seveneighths" unicode="&#x215e;" horiz-adv-x="900" 
d="M710 -10q-61 0 -100.5 31.5t-39.5 80.5q0 65 75 97q-63 30 -63 90q0 47 38.5 77t91.5 30q52 0 90 -30.5t38 -76.5q0 -60 -63 -90q33 -12 54 -37.5t21 -57.5q0 -51 -40 -82.5t-102 -31.5zM711 361q-40 0 -65.5 -20t-25.5 -52t25.5 -53.5t65.5 -21.5t65.5 21.5t25.5 53.5
t-25.5 52t-65.5 20zM711 182q-46 0 -74.5 -23t-28.5 -57t28.5 -55.5t74.5 -21.5t74.5 21.5t28.5 55.5t-28.5 57t-74.5 23zM160 0l246 356l231 344h43l-246 -356l-231 -344h-43zM159 312h-45l176 349h-220v39h265v-29z" />
    <glyph glyph-name="Delta" unicode="&#x2206;" horiz-adv-x="790" 
d="M55 0l-5 39l320 666h50l320 -666l-5 -39h-680zM108 48h570l-284 598z" />
    <glyph glyph-name="minus" unicode="&#x2212;" horiz-adv-x="620" 
d="M552 327h-484v50h484v-50z" />
    <glyph glyph-name="Q.alt" horiz-adv-x="850" 
d="M737 -101l-143 131q-76 -42 -170 -42q-155 0 -253 106t-98 254v2q0 148 99 255t254 107t253 -106t98 -254v-2q0 -86 -35.5 -162t-99.5 -126l171 -160v-3h-76zM426 35q128 0 212.5 91t84.5 222v2q0 131 -85.5 223t-213.5 92t-212.5 -91t-84.5 -222v-2q0 -131 85.5 -223
t213.5 -92z" />
    <glyph glyph-name="a.alt" horiz-adv-x="660" 
d="M308 -12q-98 0 -173 73t-75 192v2q0 119 75 193t173 74q130 0 210 -122v110h49v-510h-49v114q-83 -126 -210 -126zM313 35q83 0 145.5 62.5t62.5 156.5v2q0 95 -62.5 157t-145.5 62q-86 0 -143 -59t-57 -159v-2q0 -98 58.5 -159t141.5 -61z" />
    <glyph glyph-name="uni039E.alt" horiz-adv-x="748" 
d="M685 48v-48h-622v48h285v281h-252v48h252v275h-280v48h612v-48h-280v-275h252v-48h-252v-281h285z" />
    <glyph glyph-name="uni0424.bgr" horiz-adv-x="910" 
d="M429 -100v99q-157 4 -256.5 103.5t-99.5 245.5v2q0 144 99.5 245t256.5 106v99h52v-99q157 -4 256.5 -104t99.5 -245v-2q0 -145 -99.5 -245.5t-256.5 -105.5v-99h-52zM127 350q0 -129 86 -214.5t216 -90.5v610q-131 -5 -216.5 -90.5t-85.5 -212.5v-2zM783 350
q0 127 -85.5 212.5t-216.5 91.5v-609q132 6 217 90.5t85 212.5v2z" />
    <glyph glyph-name="uni0432.bgr" horiz-adv-x="636" 
d="M335 -12q-121 0 -186.5 64t-65.5 194v242q0 116 64.5 182.5t174.5 66.5q102 0 163.5 -53t61.5 -138q0 -70 -43.5 -115.5t-119.5 -61.5q194 -39 194 -186q0 -83 -64 -139t-179 -56zM337 34q87 0 137.5 42.5t50.5 108.5q0 75 -66 116.5t-199 41.5h-128v-97q0 -212 205 -212
zM132 488v-101h127q109 0 172 42.5t63 117.5q0 64 -47 104t-125 40q-88 0 -139 -54t-51 -149z" />
    <glyph glyph-name="uni0433.bgr" horiz-adv-x="505" 
d="M236 -10q-84 0 -128.5 35t-44.5 97v2q0 58 42 91t139 66q92 31 121 53.5t29 57.5v2q0 35 -28.5 57.5t-85.5 22.5q-93 0 -175 -54l-26 40q93 60 201 60q79 0 122 -35t43 -92v-2q0 -55 -42 -86.5t-144 -65.5q-80 -26 -112.5 -49.5t-32.5 -63.5v-2q0 -88 126 -88
q100 0 189 66l27 -39q-105 -73 -220 -73z" />
    <glyph glyph-name="uni0434.bgr" horiz-adv-x="660" 
d="M317 -162q-129 0 -234 78l29 40q93 -72 206 -72q91 0 145.5 51t54.5 147v74q-82 -118 -213 -118q-97 0 -171 67.5t-74 172.5v2q0 106 74 174t171 68q133 0 213 -114v102h49v-431q0 -108 -65 -173q-68 -68 -185 -68zM310 85q83 0 147 55t64 139v2q0 85 -63.5 139.5
t-147.5 54.5q-83 0 -140 -53t-57 -140v-2q0 -84 58 -139.5t139 -55.5z" />
    <glyph glyph-name="uni0436.bgr" horiz-adv-x="853" 
d="M451 730v-450h103l202 230h62l-223 -252l230 -258h-63l-207 235h-104v-235h-49v235h-105l-207 -235h-62l229 258l-222 252h63l201 -230h103v450h49z" />
    <glyph glyph-name="uni0438.bgr" horiz-adv-x="613" 
d="M287 -12q-95 0 -149.5 58.5t-54.5 151.5v312h49v-303q0 -80 43 -127t119 -47t126.5 51.5t50.5 130.5v295h49v-510h-49v95q-61 -107 -184 -107z" />
    <glyph glyph-name="uni0439.bgr" horiz-adv-x="613" 
d="M287 -12q-95 0 -149.5 58.5t-54.5 151.5v312h49v-303q0 -80 43 -127t119 -47t126.5 51.5t50.5 130.5v295h49v-510h-49v95q-61 -107 -184 -107zM301 593q-56 0 -92.5 30t-40.5 82h39q21 -64 94 -64t94 64h39q-4 -52 -40.5 -82t-92.5 -30z" />
    <glyph glyph-name="uni043A.bgr" horiz-adv-x="560" 
d="M534 0h-65l-211 235h-116v-235h-49v730h49v-450h113l211 230h63l-230 -249z" />
    <glyph glyph-name="uni043F.bgr" horiz-adv-x="613" 
d="M93 0v510h49v-95q61 107 184 107q95 0 149.5 -58.5t54.5 -151.5v-312h-49v303q0 80 -43 127t-119 47t-126.5 -51.5t-50.5 -130.5v-295h-49z" />
    <glyph glyph-name="uni0442.bgr" horiz-adv-x="947" 
d="M93 0v510h49v-91q30 48 69 75.5t101 27.5q120 0 172 -110q64 110 184 110q90 0 143 -58t53 -155v-309h-49v303q0 82 -40 128t-111 46q-67 0 -114 -49t-47 -131v-297h-49v306q0 79 -40.5 125t-108.5 46t-115.5 -53t-47.5 -130v-294h-49z" />
    <glyph glyph-name="uni0446.bgr" horiz-adv-x="608" 
d="M517 -140v140h-46v95q-61 -107 -184 -107q-95 0 -149.5 58.5t-54.5 151.5v312h49v-303q0 -80 43 -127t119 -47t126.5 51.5t50.5 130.5v295h49v-465h43v-185h-46z" />
    <glyph glyph-name="uni0448.bgr" horiz-adv-x="947" 
d="M854 510v-510h-49v91q-30 -48 -69 -75.5t-101 -27.5q-120 0 -172 110q-64 -110 -184 -110q-90 0 -143 58t-53 155v309h49v-303q0 -82 40 -128t111 -46q67 0 114 49t47 131v297h49v-306q0 -79 40.5 -125t108.5 -46t115.5 53t47.5 130v294h49z" />
    <glyph glyph-name="uni0449.bgr" horiz-adv-x="946" 
d="M854 510v-465h47v-185h-46v140h-50v91q-30 -48 -69 -75.5t-101 -27.5q-120 0 -172 110q-64 -110 -184 -110q-90 0 -143 58t-53 155v309h49v-303q0 -82 40 -128t111 -46q67 0 114 49t47 131v297h49v-306q0 -79 40.5 -125t108.5 -46t115.5 53t47.5 130v294h49z" />
    <glyph glyph-name="uni044E.bgr" horiz-adv-x="854" 
d="M142 235v-235h-49v730h49v-450h143q8 102 79.5 172t176.5 70q111 0 183 -77.5t72 -187.5v-2q0 -110 -72.5 -188.5t-184.5 -78.5q-106 0 -177 71.5t-78 175.5h-142zM541 34q89 0 145.5 63.5t56.5 155.5v2q0 93 -58 157t-146 64q-89 0 -145.5 -63.5t-56.5 -155.5v-2
q0 -93 58 -157t146 -64z" />
    <glyph glyph-name="aacute.alt" horiz-adv-x="660" 
d="M308 -12q-98 0 -173 73t-75 192v2q0 119 75 193t173 74q130 0 210 -122v110h49v-510h-49v114q-83 -126 -210 -126zM313 35q83 0 145.5 62.5t62.5 156.5v2q0 95 -62.5 157t-145.5 62q-86 0 -143 -59t-57 -159v-2q0 -98 58.5 -159t141.5 -61zM311 595l88 133l61 -30
l-107 -103h-42z" />
    <glyph glyph-name="abreve.alt" horiz-adv-x="660" 
d="M308 -12q-98 0 -173 73t-75 192v2q0 119 75 193t173 74q130 0 210 -122v110h49v-510h-49v114q-83 -126 -210 -126zM313 35q83 0 145.5 62.5t62.5 156.5v2q0 95 -62.5 157t-145.5 62q-86 0 -143 -59t-57 -159v-2q0 -98 58.5 -159t141.5 -61zM332 593q-56 0 -92.5 30
t-40.5 82h39q21 -64 94 -64t94 64h39q-4 -52 -40.5 -82t-92.5 -30z" />
    <glyph glyph-name="acircumflex.alt" horiz-adv-x="660" 
d="M308 -12q-98 0 -173 73t-75 192v2q0 119 75 193t173 74q130 0 210 -122v110h49v-510h-49v114q-83 -126 -210 -126zM313 35q83 0 145.5 62.5t62.5 156.5v2q0 95 -62.5 157t-145.5 62q-86 0 -143 -59t-57 -159v-2q0 -98 58.5 -159t141.5 -61zM212 595l100 122h40l100 -122
h-47l-74 68l-74 -68h-45z" />
    <glyph glyph-name="adieresis.alt" horiz-adv-x="660" 
d="M308 -12q-98 0 -173 73t-75 192v2q0 119 75 193t173 74q130 0 210 -122v110h49v-510h-49v114q-83 -126 -210 -126zM313 35q83 0 145.5 62.5t62.5 156.5v2q0 95 -62.5 157t-145.5 62q-86 0 -143 -59t-57 -159v-2q0 -98 58.5 -159t141.5 -61zM379 595v80h69v-80h-69z
M216 595v80h69v-80h-69z" />
    <glyph glyph-name="agrave.alt" horiz-adv-x="660" 
d="M308 -12q-98 0 -173 73t-75 192v2q0 119 75 193t173 74q130 0 210 -122v110h49v-510h-49v114q-83 -126 -210 -126zM313 35q83 0 145.5 62.5t62.5 156.5v2q0 95 -62.5 157t-145.5 62q-86 0 -143 -59t-57 -159v-2q0 -98 58.5 -159t141.5 -61zM311 595l-107 103l61 30
l88 -133h-42z" />
    <glyph glyph-name="amacron.alt" horiz-adv-x="660" 
d="M308 -12q-98 0 -173 73t-75 192v2q0 119 75 193t173 74q130 0 210 -122v110h49v-510h-49v114q-83 -126 -210 -126zM313 35q83 0 145.5 62.5t62.5 156.5v2q0 95 -62.5 157t-145.5 62q-86 0 -143 -59t-57 -159v-2q0 -98 58.5 -159t141.5 -61zM185 621v47h294v-47h-294z" />
    <glyph glyph-name="aogonek.alt" horiz-adv-x="660" 
d="M583 -128v-36q-61 2 -93.5 23t-32.5 56q0 46 61 93v106q-83 -126 -210 -126q-98 0 -173 73t-75 192v2q0 119 75 193t173 74q130 0 210 -122v110h49v-510h-4q-31 -24 -43.5 -41.5t-12.5 -37.5q0 -42 76 -49zM313 35q83 0 145.5 62.5t62.5 156.5v2q0 95 -62.5 157
t-145.5 62q-86 0 -143 -59t-57 -159v-2q0 -98 58.5 -159t141.5 -61z" />
    <glyph glyph-name="aring.alt" horiz-adv-x="660" 
d="M308 -12q-98 0 -173 73t-75 192v2q0 119 75 193t173 74q130 0 210 -122v110h49v-510h-49v114q-83 -126 -210 -126zM313 35q83 0 145.5 62.5t62.5 156.5v2q0 95 -62.5 157t-145.5 62q-86 0 -143 -59t-57 -159v-2q0 -98 58.5 -159t141.5 -61zM332 593q-43 0 -73.5 29.5
t-30.5 70.5t30.5 70.5t73.5 29.5t73.5 -29.5t30.5 -70.5t-30.5 -70.5t-73.5 -29.5zM332 623q28 0 49 20.5t21 49.5t-21 49.5t-49 20.5t-49 -20.5t-21 -49.5t21 -49.5t49 -20.5z" />
    <glyph glyph-name="aring.alt2" horiz-adv-x="574" 
d="M248 -12q-78 0 -137.5 42.5t-59.5 117.5v2q0 78 61 122t162 44q86 0 169 -22v22q0 76 -44 116t-124 40t-160 -41l-18 43q70 32 124 40q-38 28 -38 74q0 41 30.5 70.5t73.5 29.5t73.5 -29.5t30.5 -70.5q0 -50 -43 -78q53 -11 91 -48q52 -52 52 -144v-318h-48v85
q-69 -97 -195 -97zM251 34q80 0 136.5 44.5t56.5 112.5v58q-90 23 -173 23q-80 0 -124 -32.5t-44 -86.5v-2q0 -53 43.5 -85t104.5 -32zM217 588q0 -28 20.5 -49t49.5 -21t49.5 21t20.5 49t-20.5 49t-49.5 21t-49.5 -21t-20.5 -49z" />
    <glyph glyph-name="aringacute.alt" horiz-adv-x="660" 
d="M310 820l89 118l59 -30l-104 -88h-44zM308 -12q-98 0 -173 73t-75 192v2q0 119 75 193t173 74q130 0 210 -122v110h49v-510h-49v114q-83 -126 -210 -126zM313 35q83 0 145.5 62.5t62.5 156.5v2q0 95 -62.5 157t-145.5 62q-86 0 -143 -59t-57 -159v-2q0 -98 58.5 -159
t141.5 -61zM332 593q-43 0 -73.5 29.5t-30.5 70.5t30.5 70.5t73.5 29.5t73.5 -29.5t30.5 -70.5t-30.5 -70.5t-73.5 -29.5zM332 623q28 0 49 20.5t21 49.5t-21 49.5t-49 20.5t-49 -20.5t-21 -49.5t21 -49.5t49 -20.5z" />
    <glyph glyph-name="aringacute.alt2" horiz-adv-x="574" 
d="M265 724l89 118l59 -30l-104 -88h-44zM248 -12q-78 0 -137.5 42.5t-59.5 117.5v2q0 78 61 122t162 44q86 0 169 -22v22q0 76 -44 116t-124 40t-160 -41l-18 43q70 32 124 40q-38 28 -38 74q0 41 30.5 70.5t73.5 29.5t73.5 -29.5t30.5 -70.5q0 -50 -43 -78q53 -11 91 -48
q52 -52 52 -144v-318h-48v85q-69 -97 -195 -97zM251 34q80 0 136.5 44.5t56.5 112.5v58q-90 23 -173 23q-80 0 -124 -32.5t-44 -86.5v-2q0 -53 43.5 -85t104.5 -32zM217 588q0 -28 20.5 -49t49.5 -21t49.5 21t20.5 49t-20.5 49t-49.5 21t-49.5 -21t-20.5 -49z" />
    <glyph glyph-name="atilde.alt" horiz-adv-x="660" 
d="M308 -12q-98 0 -173 73t-75 192v2q0 119 75 193t173 74q130 0 210 -122v110h49v-510h-49v114q-83 -126 -210 -126zM313 35q83 0 145.5 62.5t62.5 156.5v2q0 95 -62.5 157t-145.5 62q-86 0 -143 -59t-57 -159v-2q0 -98 58.5 -159t141.5 -61zM399 595q-20 0 -65 20
q-46 21 -63 21q-18 0 -28.5 -10.5t-21.5 -39.5l-34 9q14 52 33.5 72.5t50.5 20.5q20 0 65 -20q46 -21 63 -21q18 0 28.5 10.5t21.5 39.5l34 -9q-14 -52 -33.5 -72.5t-50.5 -20.5z" />
    <glyph glyph-name="i.dot" horiz-adv-x="249" 
d="M94 643v67h61v-67h-61zM100 0v510h49v-510h-49z" />
    <glyph glyph-name="uni0386.calt" horiz-adv-x="790" 
d="M44 0l326 705h50l326 -705h-57l-89 196h-413l-89 -196h-54zM209 243h369l-184 405z" />
    <glyph glyph-name="uni0388.calt" horiz-adv-x="670" 
d="M104 0v700h498v-48h-446v-275h401v-48h-401v-281h451v-48h-503z" />
    <glyph glyph-name="uni0389.calt" horiz-adv-x="760" 
d="M104 0v700h52v-324h448v324h52v-700h-52v328h-448v-328h-52z" />
    <glyph glyph-name="uni038A.calt" horiz-adv-x="274" 
d="M111 0v700h52v-700h-52z" />
    <glyph glyph-name="uni038C.calt" horiz-adv-x="850" 
d="M424 -12q-155 0 -253 106t-98 254v2q0 148 99 255t254 107t253 -106t98 -254v-2q0 -148 -99 -255t-254 -107zM426 35q128 0 212.5 91t84.5 222v2q0 131 -85.5 223t-213.5 92t-212.5 -91t-84.5 -222v-2q0 -131 85.5 -223t213.5 -92z" />
    <glyph glyph-name="uni038E.calt" horiz-adv-x="716" 
d="M332 0v277l-300 423h65l262 -376l263 376h62l-300 -422v-278h-52z" />
    <glyph glyph-name="uni038F.calt" horiz-adv-x="868" 
d="M434 712q152 0 248 -95.5t96 -241.5q0 -192 -197 -329l222 2v-48h-296v44q71 46 115.5 89t73 104.5t28.5 136.5q0 129 -80.5 210t-209.5 81t-209.5 -81t-80.5 -210q0 -73 28 -134t73.5 -105.5t115.5 -90.5v-44h-296v48l221 -2q-97 69 -146.5 148.5t-49.5 180.5
q0 143 96 240t248 97z" />
    <glyph glyph-name="uni0399.calt" horiz-adv-x="274" 
d="M111 0v700h52v-700h-52zM189 765v76h73v-76h-73zM13 765v76h74v-76h-74z" />
    <glyph glyph-name="uni03A5.calt" horiz-adv-x="716" 
d="M332 0v277l-300 423h65l262 -376l263 376h62l-300 -422v-278h-52zM410 760v76h73v-76h-73zM234 760v76h74v-76h-74z" />
    <glyph glyph-name="uni0431.srb" horiz-adv-x="628" 
d="M311 -12q-111 0 -183 71t-72 175q0 103 71.5 175t184.5 73l-100 58q-54 32 -73 54.5t-19 54.5q0 35 29 58t85 23h283v-45h-284q-63 0 -63 -42q0 -18 14 -33t52 -36l193 -110q141 -78 141 -224q0 -104 -72.5 -178t-186.5 -74zM312 34q90 0 147.5 59t57.5 147
q0 87 -57 144.5t-145 57.5q-90 0 -148 -59.5t-58 -148.5q0 -87 57 -143.5t146 -56.5z" />
    <glyph glyph-name="three.alt" horiz-adv-x="600" 
d="M303 -12q-81 0 -148 35.5t-110 93.5l42 31q85 -113 218 -113q77 0 127.5 41t50.5 107v2q0 68 -54.5 106.5t-152.5 38.5h-70v46h71q82 0 134.5 39.5t52.5 106.5v2q0 61 -46.5 101t-121.5 40q-117 0 -195 -107l-40 24q88 130 237 130q95 0 157.5 -53t62.5 -133v-2
q0 -121 -133 -166q69 -20 110.5 -63t41.5 -109v-2q0 -82 -66.5 -139t-167.5 -57z" />
    <glyph glyph-name="registered.alt" horiz-adv-x="830" 
d="M414 -12q-151 0 -256 105.5t-105 254.5v2q0 149 106 255.5t257 106.5t256 -105.5t105 -254.5v-2q0 -149 -106 -255.5t-257 -106.5zM414 16q141 0 237 97.5t96 236.5v2q0 138 -95 235t-236 97t-237 -97.5t-96 -236.5v-2q0 -138 95 -235t236 -97zM276 177v366h164
q70 0 107 -37q28 -28 28 -68v-2q0 -43 -27 -69.5t-73 -35.5l122 -154h-56l-116 147h-106v-147h-43zM319 364h114q43 0 70 18.5t27 51.5v2q0 30 -24.5 48t-67.5 18h-119v-138z" />
    <glyph glyph-name="one.sup_alt" 
d="M347 426h-269v34h119v318l-105 -37l-9 35l120 43h33v-359h111v-34z" />
    <glyph glyph-name="one.inf_alt" 
d="M347 -132h-269v34h119v318l-105 -37l-9 35l120 43h33v-359h111v-34z" />
    <glyph glyph-name="zero.num" 
d="M199 304q-63 0 -101 56.5t-38 144.5v2q0 88 38.5 145.5t101.5 57.5t101.5 -56.5t38.5 -144.5v-2q0 -88 -39 -145.5t-102 -57.5zM199 675q-47 0 -73.5 -47.5t-26.5 -119.5v-2q0 -72 27 -119.5t74 -47.5t74 47.5t27 119.5v2q0 72 -27.5 119.5t-74.5 47.5z" />
    <glyph glyph-name="one.num" horiz-adv-x="325" 
d="M204 314h-39v352l-90 -34l-9 35l105 40h33v-393z" />
    <glyph glyph-name="one.num_alt" 
d="M347 314h-269v34h119v318l-105 -37l-9 35l120 43h33v-359h111v-34z" />
    <glyph glyph-name="two.num" 
d="M61 314v33l149 132q43 38 61.5 64.5t18.5 56.5q0 32 -23.5 53.5t-58.5 21.5q-64 0 -110 -72l-30 18q55 89 143 89q50 0 84.5 -31.5t34.5 -76.5q0 -39 -21 -69.5t-72 -75.5l-122 -106h219v-37h-273z" />
    <glyph glyph-name="three.num" 
d="M198 304q-89 0 -143 74l29 24q46 -63 115 -63q37 0 63 23t26 58q0 37 -31.5 58.5t-80.5 21.5h-28l-8 24l133 139h-198v37h248v-32l-128 -134q59 -5 96 -34t37 -80q0 -50 -38.5 -83t-91.5 -33z" />
    <glyph glyph-name="four.num" 
d="M295 403v-91h-37v91h-190l-12 32l194 271h45v-269h55v-34h-55zM258 437v219l-158 -219h158z" />
    <glyph glyph-name="five.num" 
d="M197 304q-79 0 -139 68l28 26q51 -59 112 -59q45 0 72.5 25.5t27.5 63.5t-27.5 60.5t-71.5 22.5q-43 0 -90 -22l-27 16l13 195h225v-39h-192l-9 -130q39 17 83 17q58 0 97 -32t39 -85q0 -55 -41 -91t-100 -36z" />
    <glyph glyph-name="six.num" 
d="M198 305q-57 0 -94 37q-46 46 -46 150v2q0 95 43 155.5t111 60.5q63 0 109 -48l-25 -27q-40 40 -86 40q-47 0 -80.5 -49t-33.5 -122q42 55 109 55q53 0 89 -34t36 -90q0 -55 -38 -92.5t-94 -37.5zM197 340q41 0 68 26t27 67t-25 66t-66 25t-69 -26t-28 -65
q0 -40 27.5 -66.5t65.5 -26.5z" />
    <glyph glyph-name="seven.num" 
d="M159 312h-45l176 349h-220v39h265v-29z" />
    <glyph glyph-name="eight.num" 
d="M200 304q-61 0 -100.5 31.5t-39.5 80.5q0 65 75 97q-63 30 -63 90q0 47 38.5 77t91.5 30q52 0 90 -30.5t38 -76.5q0 -60 -63 -90q33 -12 54 -37.5t21 -57.5q0 -51 -40 -82.5t-102 -31.5zM201 675q-40 0 -65.5 -20t-25.5 -52t25.5 -53.5t65.5 -21.5t65.5 21.5t25.5 53.5
t-25.5 52t-65.5 20zM201 496q-46 0 -74.5 -23t-28.5 -57t28.5 -55.5t74.5 -21.5t74.5 21.5t28.5 55.5t-28.5 57t-74.5 23z" />
    <glyph glyph-name="nine.num" 
d="M202 709q57 0 94 -37q46 -46 46 -150v-2q0 -97 -43 -156.5t-111 -59.5q-66 0 -114 50l25 27q42 -42 91 -42q47 0 80.5 47t33.5 120q-42 -55 -109 -55q-53 0 -89 34.5t-36 91.5q0 56 38 94t94 38zM199 486q41 0 69 26.5t28 66.5q0 41 -27.5 68t-65.5 27q-42 0 -68.5 -26.5
t-26.5 -68.5q0 -43 25 -68t66 -25z" />
    <glyph glyph-name="zero.den" 
d="M199 -10q-63 0 -101 56.5t-38 144.5v2q0 88 38.5 145.5t101.5 57.5t101.5 -56.5t38.5 -144.5v-2q0 -88 -39 -145.5t-102 -57.5zM199 361q-47 0 -73.5 -47.5t-26.5 -119.5v-2q0 -72 27 -119.5t74 -47.5t74 47.5t27 119.5v2q0 72 -27.5 119.5t-74.5 47.5z" />
    <glyph glyph-name="one.den" horiz-adv-x="325" 
d="M204 0h-39v352l-90 -34l-9 35l105 40h33v-393z" />
    <glyph glyph-name="one.den_alt" 
d="M347 0h-269v34h119v318l-105 -37l-9 35l120 43h33v-359h111v-34z" />
    <glyph glyph-name="two.den" 
d="M61 0v33l149 132q43 38 61.5 64.5t18.5 56.5q0 32 -23.5 53.5t-58.5 21.5q-64 0 -110 -72l-30 18q55 89 143 89q50 0 84.5 -31.5t34.5 -76.5q0 -39 -21 -69.5t-72 -75.5l-122 -106h219v-37h-273z" />
    <glyph glyph-name="three.den" 
d="M198 -10q-89 0 -143 74l29 24q46 -63 115 -63q37 0 63 23t26 58q0 37 -31.5 58.5t-80.5 21.5h-28l-8 24l133 139h-198v37h248v-32l-128 -134q59 -5 96 -34t37 -80q0 -50 -38.5 -83t-91.5 -33z" />
    <glyph glyph-name="four.den" 
d="M295 89v-91h-37v91h-190l-12 32l194 271h45v-269h55v-34h-55zM258 123v219l-158 -219h158z" />
    <glyph glyph-name="five.den" 
d="M197 -10q-79 0 -139 68l28 26q51 -59 112 -59q45 0 72.5 25.5t27.5 63.5t-27.5 60.5t-71.5 22.5q-43 0 -90 -22l-27 16l13 195h225v-39h-192l-9 -130q39 17 83 17q58 0 97 -32t39 -85q0 -55 -41 -91t-100 -36z" />
    <glyph glyph-name="six.den" 
d="M198 -9q-57 0 -94 37q-46 46 -46 150v2q0 95 43 155.5t111 60.5q63 0 109 -48l-25 -27q-40 40 -86 40q-47 0 -80.5 -49t-33.5 -122q42 55 109 55q53 0 89 -34t36 -90q0 -55 -38 -92.5t-94 -37.5zM197 26q41 0 68 26t27 67t-25 66t-66 25t-69 -26t-28 -65
q0 -40 27.5 -66.5t65.5 -26.5z" />
    <glyph glyph-name="seven.den" 
d="M159 -2h-45l176 349h-220v39h265v-29z" />
    <glyph glyph-name="eight.den" 
d="M200 -10q-61 0 -100.5 31.5t-39.5 80.5q0 65 75 97q-63 30 -63 90q0 47 38.5 77t91.5 30q52 0 90 -30.5t38 -76.5q0 -60 -63 -90q33 -12 54 -37.5t21 -57.5q0 -51 -40 -82.5t-102 -31.5zM201 361q-40 0 -65.5 -20t-25.5 -52t25.5 -53.5t65.5 -21.5t65.5 21.5t25.5 53.5
t-25.5 52t-65.5 20zM201 182q-46 0 -74.5 -23t-28.5 -57t28.5 -55.5t74.5 -21.5t74.5 21.5t28.5 55.5t-28.5 57t-74.5 23z" />
    <glyph glyph-name="nine.den" 
d="M202 395q57 0 94 -37q46 -46 46 -150v-2q0 -97 -43 -156.5t-111 -59.5q-66 0 -114 50l25 27q42 -42 91 -42q47 0 80.5 47t33.5 120q-42 -55 -109 -55q-53 0 -89 34.5t-36 91.5q0 56 38 94t94 38zM199 172q41 0 69 26.5t28 66.5q0 41 -27.5 68t-65.5 27q-42 0 -68.5 -26.5
t-26.5 -68.5q0 -43 25 -68t66 -25z" />
    <glyph glyph-name="onehalf.alt" horiz-adv-x="900" 
d="M571 0v33l149 132q43 38 61.5 64.5t18.5 56.5q0 32 -23.5 53.5t-58.5 21.5q-64 0 -110 -72l-30 18q55 89 143 89q50 0 84.5 -31.5t34.5 -76.5q0 -39 -21 -69.5t-72 -75.5l-122 -106h219v-37h-273zM210 0l246 356l231 344h43l-246 -356l-231 -344h-43zM342 314h-269v34
h119v318l-105 -37l-9 35l120 43h33v-359h111v-34z" />
    <glyph glyph-name="onethird.alt" horiz-adv-x="900" 
d="M708 -10q-89 0 -143 74l29 24q46 -63 115 -63q37 0 63 23t26 58q0 37 -31.5 58.5t-80.5 21.5h-28l-8 24l133 139h-198v37h248v-32l-128 -134q59 -5 96 -34t37 -80q0 -50 -38.5 -83t-91.5 -33zM200 0l246 356l231 344h43l-246 -356l-231 -344h-43zM342 314h-269v34h119
v318l-105 -37l-9 35l120 43h33v-359h111v-34z" />
    <glyph glyph-name="onequarter.alt" horiz-adv-x="900" 
d="M795 89v-91h-37v91h-190l-12 32l194 271h45v-269h55v-34h-55zM215 0l246 356l231 344h43l-246 -356l-231 -344h-43zM342 314h-269v34h119v318l-105 -37l-9 35l120 43h33v-359h111v-34zM758 123v219l-158 -219h158z" />
    <glyph glyph-name="onefifth.alt" horiz-adv-x="900" 
d="M707 -10q-79 0 -139 68l28 26q51 -59 112 -59q45 0 72.5 25.5t27.5 63.5t-27.5 60.5t-71.5 22.5q-43 0 -90 -22l-27 16l13 195h225v-39h-192l-9 -130q39 17 83 17q58 0 97 -32t39 -85q0 -55 -41 -91t-100 -36zM205 0l246 356l231 344h43l-246 -356l-231 -344h-43z
M342 314h-269v34h119v318l-105 -37l-9 35l120 43h33v-359h111v-34z" />
    <glyph glyph-name="onesixth.alt" horiz-adv-x="900" 
d="M708 -9q-57 0 -94 37q-46 46 -46 150v2q0 95 43 155.5t111 60.5q63 0 109 -48l-25 -27q-40 40 -86 40q-47 0 -80.5 -49t-33.5 -122q42 55 109 55q53 0 89 -34t36 -90q0 -55 -38 -92.5t-94 -37.5zM205 0l246 356l231 344h43l-246 -356l-231 -344h-43zM707 26q41 0 68 26
t27 67t-25 66t-66 25t-69 -26t-28 -65q0 -40 27.5 -66.5t65.5 -26.5zM342 314h-269v34h119v318l-105 -37l-9 35l120 43h33v-359h111v-34z" />
    <glyph glyph-name="oneeighth.alt" horiz-adv-x="900" 
d="M710 -10q-61 0 -100.5 31.5t-39.5 80.5q0 65 75 97q-63 30 -63 90q0 47 38.5 77t91.5 30q52 0 90 -30.5t38 -76.5q0 -60 -63 -90q33 -12 54 -37.5t21 -57.5q0 -51 -40 -82.5t-102 -31.5zM711 361q-40 0 -65.5 -20t-25.5 -52t25.5 -53.5t65.5 -21.5t65.5 21.5t25.5 53.5
t-25.5 52t-65.5 20zM711 182q-46 0 -74.5 -23t-28.5 -57t28.5 -55.5t74.5 -21.5t74.5 21.5t28.5 55.5t-28.5 57t-74.5 23zM205 0l246 356l231 344h43l-246 -356l-231 -344h-43zM342 314h-269v34h119v318l-105 -37l-9 35l120 43h33v-359h111v-34z" />
    <glyph glyph-name="zero.tab" horiz-adv-x="600" 
d="M299 -12q-106 0 -174.5 96.5t-68.5 261.5v6q0 165 69.5 262.5t175.5 97.5t174.5 -96.5t68.5 -261.5v-6q0 -165 -69.5 -262.5t-175.5 -97.5zM300 666q-83 0 -137 -84t-54 -228v-6q0 -145 53.5 -229.5t137.5 -84.5q83 0 137 84t54 228v6q0 145 -53.5 229.5t-137.5 84.5z
" />
    <glyph glyph-name="one.tab" horiz-adv-x="600" 
d="M561 0h-470v48h219v601l-195 -67l-14 44l220 79h40v-657h200v-48z" />
    <glyph glyph-name="two.tab" horiz-adv-x="600" 
d="M531 0h-478v39l261 236q87 80 121.5 132t34.5 107q0 66 -46.5 108t-112.5 42q-65 0 -113 -33.5t-91 -102.5l-40 25q50 79 106 118t141 39q90 0 150 -55t60 -137v-2q0 -69 -39 -126.5t-136 -145.5l-215 -194h397v-50z" />
    <glyph glyph-name="three.tab" horiz-adv-x="600" 
d="M296 -12q-151 0 -242 122l39 33q84 -108 205 -108q73 0 126 44.5t53 116.5v2q0 68 -53 105.5t-142 37.5h-56l-19 34l249 276h-373v49h437v-47l-241 -266q109 1 180.5 -48t71.5 -139v-2q0 -93 -70.5 -151.5t-164.5 -58.5z" />
    <glyph glyph-name="three.tab_alt" horiz-adv-x="600" 
d="M296 -12q-77 0 -143 35t-106 94l41 27q79 -111 210 -111q82 0 134 41.5t52 109.5q0 69 -54.5 107.5t-153.5 38.5h-69v46h75q83 0 136 39.5t53 108.5q0 64 -46.5 103.5t-124.5 39.5q-121 0 -199 -108l-39 23q88 130 240 130q97 0 159 -52.5t62 -133.5q0 -66 -38.5 -108.5
t-96.5 -62.5q148 -44 148 -170q0 -83 -68 -140t-172 -57z" />
    <glyph glyph-name="four.tab" horiz-adv-x="600" 
d="M412 0v169h-358l-15 43l360 492h61v-491h104v-44h-104v-169h-48zM412 213v433l-317 -433h317z" />
    <glyph glyph-name="five.tab" horiz-adv-x="600" 
d="M298 -12q-139 0 -242 112l38 35q93 -101 206 -101q82 0 134.5 50t52.5 125v2q0 73 -51.5 119.5t-133.5 46.5t-164 -43l-39 25l24 341h387v-50h-343l-19 -263q78 38 158 38q101 0 168 -59.5t67 -152.5v-2q0 -98 -70 -160.5t-173 -62.5z" />
    <glyph glyph-name="six.tab" horiz-adv-x="600" 
d="M319 440q94 0 159.5 -60t65.5 -158v-1q0 -100 -67.5 -166.5t-164.5 -66.5q-101 0 -166 65q-44 44 -64.5 105t-20.5 168v4q0 168 75.5 275t202.5 107q93 0 178 -73l-32 -39q-70 66 -150 66q-103 0 -163 -95t-60 -234v-19q66 122 207 122zM311 33q82 0 131.5 53.5
t49.5 133.5q0 79 -49.5 127t-125.5 48q-87 0 -138 -52t-51 -126q0 -80 53 -132t130 -52z" />
    <glyph glyph-name="seven.tab" horiz-adv-x="600" 
d="M480 650h-406v50h464v-38l-319 -662h-57z" />
    <glyph glyph-name="eight.tab" horiz-adv-x="600" 
d="M300 -11q-107 0 -177.5 55t-70.5 141v3q0 59 41.5 105t107.5 69q-126 53 -126 164v3q0 79 67.5 130.5t157.5 51.5t157.5 -51.5t67.5 -130.5v-3q0 -58 -35.5 -99.5t-90.5 -64.5q66 -23 107.5 -69t41.5 -105v-3q0 -85 -71 -140.5t-177 -55.5zM300 381q72 0 122 41t50 104v2
q0 60 -49.5 99t-122.5 39t-122.5 -39t-49.5 -99v-2q0 -63 50 -104t122 -41zM300 34q88 0 141.5 43.5t53.5 106.5v2q0 65 -56.5 108t-138.5 43t-138.5 -43t-56.5 -108v-2q0 -63 53.5 -106.5t141.5 -43.5z" />
    <glyph glyph-name="nine.tab" horiz-adv-x="600" 
d="M280 254q-94 0 -159 60.5t-65 160.5v1q0 102 67.5 169t164.5 67q101 0 166 -65q44 -44 64.5 -105t20.5 -168v-4q0 -168 -75.5 -275t-202.5 -107q-97 0 -188 78l32 39q81 -71 160 -71q102 0 162.5 97.5t60.5 233.5v11q-67 -122 -208 -122zM289 667q-82 0 -131.5 -54.5
t-49.5 -135.5t49 -129.5t125 -48.5q87 0 138.5 53t51.5 128q0 82 -53 134.5t-130 52.5z" />
    <glyph glyph-name="dollar.tab" horiz-adv-x="600" 
d="M384 779l-10 -86q78 -17 148 -72l-30 -40q-63 51 -127 67l-34 -277q109 -24 159 -68.5t50 -119.5q0 -79 -64 -131.5t-164 -52.5q-16 0 -23 1l-15 -118h-46l15 123q-110 19 -189 95l31 38q77 -74 166 -89l35 283q-106 24 -155.5 70t-49.5 120q0 78 60.5 128.5t153.5 50.5
q11 0 33 -2l10 80h46zM490 180q0 57 -36.5 90.5t-128.5 53.5l-34 -280h24q78 0 126.5 39t48.5 97zM131 524q0 -52 35 -88t125 -57l34 275q-20 2 -32 2q-73 0 -117.5 -36.5t-44.5 -95.5z" />
    <glyph glyph-name="sterling.tab" horiz-adv-x="600" 
d="M146 355v123q0 112 62 174q58 58 147 58q112 0 188 -92l-37 -34q-66 80 -151 80q-68 0 -111 -43q-48 -48 -48 -141v-125h277v-45h-277v-264h350v-46h-481v24l81 20v266h-82v45h82z" />
    <glyph glyph-name="Euro.tab" horiz-adv-x="600" 
d="M42 416v43h82q22 111 87 182t158 71q109 0 183 -99l-37 -31q-63 86 -147 86q-73 0 -124 -58t-71 -151h249v-43h-256q-3 -30 -3 -62v-6q0 -30 3 -57h256v-43h-250q19 -96 69.5 -156t124.5 -60q50 0 85.5 22t69.5 67l33 -27q-76 -106 -190 -106q-92 0 -157 71t-85 189h-80
v43h74q-2 17 -2 54v10q0 31 3 61h-75z" />
    <glyph glyph-name="yen.tab" horiz-adv-x="600" 
d="M92 160h184v110h-184v42h170l-237 388h59l217 -368l217 368h57l-238 -388h171v-42h-184v-110h184v-42h-184v-118h-48v118h-184v42z" />
    <glyph glyph-name="cent.tab" horiz-adv-x="600" 
d="M410 706l-19 -92q79 -18 146 -90l-35 -34q-61 66 -124 82l-88 -439q9 -1 29 -1q108 0 189 92l33 -29q-95 -107 -225 -107q-23 0 -33 2l-20 -96h-49l22 106q-80 26 -128.5 94t-48.5 156v2q0 109 77 189.5t189 80.5q12 0 18 -1l18 85h49zM110 351q0 -74 37.5 -130
t100.5 -78l87 435h-11q-92 0 -153 -65.5t-61 -159.5v-2z" />
    <glyph glyph-name="numbersign.tab" horiz-adv-x="600" 
d="M35 233h107l35 238h-110v45h116l28 184h44l-27 -184h192l27 184h44l-27 -184h100v-45h-107l-35 -238h110v-45h-117l-27 -188h-44l27 188h-192l-27 -188h-44l27 188h-100v45zM221 471l-35 -238h192l35 238h-192z" />
    <glyph glyph-name="paragraph.tab" horiz-adv-x="600" 
d="M426 0v277h-82q-118 0 -192 56.5t-74 152.5q0 100 75 157t200 57h126v-700h-53z" />
    <glyph glyph-name="section.tab" horiz-adv-x="600" 
d="M314 -10q-61 0 -118 23.5t-96 62.5l34 38q80 -78 185 -78q50 0 78.5 21t28.5 54q0 36 -36 61.5t-114 46.5q-121 33 -168.5 66.5t-47.5 83.5q0 45 39 75t105 35q-82 42 -82 106q0 56 46.5 90.5t117.5 34.5q61 0 118 -23.5t96 -62.5l-34 -38q-80 78 -185 78
q-50 0 -78.5 -21t-28.5 -54q0 -36 36 -61.5t114 -46.5q121 -33 168.5 -66.5t47.5 -83.5q0 -45 -39 -75t-105 -35q82 -42 82 -106q0 -56 -46.5 -90.5t-117.5 -34.5zM233 448q-55 1 -88.5 -21.5t-33.5 -54.5q0 -33 31.5 -56t108.5 -44q76 -20 116 -20q55 -1 88.5 21.5
t33.5 54.5q0 33 -31.5 56t-108.5 44q-70 18 -116 20z" />
    <glyph glyph-name="degree.tab" horiz-adv-x="600" 
d="M299 313q-82 0 -141 58t-59 139t60 139t142 58t141 -58t59 -139t-60 -139t-142 -58zM301 356q65 0 108 44t43 110q0 65 -44 109.5t-109 44.5t-108 -44t-43 -110q0 -65 44 -109.5t109 -44.5z" />
    <glyph glyph-name="percent.tab" horiz-adv-x="600" 
d="M155 708q52 0 84.5 -47.5t32.5 -118.5v-4q0 -71 -32.5 -119.5t-84.5 -48.5t-84.5 47.5t-32.5 118.5v4q0 71 32.5 119.5t84.5 48.5zM445 330q52 0 84.5 -47.5t32.5 -118.5v-4q0 -71 -32.5 -119.5t-84.5 -48.5t-84.5 47.5t-32.5 118.5v4q0 71 32.5 119.5t84.5 48.5z
M445 293q-36 0 -55.5 -37t-19.5 -91v-8q0 -54 19.5 -91t55.5 -37t55.5 37t19.5 91v8q0 54 -19.5 91t-55.5 37zM155 671q-36 0 -55.5 -37t-19.5 -91v-8q0 -54 19.5 -91t55.5 -37t55.5 37t19.5 91v8q0 54 -19.5 91t-55.5 37zM467 700h42l-194 -358l-182 -342h-42l194 358z" />
    <glyph glyph-name="quotedbl.tab" horiz-adv-x="600" 
d="M348 446l65 254h66v-5l-101 -249h-30zM138 446l65 254h66v-5l-101 -249h-30z" />
    <glyph glyph-name="quotesingle.tab" horiz-adv-x="300" 
d="M93 446l65 254h66v-5l-101 -249h-30z" />
    <glyph glyph-name="period.tab" horiz-adv-x="300" 
d="M109 0v95h82v-95h-82z" />
    <glyph glyph-name="comma.tab" horiz-adv-x="300" 
d="M100 -107l-12 25q33 17 45.5 35.5t10.5 46.5h-35v95h82v-84q0 -45 -22 -72.5t-69 -45.5z" />
    <glyph glyph-name="colon.tab" horiz-adv-x="300" 
d="M109 415v95h82v-95h-82zM109 0v95h82v-95h-82z" />
    <glyph glyph-name="semicolon.tab" horiz-adv-x="300" 
d="M109 415v95h82v-95h-82zM100 -107l-12 25q33 17 45.5 35.5t10.5 46.5h-35v95h82v-84q0 -45 -22 -72.5t-69 -45.5z" />
    <glyph glyph-name="twodotleader.tab" horiz-adv-x="600" 
d="M411 0v89h78v-89h-78zM111 0v89h78v-89h-78z" />
    <glyph glyph-name="periodcentered.tab" horiz-adv-x="300" 
d="M109 250v95h82v-95h-82z" />
    <glyph glyph-name="slash.tab" horiz-adv-x="600" 
d="M573 798l-511 -926h-50l511 926h50z" />
    <glyph glyph-name="bar.tab" horiz-adv-x="300" 
d="M128 -128v926h44v-926h-44z" />
    <glyph glyph-name="underscore.tab" horiz-adv-x="600" 
d="M-2 -160v44h604v-44h-604z" />
    <glyph glyph-name="plus.tab" horiz-adv-x="600" 
d="M532 328h-207v-213h-50v213h-207v48h207v213h50v-213h207v-48z" />
    <glyph glyph-name="minus.tab" horiz-adv-x="600" 
d="M532 327h-464v50h464v-50z" />
    <glyph glyph-name="divide.tab" horiz-adv-x="600" 
d="M260 500v89h80v-89h-80zM532 328h-464v48h464v-48zM260 115v89h80v-89h-80z" />
    <glyph glyph-name="equal.tab" horiz-adv-x="600" 
d="M515 438h-430v49h430v-49zM515 217h-430v49h430v-49z" />
    <glyph glyph-name="multiply.tab" horiz-adv-x="600" 
d="M480 136l-181 183l-181 -183l-34 34l183 181l-183 181l36 36l181 -183l181 183l34 -34l-183 -181l183 -181z" />
    <glyph glyph-name="less.tab" horiz-adv-x="600" 
d="M505 97l-438 236v38l438 236v-51l-383 -203l383 -205v-51z" />
    <glyph glyph-name="greater.tab" horiz-adv-x="600" 
d="M533 333l-438 -236v51l383 203l-383 205v51l438 -236v-38z" />
    <glyph glyph-name="plusminus.tab" horiz-adv-x="600" 
d="M532 358h-207v-203h-50v203h-207v48h207v203h50v-203h207v-48zM532 0h-464v48h464v-48z" />
    <glyph glyph-name="R_p" horiz-adv-x="1180" 
d="M683 -160v674h48v-110q69 121 183 121q86 0 152 -72.5t66 -191.5v-7q0 -119 -66 -192t-152 -73q-114 0 -183 118v-267h-48zM85 0v700h232q108 0 173 -56.5t65 -146.5v-2q0 -80 -49 -133t-128 -70l203 -292h-62l-196 284h-189v-284h-49zM909 33q73 0 123 59.5t50 160.5v7
q0 99 -51 160t-122 61t-126 -61.5t-55 -157.5v-9q0 -96 55 -158t126 -62zM134 328h178q86 0 139.5 44.5t53.5 120.5v2q0 75 -51 117t-140 42h-180v-326z" />
    <glyph glyph-name="hcoslug" horiz-adv-x="694" 
d="M273 18h-26q0 -12 10 -12q8 0 9 7h7q-3 -14 -18 -14q-21 0 -21 20q0 9 6 15t14 6q21 0 19 -22zM254 35q-7 0 -7 -12h14q0 12 -7 12zM195 78q8 0 8 16q0 15 -8 15t-8 -15q0 -16 8 -16zM210 4q8 0 8 16q0 15 -8 15t-8 -15q0 -16 8 -16zM210 -1q-21 0 -21 21q0 20 21 20
t21 -20q0 -9 -6 -15t-15 -6zM546 4q8 0 8 16q0 15 -8 15t-8 -15q0 -16 8 -16zM546 -1q-21 0 -21 21q0 20 21 20t21 -20q0 -9 -6 -15t-15 -6zM125 74v7h7v41h-7v7h51v-20h-8q-2 13 -11 13h-12v-18h4q5 0 6 8h7v-23h-7q-1 8 -6 8h-4v-16h10v-7h-30zM195 73q-21 0 -21 21
q0 20 21 20t21 -20q0 -9 -6 -15t-15 -6zM644 -100v800h-594v-800h594zM498 -1q-29 0 -29 28q0 13 8 21.5t19 8.5q9 0 16 -7l1 6h8v-22h-8q-5 16 -15 16q-14 0 -14 -22t16 -22q12 0 14 16h8q-2 -23 -24 -23zM372 80q7 0 7 13t-7 13q-8 0 -8 -13t8 -13zM276 0v7h6v25h-7v7h7v1
q0 19 19 19q5 0 9 -2l10 2v-52h6v-7h-23v7h5v25h-14v-25h5v-7h-23zM368 0v7h6v25h-6v7h18v-10q4 11 12 11t8 -8q0 -7 -7 -7q-6 0 -6 6v1q-3 0 -7 -9v-16h8v-7h-26zM352 73v52h-6v7h18v-27q3 9 13 9q15 0 15 -20q0 -21 -16 -21q-9 0 -14 8l-4 -8h-6zM400 75q5 0 6.5 -4
t-1.5 -6q6 0 8 8l-16 33h-5v7h25v-7h-6l9 -20l8 20h-5v7h17v-7h-5l-13 -31q-6 -16 -18 -16q-11 0 -11 9q0 7 7 7zM247 428q0 13 7.5 21t19.5 8q13 0 21 -10.5t8 -27.5q0 -22 -18 -50q-15 14 -21 20.5t-11.5 17t-5.5 21.5zM302 74v14h7q6 -9 12 -9q5 0 5 4q0 3 -12 6.5
t-12 12.5q0 12 14 12q8 0 11 -5l2 5h6v-13h-7q-5 7 -10 7t-5 -4q0 -3 12 -6t12 -12q0 -13 -14 -13q-5 0 -13 5l-1 -4h-7zM261 219q-22 0 -37 15.5t-15 38.5q0 24 16 40q34 -32 74 -82q-15 -12 -38 -12zM274 122l12 2v-11h13v-7h-13v-20q0 -5 4 -5t5 7l5 -2q-3 -13 -14 -13
q-12 0 -12 13v20h-7v7h7v9zM428 306q-26 -16 -46 -42q35 -41 62 -41q26 0 43 29l7 -2q-1 -43 -24 -68.5t-56 -25.5q-41 0 -85 45q-41 -45 -104 -45q-45 0 -77 27t-32 66q0 63 82 91q-31 32 -31 69q0 34 30.5 59.5t78.5 25.5q44 0 69.5 -22.5t25.5 -51.5q0 -19 -9 -34
q46 2 49 -37q25 38 60 38q21 0 35.5 -14.5t14.5 -37.5t-14.5 -38.5t-35.5 -15.5q-28 0 -43 25zM219 74v7h6v25h-6v7h17v-10q5 11 14 11q12 0 12 -14v-19h6v-7h-22v7h4v18q0 7 -6 7q-7 0 -7 -10v-15h4v-7h-22zM446 33h18v-7h-5q-3 -6 -9 -14q3 -5 6 -5t4 5l5 -1
q-3 -12 -13 -12q-7 0 -12 6q-6 -6 -15 -6q-18 0 -18 14q0 11 13 15q-6 6 -6 12q0 14 17 14q14 0 14 -12q0 -7 -11 -12q3 -3 6.5 -7t5.5 -6q4 5 6 9h-6v7zM429 6q3 0 8 3q-10 12 -14 16q-4 -4 -4 -9q0 -10 10 -10zM294 42v-3h14v5q-6 0 -6 6l1 3q-1 1 -3 1q-6 0 -6 -12z
M425 43q0 -4 6 -10q5 3 5 9t-6 6q-5 0 -5 -5zM312 342q30 20 42 34q29 -29 -1 -80q-33 38 -41 46zM366 18h-26q0 -12 10 -12q8 0 9 7h7q-4 -14 -18 -14q-21 0 -21 20q0 9 6 15t14 6q21 0 19 -22zM347 35q-7 0 -7 -12h14q0 12 -7 12zM124 0v7h8v41h-8v7h29v-7h-8v-16h22v16
h-8v7h29v-7h-8v-41h8v-7h-29v7h8v18h-22v-18h8v-7h-29zM576 13q7 0 7 -7t-7 -7t-7 7t7 7z" />
    <glyph glyph-name="space.tab" horiz-adv-x="300" 
 />
    <glyph glyph-name="NUL" horiz-adv-x="0" 
 />
    <glyph glyph-name="caron.alt" horiz-adv-x="500" 
d="M211 581l17 149h61v-3l-49 -146h-29z" />
    <glyph glyph-name="descendercyrillic" horiz-adv-x="500" 
d="M227 -140v155h46v-155h-46z" />
    <glyph glyph-name="descendercyrillic.cap" horiz-adv-x="500" 
d="M225 -148v166h51v-166h-51z" />
    <glyph glyph-name="straightdescendercyrillic" horiz-adv-x="500" 
d="M227 -140v140h-23v45h69v-185h-46z" />
    <glyph glyph-name="straightdescendercyrillic.cap" horiz-adv-x="500" 
d="M224 -148v148h-24v48h75v-196h-51z" />
    <glyph glyph-name="acute.cap" horiz-adv-x="500" 
d="M191 765l93 118l59 -28l-107 -90h-45z" />
    <glyph glyph-name="hungarumlaut.cap" horiz-adv-x="500" 
d="M106 765l93 118l59 -28l-107 -90h-45zM246 765l93 118l59 -28l-107 -90h-45z" />
    <glyph glyph-name="grave.cap" horiz-adv-x="500" 
d="M309 765h-45l-107 90l59 28z" />
    <glyph glyph-name="circumflex.cap" horiz-adv-x="500" 
d="M124 765l103 107h46l103 -107h-54l-73 61l-73 -61h-52z" />
    <glyph glyph-name="caron.cap" horiz-adv-x="500" 
d="M376 872l-103 -107h-46l-103 107h54l73 -61l73 61h52z" />
    <glyph glyph-name="breve.cap" horiz-adv-x="500" 
d="M250 763q-56 0 -92.5 26.5t-40.5 73.5h44q18 -52 89 -52t89 52h44q-4 -47 -40.5 -73.5t-92.5 -26.5z" />
    <glyph glyph-name="tilde.cap" horiz-adv-x="500" 
d="M315 765q-20 0 -70 21q-40 17 -56 17q-18 0 -28.5 -10t-21.5 -37l-37 10q14 47 33.5 67.5t48.5 20.5q20 0 70 -21q40 -17 56 -17q18 0 28 10t22 36l37 -10q-14 -47 -33.5 -67t-48.5 -20z" />
    <glyph glyph-name="macron.cap" horiz-adv-x="500" 
d="M95 791v49h310v-49h-310z" />
    <glyph glyph-name="dieresis.cap" horiz-adv-x="500" 
d="M301 765v76h73v-76h-73zM125 765v76h74v-76h-74z" />
    <glyph glyph-name="dotaccent.cap" horiz-adv-x="500" 
d="M212 765v76h76v-76h-76z" />
    <glyph glyph-name="ring.cap" horiz-adv-x="500" 
d="M250 763q-44 0 -75 27.5t-31 67.5t31 67.5t75 27.5t75 -27.5t31 -67.5t-31 -67.5t-75 -27.5zM250 795q29 0 48.5 18t19.5 45t-19.5 45t-48.5 18t-48.5 -18t-19.5 -45t19.5 -45t48.5 -18z" />
    <glyph glyph-name="uni0384.cap" horiz-adv-x="500" 
d="M84 534l19 166h63l-51 -166h-31z" />
    <glyph glyph-name="commaaccent.rot" horiz-adv-x="500" 
d="M304 746l6 -24q-31 -7 -44 -20t-11 -36h31v-71h-72v62q0 76 90 89z" />
    </font>
</defs>
</svg>
